  0
SECTION
  2
HEADER
  9
$ACADVER
  1
AC1015
  9
$ACADMAINTVER
 70
               6
  9
$DWGCODEPAGE
  3
ANSI_932
  9
$INSBASE
 10
0.0
 20
0.0
 30
0.0
  9
$EXTMIN
 10
-365.37008845357821
 20
-205.14248000000006
 30
-8.1914999999999996
  9
$EXTMAX
 10
375.9487115464218
 20
165.27351999999993
 30
8.1914999999999996
  9
$LIMMIN
 10
0.0
 20
0.0
  9
$LIMMAX
 10
0.0
 20
0.0
  9
$ORTHOMODE
 70
               0
  9
$REGENMODE
 70
               1
  9
$FILLMODE
 70
               1
  9
$QTEXTMODE
 70
               0
  9
$MIRRTEXT
 70
               1
  9
$LTSCALE
 40
50.799999999999997
  9
$ATTMODE
 70
               1
  9
$TEXTSIZE
 40
0.2
  9
$TRACEWID
 40
1.0
  9
$TEXTSTYLE
  7
Standard
  9
$CLAYER
  8
一般
  9
$CELTYPE
  6
Continuous
  9
$CECOLOR
 62
             256
  9
$CELTSCALE
 40
1.0
  9
$DISPSILH
 70
               0
  9
$DIMSCALE
 40
1.0
  9
$DIMASZ
 40
6.0027343749999993
  9
$DIMEXO
 40
3.9999999999999996
  9
$DIMDLI
 40
7.0
  9
$DIMRND
 40
0.0
  9
$DIMDLE
 40
0.0
  9
$DIMEXE
 40
3.9999999999999996
  9
$DIMTP
 40
0.0
  9
$DIMTM
 40
0.0
  9
$DIMTXT
 40
8.7312499999999993
  9
$DIMCEN
 40
0.0
  9
$DIMTSZ
 40
0.0
  9
$DIMTOL
 70
               0
  9
$DIMLIM
 70
               0
  9
$DIMTIH
 70
               0
  9
$DIMTOH
 70
               0
  9
$DIMSE1
 70
               0
  9
$DIMSE2
 70
               0
  9
$DIMTAD
 70
               1
  9
$DIMZIN
 70
              11
  9
$DIMBLK
  1
VW_FILLEDARROW
  9
$DIMASO
 70
               1
  9
$DIMSHO
 70
               1
  9
$DIMPOST
  1
<>
  9
$DIMAPOST
  1
[]
  9
$DIMALT
 70
               0
  9
$DIMALTD
 70
               2
  9
$DIMALTF
 40
1.0
  9
$DIMLFAC
 40
1.0
  9
$DIMTOFL
 70
               1
  9
$DIMTVP
 40
0.0
  9
$DIMTIX
 70
               1
  9
$DIMSOXD
 70
               0
  9
$DIMSAH
 70
               0
  9
$DIMBLK1
  1

  9
$DIMBLK2
  1

  9
$DIMSTYLE
  2
中谷
  9
$DIMCLRD
 70
               0
  9
$DIMCLRE
 70
               0
  9
$DIMCLRT
 70
               0
  9
$DIMTFAC
 40
1.0
  9
$DIMGAP
 40
0.0099999999627471
  9
$DIMJUST
 70
               0
  9
$DIMSD1
 70
               0
  9
$DIMSD2
 70
               0
  9
$DIMTOLJ
 70
               1
  9
$DIMTZIN
 70
              11
  9
$DIMALTZ
 70
              11
  9
$DIMALTTZ
 70
              11
  9
$DIMUPT
 70
               0
  9
$DIMDEC
 70
               2
  9
$DIMTDEC
 70
               2
  9
$DIMALTU
 70
               2
  9
$DIMALTTD
 70
               2
  9
$DIMTXSTY
  7
ＭＳ Ｐゴシック
  9
$DIMAUNIT
 70
               0
  9
$DIMADEC
 70
               0
  9
$DIMALTRND
 40
0.0
  9
$DIMAZIN
 70
               0
  9
$DIMDSEP
 70
              46
  9
$DIMATFIT
 70
               0
  9
$DIMFRAC
 70
               2
  9
$DIMLDRBLK
  1

  9
$DIMLUNIT
 70
               2
  9
$DIMLWD
 70
              -2
  9
$DIMLWE
 70
              -2
  9
$DIMTMOVE
 70
               0
  9
$LUNITS
 70
               2
  9
$LUPREC
 70
               4
  9
$SKETCHINC
 40
0.1
  9
$FILLETRAD
 40
0.0
  9
$AUNITS
 70
               0
  9
$AUPREC
 70
               0
  9
$MENU
  1
acad
  9
$ELEVATION
 40
0.0
  9
$PELEVATION
 40
0.0
  9
$THICKNESS
 40
0.0
  9
$LIMCHECK
 70
               0
  9
$CHAMFERA
 40
0.0
  9
$CHAMFERB
 40
0.0
  9
$CHAMFERC
 40
0.0
  9
$CHAMFERD
 40
0.0
  9
$SKPOLY
 70
               0
  9
$TDCREATE
 40
2454365.758437500
  9
$TDUCREATE
 40
0.000000000
  9
$TDUPDATE
 40
2454365.758437500
  9
$TDUUPDATE
 40
0.000000000
  9
$TDINDWG
 40
0.0000000000
  9
$TDUSRTIMER
 40
0.0000000000
  9
$USRTIMER
 70
               1
  9
$ANGBASE
 50
0.0
  9
$ANGDIR
 70
               0
  9
$PDMODE
 70
               1
  9
$PDSIZE
 40
-2.0
  9
$PLINEWID
 40
0.0
  9
$SPLFRAME
 70
               0
  9
$SPLINETYPE
 70
               6
  9
$SPLINESEGS
 70
               8
  9
$HANDSEED
  5
3B8
  9
$SURFTAB1
 70
               6
  9
$SURFTAB2
 70
               6
  9
$SURFTYPE
 70
               6
  9
$SURFU
 70
               6
  9
$SURFV
 70
               6
  9
$UCSBASE
  2

  9
$UCSNAME
  2

  9
$UCSORG
 10
0.0
 20
0.0
 30
0.0
  9
$UCSXDIR
 10
1.0
 20
0.0
 30
0.0
  9
$UCSYDIR
 10
0.0
 20
1.0
 30
0.0
  9
$UCSORTHOREF
  2

  9
$UCSORTHOVIEW
 70
               0
  9
$UCSORGTOP
 10
0.0
 20
0.0
 30
0.0
  9
$UCSORGBOTTOM
 10
0.0
 20
0.0
 30
0.0
  9
$UCSORGLEFT
 10
0.0
 20
0.0
 30
0.0
  9
$UCSORGRIGHT
 10
0.0
 20
0.0
 30
0.0
  9
$UCSORGFRONT
 10
0.0
 20
0.0
 30
0.0
  9
$UCSORGBACK
 10
0.0
 20
0.0
 30
0.0
  9
$PUCSBASE
  2

  9
$PUCSNAME
  2

  9
$PUCSORG
 10
0.0
 20
0.0
 30
0.0
  9
$PUCSXDIR
 10
1.0
 20
0.0
 30
0.0
  9
$PUCSYDIR
 10
0.0
 20
1.0
 30
0.0
  9
$PUCSORTHOREF
  2

  9
$PUCSORTHOVIEW
 70
               0
  9
$PUCSORGTOP
 10
0.0
 20
0.0
 30
0.0
  9
$PUCSORGBOTTOM
 10
0.0
 20
0.0
 30
0.0
  9
$PUCSORGLEFT
 10
0.0
 20
0.0
 30
0.0
  9
$PUCSORGRIGHT
 10
0.0
 20
0.0
 30
0.0
  9
$PUCSORGFRONT
 10
0.0
 20
0.0
 30
0.0
  9
$PUCSORGBACK
 10
0.0
 20
0.0
 30
0.0
  9
$USERI1
 70
               0
  9
$USERI2
 70
               0
  9
$USERI3
 70
               0
  9
$USERI4
 70
               0
  9
$USERI5
 70
               0
  9
$USERR1
 40
0.0
  9
$USERR2
 40
0.0
  9
$USERR3
 40
0.0
  9
$USERR4
 40
0.0
  9
$USERR5
 40
0.0
  9
$WORLDVIEW
 70
               1
  9
$SHADEDGE
 70
               3
  9
$SHADEDIF
 70
              70
  9
$TILEMODE
 70
               1
  9
$MAXACTVP
 70
              64
  9
$PINSBASE
 10
0.0
 20
0.0
 30
0.0
  9
$PLIMCHECK
 70
               0
  9
$PEXTMIN
 10
1.0000000000000000E+20
 20
1.0000000000000000E+20
 30
1.0000000000000000E+20
  9
$PEXTMAX
 10
-1.0000000000000000E+20
 20
-1.0000000000000000E+20
 30
-1.0000000000000000E+20
  9
$PLIMMIN
 10
0.0
 20
0.0
  9
$PLIMMAX
 10
12.0
 20
9.0
  9
$UNITMODE
 70
               0
  9
$VISRETAIN
 70
               0
  9
$PLINEGEN
 70
               1
  9
$PSLTSCALE
 70
               0
  9
$TREEDEPTH
 70
            3020
  9
$CMLSTYLE
  2
Standard
  9
$CMLJUST
 70
               0
  9
$CMLSCALE
 40
1.0
  9
$PROXYGRAPHICS
 70
               0
  9
$MEASUREMENT
 70
               1
  9
$CELWEIGHT
370
               0
  9
$ENDCAPS
280
               0
  9
$JOINSTYLE
280
               0
  9
$LWDISPLAY
290
               1
  9
$INSUNITS
 70
               4
  9
$HYPERLINKBASE
  1

  9
$STYLESHEET
  1

  9
$XEDIT
290
               1
  9
$CEPSNTYPE
380
               0
  9
$PSTYLEMODE
290
               1
  9
$FINGERPRINTGUID
  2

  9
$VERSIONGUID
  2

  9
$EXTNAMES
290
               1
  9
$PSVPSCALE
 40
0.0
  0
ENDSEC
  0
SECTION
  2
CLASSES
  0
CLASS
  1
LWPOLYLINE
  2
AcDbPolyline
  3
AutoCAD 2000
 90
        0
280
               0
281
               1
  0
CLASS
  1
IMAGE
  2
AcDbRasterImage
  3
ISM
 90
      127
280
               0
281
               1
  0
CLASS
  1
OLE2FRAME
  2
AcDbOle2Frame
  3
AutoCAD 2000
 90
        0
280
               0
281
               1
  0
CLASS
  1
HATCH
  2
AcDbHatch
  3
AutoCAD 2000
 90
        0
280
               0
281
               1
  0
CLASS
  1
DICTIONARYVAR
  2
AcDbDictionaryVar
  3
AutoCAD 2000
 90
        0
280
               0
281
               0
  0
CLASS
  1
RASTERVARIABLES
  2
AcDbRasterVariables
  3
ISM
 90
        0
280
               0
281
               0
  0
CLASS
  1
IMAGEDEF
  2
AcDbRasterImageDef
  3
ISM
 90
        0
280
               0
281
               0
  0
CLASS
  1
IMAGEDEF_REACTOR
  2
AcDbRasterImageDefReactor
  3
ISM
 90
        1
280
               0
281
               0
  0
CLASS
  1
IDBUFFER
  2
AcDbIdBuffer
  3
AutoCAD 2000
 90
        0
280
               0
281
               0
  0
CLASS
  1
SPATIAL_FILTER
  2
AcDbSpatialFilter
  3
AutoCAD 2000
 90
        0
280
               0
281
               0
  0
CLASS
  1
XRECORD
  2
AcDbXrecord
  3
AutoCAD 2000
 90
        0
280
               0
281
               0
  0
CLASS
  1
SORTENTSTABLE
  2
AcDbSortentsTable
  3
AutoCAD 2000
 90
        0
280
               0
281
               0
  0
CLASS
  1
LAYER_INDEX
  2
AcDbLayerIndex
  3
AutoCAD 2000
 90
        0
280
               0
281
               0
  0
CLASS
  1
SPATIAL_INDEX
  2
AcDbSpatialIndex
  3
AutoCAD 2000
 90
        0
280
               0
281
               0
  0
CLASS
  1
OBJECT_PTR
  2
CAseDLPNTableRecord
  3
"ASE-LPNTableRecord"
 90
        1
280
               0
281
               0
  0
CLASS
  1
LAYOUT
  2
AcDbLayout
  3
AutoCAD 2000
 90
        0
280
               0
281
               0
  0
CLASS
  1
PLOTSETTINGS
  2
AcDbPlotSettings
  3
AutoCAD 2000
 90
        0
280
               0
281
               0
  0
CLASS
  1
ACDBDICTIONARYWDFLT
  2
AcDbDictionaryWithDefault
  3
AutoCAD 2000
 90
        0
280
               0
281
               0
  0
CLASS
  1
ACDBPLACEHOLDER
  2
AcDbPlaceHolder
  3
AutoCAD 2000
 90
        0
280
               0
281
               0
  0
CLASS
  1
VBA_PROJECT
  2
AcDbVbaProject
  3
acadvba
 90
        0
280
               0
281
               0
  0
CLASS
  1
WIPEOUT
  2
AcDbWipeout
  3
WipeOut|AutoCAD Express Tool|expresstools@autodesk.com
 90
      127
280
               0
281
               1
  0
CLASS
  1
WIPEOUTVARIABLES
  2
AcDbWipeoutVariables
  3
WipeOut|AutoCAD Express Tool|expresstools@autodesk.com
 90
        0
280
               0
281
               0
  0
CLASS
  1
RTEXT
  2
RText
  3
RText|AutoCAD Express Tool|expresstools@autodesk.com
 90
        0
280
               0
281
               1
  0
CLASS
  1
ARCALIGNEDTEXT
  2
AcDbArcAlignedText
  3
ATEXT|AutoCAD Express Tool|expresstools@autodesk.com
 90
        0
280
               0
281
               1
  0
ENDSEC
  0
SECTION
  2
TABLES
  0
TABLE
  2
VPORT
  5
7
100
AcDbSymbolTable
 70
               1
  0
VPORT
  5
15
100
AcDbSymbolTableRecord
100
AcDbViewportTableRecord
  2
*ACTIVE
 70
               0
 10
0.0
 20
0.0
 11
1.0
 21
1.0
 12
5.2893115464217999
 22
-19.934480000000065
 13
0.0
 23
0.0
 14
1.0
 24
1.0
 15
0.0
 25
0.0
 16
0.0
 26
0.0
 36
1.0
 17
0.0
 27
0.0
 37
0.0
 40
370.416
 41
0.688564
 42
50.0
 43
0.0
 44
0.0
 50
0.0
 51
0.0
 71
               0
 72
            2000
 73
               1
 74
               1
 75
               0
 76
               0
 77
               0
 78
               0
281
               0
 65
               0
110
0.0
120
0.0
130
0.0
111
1.0
121
0.0
131
0.0
112
0.0
122
1.0
132
0.0
345
0
346
0
 79
               0
146
0.0
  0
ENDTAB
  0
TABLE
  2
LTYPE
  5
4
100
AcDbSymbolTable
 70
              27
  0
LTYPE
  5
11
100
AcDbSymbolTableRecord
100
AcDbLinetypeTableRecord
  2
ByBlock
 70
              64
  3

 72
              65
 73
               0
 40
0.0
  0
LTYPE
  5
12
100
AcDbSymbolTableRecord
100
AcDbLinetypeTableRecord
  2
ByLayer
 70
              64
  3

 72
              65
 73
               0
 40
0.0
  0
LTYPE
  5
13
100
AcDbSymbolTableRecord
100
AcDbLinetypeTableRecord
  2
Continuous
 70
              64
  3
Solid line
 72
              65
 73
               0
 40
0.0
  0
LTYPE
  5
44
100
AcDbSymbolTableRecord
100
AcDbLinetypeTableRecord
  2
STYLE_01
 70
               0
  3

 72
              65
 73
               2
 40
0.166656494140625
 49
0.08331298828125
 74
               0
 49
-0.083343505859375
 74
               0
  0
LTYPE
  5
45
100
AcDbSymbolTableRecord
100
AcDbLinetypeTableRecord
  2
STYLE_02
 70
               0
  3

 72
              65
 73
               2
 40
0.27777099609375
 49
0.194427490234375
 74
               0
 49
-0.083343505859375
 74
               0
  0
LTYPE
  5
46
100
AcDbSymbolTableRecord
100
AcDbLinetypeTableRecord
  2
STYLE_03
 70
               0
  3

 72
              65
 73
               2
 40
0.5
 49
0.416656494140625
 74
               0
 49
-0.083343505859375
 74
               0
  0
LTYPE
  5
47
100
AcDbSymbolTableRecord
100
AcDbLinetypeTableRecord
  2
STYLE_04
 70
               0
  3

 72
              65
 73
               2
 40
0.611083984375
 49
0.52777099609375
 74
               0
 49
-0.08331298828125
 74
               0
  0
LTYPE
  5
48
100
AcDbSymbolTableRecord
100
AcDbLinetypeTableRecord
  2
STYLE_05
 70
               0
  3

 72
              65
 73
               2
 40
0.08331298828125
 49
0.02777099609375
 74
               0
 49
-0.0555419921875
 74
               0
  0
LTYPE
  5
49
100
AcDbSymbolTableRecord
100
AcDbLinetypeTableRecord
  2
STYLE_06
 70
               0
  3

 72
              65
 73
               4
 40
0.3055419921875
 49
0.166656494140625
 74
               0
 49
-0.055572509765625
 74
               0
 49
0.02777099609375
 74
               0
 49
-0.0555419921875
 74
               0
  0
LTYPE
  5
4A
100
AcDbSymbolTableRecord
100
AcDbLinetypeTableRecord
  2
STYLE_07
 70
               0
  3

 72
              65
 73
               6
 40
0.75
 49
0.25
 74
               0
 49
-0.08331298828125
 74
               0
 49
0.25
 74
               0
 49
-0.083343505859375
 74
               0
 49
0.02777099609375
 74
               0
 49
-0.055572509765625
 74
               0
  0
LTYPE
  5
4B
100
AcDbSymbolTableRecord
100
AcDbLinetypeTableRecord
  2
STYLE_08
 70
               0
  3

 72
              65
 73
               6
 40
0.5
 49
0.25
 74
               0
 49
-0.08331298828125
 74
               0
 49
0.02777099609375
 74
               0
 49
-0.055572509765625
 74
               0
 49
0.02777099609375
 74
               0
 49
-0.055572509765625
 74
               0
  0
LTYPE
  5
4C
100
AcDbSymbolTableRecord
100
AcDbLinetypeTableRecord
  2
STYLE_09
 70
               0
  3

 72
              65
 73
               4
 40
0.3055419921875
 49
0.138885498046875
 74
               0
 49
-0.055572509765625
 74
               0
 49
0.0555419921875
 74
               0
 49
-0.0555419921875
 74
               0
  0
LTYPE
  5
4D
100
AcDbSymbolTableRecord
100
AcDbLinetypeTableRecord
  2
STYLE_10
 70
               0
  3

 72
              65
 73
               6
 40
2.375
 49
1.5
 74
               0
 49
-0.111114501953125
 74
               0
 49
0.27777099609375
 74
               0
 49
-0.111114501953125
 74
               0
 49
0.25
 74
               0
 49
-0.125
 74
               0
  0
LTYPE
  5
4E
100
AcDbSymbolTableRecord
100
AcDbLinetypeTableRecord
  2
STYLE_11
 70
               0
  3

 72
              65
 73
               2
 40
0.403472900390625
 49
0.26898193359375
 74
               0
 49
-0.134490966796875
 74
               0
  0
LTYPE
  5
4F
100
AcDbSymbolTableRecord
100
AcDbLinetypeTableRecord
  2
STYLE_12
 70
               0
  3

 72
              65
 73
               2
 40
0.20172119140625
 49
0.134490966796875
 74
               0
 49
-0.067230224609375
 74
               0
  0
LTYPE
  5
50
100
AcDbSymbolTableRecord
100
AcDbLinetypeTableRecord
  2
STYLE_13
 70
               0
  3

 72
              65
 73
               4
 40
1.075927734375
 49
0.672454833984375
 74
               0
 49
-0.134490966796875
 74
               0
 49
0.134490966796875
 74
               0
 49
-0.134490966796875
 74
               0
  0
LTYPE
  5
51
100
AcDbSymbolTableRecord
100
AcDbLinetypeTableRecord
  2
STYLE_14
 70
               0
  3

 72
              65
 73
               6
 40
1.34490966796875
 49
0.672454833984375
 74
               0
 49
-0.134490966796875
 74
               0
 49
0.134490966796875
 74
               0
 49
-0.134490966796875
 74
               0
 49
0.134490966796875
 74
               0
 49
-0.134490966796875
 74
               0
  0
LTYPE
  5
52
100
AcDbSymbolTableRecord
100
AcDbLinetypeTableRecord
  2
STYLE_15
 70
               0
  3

 72
              65
 73
               4
 40
0.5
 49
0.25
 74
               0
 49
-0.083343505859375
 74
               0
 49
0.08331298828125
 74
               0
 49
-0.083343505859375
 74
               0
  0
LTYPE
  5
53
100
AcDbSymbolTableRecord
100
AcDbLinetypeTableRecord
  2
STYLE_16
 70
               0
  3

 72
              65
 73
               6
 40
0.52777099609375
 49
0.22222900390625
 74
               0
 49
-0.08331298828125
 74
               0
 49
0.0555419921875
 74
               0
 49
-0.055572509765625
 74
               0
 49
0.055572509765625
 74
               0
 49
-0.0555419921875
 74
               0
  0
LTYPE
  5
54
100
AcDbSymbolTableRecord
100
AcDbLinetypeTableRecord
  2
STYLE_17
 70
               0
  3

 72
              65
 73
               2
 40
0.40191650390625
 49
0.2679443359375
 74
               0
 49
-0.13397216796875
 74
               0
  0
LTYPE
  5
55
100
AcDbSymbolTableRecord
100
AcDbLinetypeTableRecord
  2
STYLE_18
 70
               0
  3

 72
              65
 73
               4
 40
2.14361572265625
 49
1.33978271484375
 74
               0
 49
-0.2679443359375
 74
               0
 49
0.2679443359375
 74
               0
 49
-0.2679443359375
 74
               0
  0
LTYPE
  5
56
100
AcDbSymbolTableRecord
100
AcDbLinetypeTableRecord
  2
STYLE_19
 70
               0
  3

 72
              65
 73
               2
 40
0.803863525390625
 49
0.535919189453125
 74
               0
 49
-0.2679443359375
 74
               0
  0
LTYPE
  5
57
100
AcDbSymbolTableRecord
100
AcDbLinetypeTableRecord
  2
STYLE_20
 70
               0
  3

 72
              65
 73
               4
 40
2.0
 49
1.5
 74
               0
 49
-0.111114501953125
 74
               0
 49
0.27777099609375
 74
               0
 49
-0.111114501953125
 74
               0
  0
LTYPE
  5
58
100
AcDbSymbolTableRecord
100
AcDbLinetypeTableRecord
  2
STYLE_21
 70
               0
  3

 72
              65
 73
               4
 40
0.52777099609375
 49
0.27777099609375
 74
               0
 49
-0.083343505859375
 74
               0
 49
0.083343505859375
 74
               0
 49
-0.08331298828125
 74
               0
  0
LTYPE
  5
59
100
AcDbSymbolTableRecord
100
AcDbLinetypeTableRecord
  2
STYLE_22
 70
               0
  3

 72
              65
 73
               4
 40
1.27984619140625
 49
0.7999267578125
 74
               0
 49
-0.15997314453125
 74
               0
 49
0.15997314453125
 74
               0
 49
-0.15997314453125
 74
               0
  0
LTYPE
  5
5A
100
AcDbSymbolTableRecord
100
AcDbLinetypeTableRecord
  2
STYLE_23
 70
               0
  3

 72
              65
 73
               6
 40
1.59979248046875
 49
0.7999267578125
 74
               0
 49
-0.15997314453125
 74
               0
 49
0.15997314453125
 74
               0
 49
-0.15997314453125
 74
               0
 49
0.15997314453125
 74
               0
 49
-0.15997314453125
 74
               0
  0
LTYPE
  5
5B
100
AcDbSymbolTableRecord
100
AcDbLinetypeTableRecord
  2
STYLE_24
 70
               0
  3

 72
              65
 73
               2
 40
0.479949951171875
 49
0.319976806640625
 74
               0
 49
-0.15997314453125
 74
               0
  0
ENDTAB
  0
TABLE
  2
LAYER
  5
2
100
AcDbSymbolTable
 70
               7
  0
LAYER
  5
14
100
AcDbSymbolTableRecord
100
AcDbLayerTableRecord
  2
0
 70
               0
 62
               7
  6
Continuous
290
               1
370
              15
390
1D
  0
LAYER
  5
5C
100
AcDbSymbolTableRecord
100
AcDbLayerTableRecord
  2
Defpoints
 70
               0
 62
               7
  6
Continuous
290
               0
370
              -3
390
1D
  0
LAYER
  5
5D
100
AcDbSymbolTableRecord
100
AcDbLayerTableRecord
  2
一般
 70
               0
 62
               7
  6
Continuous
290
               1
370
               5
390
1D
  0
LAYER
  5
5E
100
AcDbSymbolTableRecord
100
AcDbLayerTableRecord
  2
寸法
 70
               0
 62
               7
  6
Continuous
290
               1
370
               5
390
1D
  0
LAYER
  5
5F
100
AcDbSymbolTableRecord
100
AcDbLayerTableRecord
  2
001
 70
               0
 62
               7
  6
Continuous
290
               1
370
              15
390
1D
  0
LAYER
  5
60
100
AcDbSymbolTableRecord
100
AcDbLayerTableRecord
  2
255
 70
               0
 62
               7
  6
Continuous
290
               1
370
              15
390
1D
  0
LAYER
  5
61
100
AcDbSymbolTableRecord
100
AcDbLayerTableRecord
  2
003
 70
               0
 62
               7
  6
Continuous
290
               1
370
              15
390
1D
  0
ENDTAB
  0
TABLE
  2
STYLE
  5
3
100
AcDbSymbolTable
 70
               3
  0
STYLE
  5
17
100
AcDbSymbolTableRecord
100
AcDbTextStyleTableRecord
  2
Standard
 70
               0
 40
0.0
 41
1.0
 50
0.0
 71
               0
 42
0.0
  3
txt
  4
BIGFONT.SHX
  0
STYLE
  5
42
100
AcDbSymbolTableRecord
100
AcDbTextStyleTableRecord
  2
ＭＳ Ｐゴシック
 70
               0
 40
0.0
 41
1.0
 50
0.0
 71
               0
 42
0.0
  3

  4
ＭＳ Ｐゴシック
1001
ACAD
1000
ＭＳ Ｐゴシック
1071
        0
  0
STYLE
  5
43
100
AcDbSymbolTableRecord
100
AcDbTextStyleTableRecord
  2
ＭＳ Ｐゴシック (bold)
 70
               0
 40
0.0
 41
1.0
 50
0.0
 71
               0
 42
0.0
  3

  4
ＭＳ Ｐゴシック
1001
ACAD
1000
ＭＳ Ｐゴシック
1071
 33554432
  0
ENDTAB
  0
TABLE
  2
VIEW
  5
5
100
AcDbSymbolTable
 70
               0
  0
ENDTAB
  0
TABLE
  2
UCS
  5
6
100
AcDbSymbolTable
 70
               0
  0
ENDTAB
  0
TABLE
  2
APPID
  5
8
100
AcDbSymbolTable
 70
               1
  0
APPID
  5
16
100
AcDbSymbolTableRecord
100
AcDbRegAppTableRecord
  2
ACAD
 70
               0
  0
ENDTAB
  0
TABLE
  2
DIMSTYLE
  5
9
100
AcDbSymbolTable
 70
               2
100
AcDbDimStyleTable
 71
               0
  0
DIMSTYLE
105
18
100
AcDbSymbolTableRecord
100
AcDbDimStyleTableRecord
  2
Standard
 70
               0
  3

  4

 40
1.0
 41
0.18
 42
0.0625
 43
0.38
 44
0.18
 45
0.0
 46
0.0
 47
0.0
 48
0.0
 71
               0
 72
               0
 73
               1
 74
               1
 75
               0
 76
               0
 77
               0
 78
               0
 79
               0
140
0.18
141
0.09
142
0.0
143
25.399999999999999
144
1.0
145
0.0
146
1.0
147
0.09
148
0.0
170
               0
171
               2
172
               0
173
               0
174
               0
175
               0
176
               0
177
               0
178
               0
179
               0
271
               4
272
               4
273
               2
274
               2
275
               0
276
               0
277
               2
278
              46
279
               0
280
               0
281
               0
282
               0
283
               1
284
               0
285
               0
286
               0
288
               0
289
               3
340
17
341
0
342
0
343
0
344
0
371
              -2
372
              -2
  0
DIMSTYLE
105
66
100
AcDbSymbolTableRecord
100
AcDbDimStyleTableRecord
  2
中谷
 70
               0
  3
<>
  4
[]
 40
1.0
 41
6.0027343749999993
 42
3.9999999999999996
 43
7.0
 44
3.9999999999999996
 45
0.0
 46
0.0
 47
0.0
 48
0.0
 71
               0
 72
               0
 73
               0
 74
               0
 75
               0
 76
               0
 77
               1
 78
              11
 79
               0
140
8.7312499999999993
141
0.0
142
0.0
143
1.0
144
1.0
145
0.0
146
1.0
147
0.0099999999627471
148
0.0
170
               0
171
               2
172
               1
173
               0
174
               1
175
               0
176
               0
177
               0
178
               0
179
               0
271
               2
272
               2
273
               2
274
               2
275
               0
276
               2
277
               2
278
              46
279
               0
280
               0
281
               0
282
               0
283
               1
284
              11
285
              11
286
              11
288
               0
289
               0
340
42
341
62
342
62
343
0
344
0
371
              -2
372
              -2
  0
ENDTAB
  0
TABLE
  2
BLOCK_RECORD
  5
1
100
AcDbSymbolTable
 70
              31
  0
BLOCK_RECORD
  5
A
100
AcDbSymbolTableRecord
100
AcDbBlockTableRecord
  2
*MODEL_SPACE
340
20
  0
BLOCK_RECORD
  5
B
100
AcDbSymbolTableRecord
100
AcDbBlockTableRecord
  2
*PAPER_SPACE
340
21
  0
BLOCK_RECORD
  5
62
100
AcDbSymbolTableRecord
100
AcDbBlockTableRecord
  2
VW_FILLEDARROW
340
0
  0
BLOCK_RECORD
  5
24
100
AcDbSymbolTableRecord
100
AcDbBlockTableRecord
  2
*D1
340
0
  0
BLOCK_RECORD
  5
25
100
AcDbSymbolTableRecord
100
AcDbBlockTableRecord
  2
*D2
340
0
  0
BLOCK_RECORD
  5
26
100
AcDbSymbolTableRecord
100
AcDbBlockTableRecord
  2
グループ
340
0
102
{BLKREFS
331
1A0
102
}
  0
BLOCK_RECORD
  5
27
100
AcDbSymbolTableRecord
100
AcDbBlockTableRecord
  2
*D4
340
0
  0
BLOCK_RECORD
  5
28
100
AcDbSymbolTableRecord
100
AcDbBlockTableRecord
  2
*D5
340
0
  0
BLOCK_RECORD
  5
29
100
AcDbSymbolTableRecord
100
AcDbBlockTableRecord
  2
*D6
340
0
  0
BLOCK_RECORD
  5
2A
100
AcDbSymbolTableRecord
100
AcDbBlockTableRecord
  2
*D7
340
0
  0
BLOCK_RECORD
  5
2B
100
AcDbSymbolTableRecord
100
AcDbBlockTableRecord
  2
*D8
340
0
  0
BLOCK_RECORD
  5
2C
100
AcDbSymbolTableRecord
100
AcDbBlockTableRecord
  2
*D9
340
0
  0
BLOCK_RECORD
  5
2D
100
AcDbSymbolTableRecord
100
AcDbBlockTableRecord
  2
*D10
340
0
  0
BLOCK_RECORD
  5
2E
100
AcDbSymbolTableRecord
100
AcDbBlockTableRecord
  2
*D11
340
0
  0
BLOCK_RECORD
  5
2F
100
AcDbSymbolTableRecord
100
AcDbBlockTableRecord
  2
*D12
340
0
  0
BLOCK_RECORD
  5
30
100
AcDbSymbolTableRecord
100
AcDbBlockTableRecord
  2
*D13
340
0
  0
BLOCK_RECORD
  5
31
100
AcDbSymbolTableRecord
100
AcDbBlockTableRecord
  2
*D14
340
0
  0
BLOCK_RECORD
  5
32
100
AcDbSymbolTableRecord
100
AcDbBlockTableRecord
  2
*D15
340
0
  0
BLOCK_RECORD
  5
33
100
AcDbSymbolTableRecord
100
AcDbBlockTableRecord
  2
*D16
340
0
  0
BLOCK_RECORD
  5
34
100
AcDbSymbolTableRecord
100
AcDbBlockTableRecord
  2
*D17
340
0
  0
BLOCK_RECORD
  5
35
100
AcDbSymbolTableRecord
100
AcDbBlockTableRecord
  2
*D18
340
0
  0
BLOCK_RECORD
  5
36
100
AcDbSymbolTableRecord
100
AcDbBlockTableRecord
  2
*D19
340
0
  0
BLOCK_RECORD
  5
37
100
AcDbSymbolTableRecord
100
AcDbBlockTableRecord
  2
*D20
340
0
  0
BLOCK_RECORD
  5
38
100
AcDbSymbolTableRecord
100
AcDbBlockTableRecord
  2
*D21
340
0
  0
BLOCK_RECORD
  5
39
100
AcDbSymbolTableRecord
100
AcDbBlockTableRecord
  2
*D22
340
0
  0
BLOCK_RECORD
  5
3A
100
AcDbSymbolTableRecord
100
AcDbBlockTableRecord
  2
*D23
340
0
  0
BLOCK_RECORD
  5
3B
100
AcDbSymbolTableRecord
100
AcDbBlockTableRecord
  2
*D24
340
0
  0
BLOCK_RECORD
  5
3C
100
AcDbSymbolTableRecord
100
AcDbBlockTableRecord
  2
*D25
340
0
  0
BLOCK_RECORD
  5
3D
100
AcDbSymbolTableRecord
100
AcDbBlockTableRecord
  2
*D26
340
0
  0
BLOCK_RECORD
  5
3E
100
AcDbSymbolTableRecord
100
AcDbBlockTableRecord
  2
*D27
340
0
  0
BLOCK_RECORD
  5
3F
100
AcDbSymbolTableRecord
100
AcDbBlockTableRecord
  2
グループ-1
340
0
102
{BLKREFS
331
3A3
102
}
  0
BLOCK_RECORD
  5
40
100
AcDbSymbolTableRecord
100
AcDbBlockTableRecord
  2
グループ-2
340
0
102
{BLKREFS
331
3A4
102
}
  0
BLOCK_RECORD
  5
41
100
AcDbSymbolTableRecord
100
AcDbBlockTableRecord
  2
*D30
340
0
  0
ENDTAB
  0
ENDSEC
  0
SECTION
  2
BLOCKS
  0
BLOCK
  5
D
100
AcDbEntity
  8
0
390
0
100
AcDbBlockBegin
  2
*MODEL_SPACE
 70
               0
 10
0.0
 20
0.0
 30
0.0
  3
*MODEL_SPACE
  1

  0
ENDBLK
  5
E
100
AcDbEntity
  8
0
390
0
100
AcDbBlockEnd
  0
BLOCK
  5
F
100
AcDbEntity
 67
               1
  8
0
390
0
100
AcDbBlockBegin
  2
*PAPER_SPACE
 70
               0
 10
0.0
 20
0.0
 30
0.0
  3
*PAPER_SPACE
  1

  0
ENDBLK
  5
10
100
AcDbEntity
 67
               1
  8
0
390
0
100
AcDbBlockEnd
  0
BLOCK
  5
63
100
AcDbEntity
  8
0
370
              -2
390
0
  6
ByBlock
 62
               0
100
AcDbBlockBegin
  2
VW_FILLEDARROW
 70
               0
 10
0.0
 20
0.0
 30
0.0
  3
VW_FILLEDARROW
  1

  0
SOLID
  5
64
100
AcDbEntity
  8
0
370
              -2
390
0
 62
               0
100
AcDbTrace
 10
0.0
 20
0.0
 30
0.0
 11
-0.998388671875
 21
-0.2122140633040501
 31
0.0
 12
-0.998388671875
 22
0.2122140633040499
 32
0.0
 13
-0.998388671875
 23
0.2122140633040499
 33
0.0
  0
ENDBLK
  5
65
100
AcDbEntity
  8
0
390
0
100
AcDbBlockEnd
  0
BLOCK
  5
67
100
AcDbEntity
  8
一般
390
0
100
AcDbBlockBegin
  2
*D1
 70
               1
 10
0.0
 20
0.0
 30
0.0
  3
*D1
  1

  0
LINE
  5
68
100
AcDbEntity
  8
一般
370
              -2
390
0
  6
Continuous
 62
               0
100
AcDbLine
 10
48.789711546421586
 20
-152.00199999999984
 30
0.0
 11
48.789711546421586
 21
-199.85439999999983
 31
0.0
  0
LINE
  5
69
100
AcDbEntity
  8
一般
370
              -2
390
0
  6
Continuous
 62
               0
100
AcDbLine
 10
144.79139154642169
 20
-152.00199999999984
 30
0.0
 11
144.79139154642169
 21
-199.85439999999983
 31
0.0
  0
LINE
  5
6A
100
AcDbEntity
  8
一般
370
              -2
390
0
  6
Continuous
 62
               0
100
AcDbLine
 10
48.789711546421586
 20
-195.85439999999983
 30
0.0
 11
144.79139154642169
 21
-195.85439999999983
 31
0.0
  0
SOLID
  5
6B
100
AcDbEntity
  8
一般
370
              -2
390
0
 62
               0
100
AcDbTrace
 10
48.789711546421586
 20
-195.85439999999983
 30
0.0
 11
54.792445921421589
 21
-194.57847942063137
 31
0.0
 12
54.792445921421589
 22
-197.13032057936829
 32
0.0
 13
54.792445921421589
 23
-197.13032057936829
 33
0.0
  0
SOLID
  5
6C
100
AcDbEntity
  8
一般
370
              -2
390
0
 62
               0
100
AcDbTrace
 10
144.79139154642169
 20
-195.85439999999983
 30
0.0
 11
138.7886571714217
 21
-197.13032057936829
 31
0.0
 12
138.7886571714217
 22
-194.57847942063137
 32
0.0
 13
138.7886571714217
 23
-194.57847942063137
 33
0.0
  0
MTEXT
  5
6D
100
AcDbEntity
  8
一般
390
0
 62
               0
100
AcDbMText
 10
90.440551546421645
 20
-185.29514999999984
 30
0.0
 40
8.7312499999999993
 41
0.0
 71
               1
 72
               1
  1
96
  7
ＭＳ Ｐゴシック
 73
               1
 44
0.8762322015334064
  0
POINT
  5
6E
100
AcDbEntity
  8
Defpoints
370
               0
390
0
 62
               0
100
AcDbPoint
 10
144.79139154642169
 20
-148.00199999999984
 30
0.0
  0
POINT
  5
6F
100
AcDbEntity
  8
Defpoints
370
               0
390
0
 62
               0
100
AcDbPoint
 10
48.789711546421586
 20
-148.00199999999984
 30
0.0
  0
POINT
  5
70
100
AcDbEntity
  8
Defpoints
370
               0
390
0
 62
               0
100
AcDbPoint
 10
48.789711546421586
 20
-195.85439999999983
 30
0.0
  0
ENDBLK
  5
71
100
AcDbEntity
  8
一般
390
0
100
AcDbBlockEnd
  0
BLOCK
  5
72
100
AcDbEntity
  8
一般
390
0
100
AcDbBlockBegin
  2
*D2
 70
               1
 10
0.0
 20
0.0
 30
0.0
  3
*D2
  1

  0
LINE
  5
73
100
AcDbEntity
  8
一般
370
              -2
390
0
  6
Continuous
 62
               0
100
AcDbLine
 10
27.789311546421864
 20
-141.85440000000006
 30
0.0
 11
27.789311546421864
 21
-199.85440000000006
 31
0.0
  0
LINE
  5
74
100
AcDbEntity
  8
一般
370
              -2
390
0
  6
Continuous
 62
               0
100
AcDbLine
 10
48.789711546421586
 20
-151.85440000000006
 30
0.0
 11
48.789711546421586
 21
-199.85440000000006
 31
0.0
  0
LINE
  5
75
100
AcDbEntity
  8
一般
370
              -2
390
0
  6
Continuous
 62
               0
100
AcDbLine
 10
27.789311546421864
 20
-195.85440000000006
 30
0.0
 11
48.789711546421586
 21
-195.85440000000006
 31
0.0
  0
SOLID
  5
76
100
AcDbEntity
  8
一般
370
              -2
390
0
 62
               0
100
AcDbTrace
 10
27.789311546421864
 20
-195.85440000000006
 30
0.0
 11
33.79204592142186
 21
-194.5784794206316
 31
0.0
 12
33.79204592142186
 22
-197.13032057936852
 32
0.0
 13
33.79204592142186
 23
-197.13032057936852
 33
0.0
  0
SOLID
  5
77
100
AcDbEntity
  8
一般
370
              -2
390
0
 62
               0
100
AcDbTrace
 10
48.789711546421586
 20
-195.85440000000006
 30
0.0
 11
42.786977171421583
 21
-197.13032057936852
 31
0.0
 12
42.786977171421583
 22
-194.5784794206316
 32
0.0
 13
42.786977171421583
 23
-194.5784794206316
 33
0.0
  0
MTEXT
  5
78
100
AcDbEntity
  8
一般
390
0
 62
               0
100
AcDbMText
 10
31.93951154642172
 20
-185.29515000000006
 30
0.0
 40
8.7312499999999993
 41
0.0
 71
               1
 72
               1
  1
21
  7
ＭＳ Ｐゴシック
 73
               1
 44
0.8762322015334064
  0
POINT
  5
79
100
AcDbEntity
  8
Defpoints
370
               0
390
0
 62
               0
100
AcDbPoint
 10
48.789711546421586
 20
-147.85440000000006
 30
0.0
  0
POINT
  5
7A
100
AcDbEntity
  8
Defpoints
370
               0
390
0
 62
               0
100
AcDbPoint
 10
27.789311546421864
 20
-137.85440000000006
 30
0.0
  0
POINT
  5
7B
100
AcDbEntity
  8
Defpoints
370
               0
390
0
 62
               0
100
AcDbPoint
 10
27.789311546421864
 20
-195.85440000000006
 30
0.0
  0
ENDBLK
  5
7C
100
AcDbEntity
  8
一般
390
0
100
AcDbBlockEnd
  0
BLOCK
  5
7D
100
AcDbEntity
  8
一般
390
0
100
AcDbBlockBegin
  2
グループ
 70
               0
 10
0.0
 20
0.0
 30
0.0
  3
グループ
  1

  0
LINE
  5
7E
100
AcDbEntity
  8
一般
370
               5
390
0
  6
Continuous
 62
               7
100
AcDbLine
 10
96.790791546421957
 20
48.001599999999939
 30
0.0
 11
126.79079154642196
 21
48.001599999999939
 31
0.0
  0
LINE
  5
7F
100
AcDbEntity
  8
一般
370
               5
390
0
  6
Continuous
 62
               7
100
AcDbLine
 10
111.79079154642196
 20
33.001599999999939
 30
0.0
 11
111.79079154642196
 21
63.001599999999939
 31
0.0
  0
ENDBLK
  5
80
100
AcDbEntity
  8
一般
390
0
100
AcDbBlockEnd
  0
BLOCK
  5
81
100
AcDbEntity
  8
一般
390
0
100
AcDbBlockBegin
  2
*D4
 70
               1
 10
0.0
 20
0.0
 30
0.0
  3
*D4
  1

  0
LINE
  5
82
100
AcDbEntity
  8
一般
370
              -2
390
0
  6
Continuous
 62
               0
100
AcDbLine
 10
116.23851154642171
 20
57.51299999999992
 30
0.0
 11
138.92901182896068
 21
106.03676812892309
 31
0.0
  0
SOLID
  5
83
100
AcDbEntity
  8
一般
370
              -2
390
0
 62
               0
100
AcDbTrace
 10
116.23851154642171
 20
57.51299999999992
 30
0.0
 11
117.72314727797372
 21
63.467548685354799
 31
0.0
 12
120.01672691854762
 22
62.348895150175736
 32
0.0
 13
120.01672691854762
 23
62.348895150175736
 33
0.0
  0
LINE
  5
84
100
AcDbEntity
  8
一般
370
              -2
390
0
  6
Continuous
 62
               0
100
AcDbLine
 10
138.92901182896068
 20
106.03676812892309
 30
0.0
 11
142.92901182896068
 21
106.03676812892309
 31
0.0
  0
MTEXT
  5
85
100
AcDbEntity
  8
一般
390
0
 62
               0
100
AcDbMText
 10
142.92901182896068
 20
110.1960181289231
 30
0.0
 40
8.7312499999999993
 41
0.0
 71
               1
 72
               1
  1
2-φ21電線口×2ヶ
  7
ＭＳ Ｐゴシック
 73
               1
 44
0.8762322015334064
  0
POINT
  5
86
100
AcDbEntity
  8
Defpoints
370
               0
390
0
 62
               0
100
AcDbPoint
 10
107.34311154642155
 20
38.49011999999999
 30
0.0
  0
POINT
  5
87
100
AcDbEntity
  8
Defpoints
370
               0
390
0
 62
               0
100
AcDbPoint
 10
116.23851154642171
 20
57.51299999999992
 30
0.0
  0
ENDBLK
  5
88
100
AcDbEntity
  8
一般
390
0
100
AcDbBlockEnd
  0
BLOCK
  5
89
100
AcDbEntity
  8
一般
390
0
100
AcDbBlockBegin
  2
*D5
 70
               1
 10
0.0
 20
0.0
 30
0.0
  3
*D5
  1

  0
LINE
  5
8A
100
AcDbEntity
  8
一般
370
              -2
390
0
  6
Continuous
 62
               0
100
AcDbLine
 10
-330.05408845357795
 20
-153.52300000000002
 30
0.0
 11
-330.05408845357795
 21
-179.85440000000003
 31
0.0
  0
LINE
  5
8B
100
AcDbEntity
  8
一般
370
              -2
390
0
  6
Continuous
 62
               0
100
AcDbLine
 10
-150.05080845357818
 20
-153.52300000000002
 30
0.0
 11
-150.05080845357818
 21
-179.85440000000003
 31
0.0
  0
LINE
  5
8C
100
AcDbEntity
  8
一般
370
              -2
390
0
  6
Continuous
 62
               0
100
AcDbLine
 10
-330.05408845357795
 20
-175.85440000000003
 30
0.0
 11
-150.05080845357818
 21
-175.85440000000003
 31
0.0
  0
SOLID
  5
8D
100
AcDbEntity
  8
一般
370
              -2
390
0
 62
               0
100
AcDbTrace
 10
-330.05408845357795
 20
-175.85440000000003
 30
0.0
 11
-324.05135407857796
 21
-174.57847942063157
 31
0.0
 12
-324.05135407857796
 22
-177.13032057936849
 32
0.0
 13
-324.05135407857796
 23
-177.13032057936849
 33
0.0
  0
SOLID
  5
8E
100
AcDbEntity
  8
一般
370
              -2
390
0
 62
               0
100
AcDbTrace
 10
-150.05080845357818
 20
-175.85440000000003
 30
0.0
 11
-156.05354282857817
 21
-177.13032057936849
 31
0.0
 12
-156.05354282857817
 22
-174.57847942063157
 32
0.0
 13
-156.05354282857817
 23
-174.57847942063157
 33
0.0
  0
MTEXT
  5
8F
100
AcDbEntity
  8
一般
390
0
 62
               0
100
AcDbMText
 10
-249.57744912644827
 20
-165.23243000000005
 30
0.0
 40
8.7312499999999993
 41
0.0
 71
               1
 72
               1
  1
180
  7
ＭＳ Ｐゴシック
 73
               1
 44
0.8762322015334064
  0
POINT
  5
90
100
AcDbEntity
  8
Defpoints
370
               0
390
0
 62
               0
100
AcDbPoint
 10
-150.05080845357818
 20
-149.52300000000002
 30
0.0
  0
POINT
  5
91
100
AcDbEntity
  8
Defpoints
370
               0
390
0
 62
               0
100
AcDbPoint
 10
-330.05408845357795
 20
-149.52300000000002
 30
0.0
  0
POINT
  5
92
100
AcDbEntity
  8
Defpoints
370
               0
390
0
 62
               0
100
AcDbPoint
 10
-330.05408845357795
 20
-175.85440000000003
 30
0.0
  0
ENDBLK
  5
93
100
AcDbEntity
  8
一般
390
0
100
AcDbBlockEnd
  0
BLOCK
  5
94
100
AcDbEntity
  8
一般
390
0
100
AcDbBlockBegin
  2
*D6
 70
               1
 10
0.0
 20
0.0
 30
0.0
  3
*D6
  1

  0
LINE
  5
95
100
AcDbEntity
  8
一般
370
              -2
390
0
  6
Continuous
 62
               0
100
AcDbLine
 10
-345.0542884535779
 20
-151.59868000000006
 30
0.0
 11
-345.0542884535779
 21
-199.85440000000006
 31
0.0
  0
LINE
  5
96
100
AcDbEntity
  8
一般
370
              -2
390
0
  6
Continuous
 62
               0
100
AcDbLine
 10
-135.05048845357788
 20
-151.59868000000006
 30
0.0
 11
-135.05048845357788
 21
-199.85440000000006
 31
0.0
  0
LINE
  5
97
100
AcDbEntity
  8
一般
370
              -2
390
0
  6
Continuous
 62
               0
100
AcDbLine
 10
-345.0542884535779
 20
-195.85440000000006
 30
0.0
 11
-135.05048845357788
 21
-195.85440000000006
 31
0.0
  0
SOLID
  5
98
100
AcDbEntity
  8
一般
370
              -2
390
0
 62
               0
100
AcDbTrace
 10
-345.0542884535779
 20
-195.85440000000006
 30
0.0
 11
-339.05155407857791
 21
-194.5784794206316
 31
0.0
 12
-339.05155407857791
 22
-197.13032057936852
 32
0.0
 13
-339.05155407857791
 23
-197.13032057936852
 33
0.0
  0
SOLID
  5
99
100
AcDbEntity
  8
一般
370
              -2
390
0
 62
               0
100
AcDbTrace
 10
-135.05048845357788
 20
-195.85440000000006
 30
0.0
 11
-141.05322282857787
 21
-197.13032057936852
 31
0.0
 12
-141.05322282857787
 22
-194.5784794206316
 32
0.0
 13
-141.05322282857787
 23
-194.5784794206316
 33
0.0
  0
MTEXT
  5
9A
100
AcDbEntity
  8
一般
390
0
 62
               0
100
AcDbMText
 10
-249.57738912644811
 20
-185.23243000000008
 30
0.0
 40
8.7312499999999993
 41
0.0
 71
               1
 72
               1
  1
210
  7
ＭＳ Ｐゴシック
 73
               1
 44
0.8762322015334064
  0
POINT
  5
9B
100
AcDbEntity
  8
Defpoints
370
               0
390
0
 62
               0
100
AcDbPoint
 10
-135.05048845357788
 20
-147.59868000000006
 30
0.0
  0
POINT
  5
9C
100
AcDbEntity
  8
Defpoints
370
               0
390
0
 62
               0
100
AcDbPoint
 10
-345.0542884535779
 20
-147.59868000000006
 30
0.0
  0
POINT
  5
9D
100
AcDbEntity
  8
Defpoints
370
               0
390
0
 62
               0
100
AcDbPoint
 10
-345.0542884535779
 20
-195.85440000000006
 30
0.0
  0
ENDBLK
  5
9E
100
AcDbEntity
  8
一般
390
0
100
AcDbBlockEnd
  0
BLOCK
  5
9F
100
AcDbEntity
  8
一般
390
0
100
AcDbBlockBegin
  2
*D7
 70
               1
 10
0.0
 20
0.0
 30
0.0
  3
*D7
  1

  0
LINE
  5
A0
100
AcDbEntity
  8
一般
370
              -2
390
0
  6
Continuous
 62
               0
100
AcDbLine
 10
-315.05380845357809
 20
71.990319999999883
 30
0.0
 11
-315.05380845357809
 21
109.0
 31
0.0
  0
LINE
  5
A1
100
AcDbEntity
  8
一般
370
              -2
390
0
  6
Continuous
 62
               0
100
AcDbLine
 10
-165.05108845357802
 20
71.990319999999883
 30
0.0
 11
-165.05108845357802
 21
109.0
 31
0.0
  0
LINE
  5
A2
100
AcDbEntity
  8
一般
370
              -2
390
0
  6
Continuous
 62
               0
100
AcDbLine
 10
-315.05380845357809
 20
105.0
 30
0.0
 11
-165.05108845357802
 21
105.0
 31
0.0
  0
SOLID
  5
A3
100
AcDbEntity
  8
一般
370
              -2
390
0
 62
               0
100
AcDbTrace
 10
-315.05380845357809
 20
105.0
 30
0.0
 11
-309.0510740785781
 21
106.27592057936845
 31
0.0
 12
-309.0510740785781
 22
103.72407942063155
 32
0.0
 13
-309.0510740785781
 23
103.72407942063155
 33
0.0
  0
SOLID
  5
A4
100
AcDbEntity
  8
一般
370
              -2
390
0
 62
               0
100
AcDbTrace
 10
-165.05108845357802
 20
105.0
 30
0.0
 11
-171.05382282857801
 21
103.72407942063155
 31
0.0
 12
-171.05382282857801
 22
106.27592057936845
 32
0.0
 13
-171.05382282857801
 23
106.27592057936845
 33
0.0
  0
MTEXT
  5
A5
100
AcDbEntity
  8
一般
390
0
 62
               0
100
AcDbMText
 10
-249.57744912644827
 20
115.55925000000002
 30
0.0
 40
8.7312499999999993
 41
0.0
 71
               1
 72
               1
  1
150
  7
ＭＳ Ｐゴシック
 73
               1
 44
0.8762322015334064
  0
POINT
  5
A6
100
AcDbEntity
  8
Defpoints
370
               0
390
0
 62
               0
100
AcDbPoint
 10
-165.05108845357802
 20
67.990319999999883
 30
0.0
  0
POINT
  5
A7
100
AcDbEntity
  8
Defpoints
370
               0
390
0
 62
               0
100
AcDbPoint
 10
-315.05380845357809
 20
67.990319999999883
 30
0.0
  0
POINT
  5
A8
100
AcDbEntity
  8
Defpoints
370
               0
390
0
 62
               0
100
AcDbPoint
 10
-315.05380845357809
 20
105.0
 30
0.0
  0
ENDBLK
  5
A9
100
AcDbEntity
  8
一般
390
0
100
AcDbBlockEnd
  0
BLOCK
  5
AA
100
AcDbEntity
  8
一般
390
0
100
AcDbBlockBegin
  2
*D8
 70
               1
 10
0.0
 20
0.0
 30
0.0
  3
*D8
  1

  0
ARC
  5
AB
100
AcDbEntity
  8
一般
370
              -2
390
0
  6
Continuous
 62
               0
100
AcDbCircle
 10
-240.02708845357824
 20
-3.0109999999999104
 30
0.0
 40
96.319267425906077
100
AcDbArc
 50
44.999977093544544
 51
135.00002360854057
  0
SOLID
  5
AC
100
AcDbEntity
  8
一般
370
              -2
390
0
 62
               0
100
AcDbTrace
 10
-308.1351236730352
 20
65.096979092089043
 30
0.0
 11
-304.792761584738
 21
70.243765368240034
 31
0.0
 12
-302.98833739688422
 22
68.439341180386236
 32
0.0
 13
-302.98833739688422
 23
68.439341180386236
 33
0.0
  0
SOLID
  5
AD
100
AcDbEntity
  8
一般
370
              -2
390
0
 62
               0
100
AcDbTrace
 10
-171.91905406869586
 20
65.096979926664247
 30
0.0
 11
-177.06584034484683
 21
68.43934201496144
 31
0.0
 12
-175.26141615699305
 22
70.243766202815237
 32
0.0
 13
-175.26141615699305
 23
70.243766202815237
 33
0.0
  0
WIPEOUT
  5
AE
100
AcDbEntity
  8
一般
370
              -2
390
0
  6
Continuous
 62
               0
 92
        0
100
AcDbWipeout
 90
        0
 10
-255.64808995881529
 20
86.958267425906172
 30
0.0
 11
31.242001830206988
 21
0.0
 31
0.0
 12
0.0
 22
31.242001830206988
 32
0.0
 13
1.0
 23
1.0
340
0
 70
               7
280
               1
281
              50
282
              50
283
               0
360
0
 71
               2
 91
        5
 14
-0.5
 24
0.5
 14
0.5
 24
0.5
 14
0.5
 24
0.093495958773015
 14
-0.5
 24
0.093495958773015
 14
-0.5
 24
0.5
  0
MTEXT
  5
AF
100
AcDbEntity
  8
一般
390
0
 62
               0
100
AcDbMText
 10
-255.64808995881529
 20
97.467517425906181
 30
0.0
 40
8.7312499999999993
 41
0.0
 71
               1
 72
               1
  1
90deg
  7
ＭＳ Ｐゴシック
 73
               1
 44
0.8762322015334064
  0
POINT
  5
B0
100
AcDbEntity
  8
Defpoints
370
               0
390
0
 62
               0
100
AcDbPoint
 10
-337.10348845357817
 20
94.065319999999872
 30
0.0
  0
POINT
  5
B1
100
AcDbEntity
  8
Defpoints
370
               0
390
0
 62
               0
100
AcDbPoint
 10
-139.9752884535782
 20
97.040719999999965
 30
0.0
  0
POINT
  5
B2
100
AcDbEntity
  8
Defpoints
370
               0
390
0
 62
               0
100
AcDbPoint
 10
-240.02708845357824
 20
-3.0109999999999104
 30
0.0
  0
ENDBLK
  5
B3
100
AcDbEntity
  8
一般
390
0
100
AcDbBlockEnd
  0
BLOCK
  5
B4
100
AcDbEntity
  8
一般
390
0
100
AcDbBlockBegin
  2
*D9
 70
               1
 10
0.0
 20
0.0
 30
0.0
  3
*D9
  1

  0
LINE
  5
B5
100
AcDbEntity
  8
一般
370
              -2
390
0
  6
Continuous
 62
               0
100
AcDbLine
 10
-168.05120845357789
 20
81.990600000000086
 30
0.0
 11
-92.370088453577878
 21
81.990600000000086
 31
0.0
  0
LINE
  5
B6
100
AcDbEntity
  8
一般
370
              -2
390
0
  6
Continuous
 62
               0
100
AcDbLine
 10
-131.05048845357788
 20
-148.01360000000011
 30
0.0
 11
-92.370088453577878
 21
-148.01360000000011
 31
0.0
  0
LINE
  5
B7
100
AcDbEntity
  8
一般
370
              -2
390
0
  6
Continuous
 62
               0
100
AcDbLine
 10
-96.370088453577878
 20
81.990600000000086
 30
0.0
 11
-96.370088453577878
 21
-148.01360000000011
 31
0.0
  0
SOLID
  5
B8
100
AcDbEntity
  8
一般
370
              -2
390
0
 62
               0
100
AcDbTrace
 10
-96.370088453577878
 20
81.990600000000086
 30
0.0
 11
-95.094167874209433
 21
75.987865625000083
 31
0.0
 12
-97.646009032946324
 22
75.987865625000083
 32
0.0
 13
-97.646009032946324
 23
75.987865625000083
 33
0.0
  0
SOLID
  5
B9
100
AcDbEntity
  8
一般
370
              -2
390
0
 62
               0
100
AcDbTrace
 10
-96.370088453577878
 20
-148.01360000000011
 30
0.0
 11
-97.646009032946324
 21
-142.01086562500012
 31
0.0
 12
-95.094167874209433
 22
-142.01086562500012
 32
0.0
 13
-95.094167874209433
 23
-142.01086562500012
 33
0.0
  0
MTEXT
  5
BA
100
AcDbEntity
  8
一般
390
0
 62
               0
100
AcDbMText
 10
-106.92933845357788
 20
-42.536500672870226
 30
0.0
 40
8.7312499999999993
 41
0.0
 71
               1
 72
               1
  1
230
  7
ＭＳ Ｐゴシック
 11
0.0
 21
1.0
 31
0.0
 73
               1
 44
0.8762322015334064
  0
POINT
  5
BB
100
AcDbEntity
  8
Defpoints
370
               0
390
0
 62
               0
100
AcDbPoint
 10
-135.05048845357788
 20
-148.01360000000011
 30
0.0
  0
POINT
  5
BC
100
AcDbEntity
  8
Defpoints
370
               0
390
0
 62
               0
100
AcDbPoint
 10
-172.05120845357789
 20
81.990600000000086
 30
0.0
  0
POINT
  5
BD
100
AcDbEntity
  8
Defpoints
370
               0
390
0
 62
               0
100
AcDbPoint
 10
-96.370088453577878
 20
81.990600000000086
 30
0.0
  0
ENDBLK
  5
BE
100
AcDbEntity
  8
一般
390
0
100
AcDbBlockEnd
  0
BLOCK
  5
BF
100
AcDbEntity
  8
一般
390
0
100
AcDbBlockBegin
  2
*D10
 70
               1
 10
0.0
 20
0.0
 30
0.0
  3
*D10
  1

  0
LINE
  5
C0
100
AcDbEntity
  8
一般
370
              -2
390
0
  6
Continuous
 62
               0
100
AcDbLine
 10
-133.55056845357805
 20
-129.01316000031989
 30
0.0
 11
-122.37008845357809
 21
-129.01316000031989
 31
0.0
  0
LINE
  5
C1
100
AcDbEntity
  8
一般
370
              -2
390
0
  6
Continuous
 62
               0
100
AcDbLine
 10
-131.05048845357788
 20
-148.01360000000011
 30
0.0
 11
-122.37008845357809
 21
-148.01360000000011
 31
0.0
  0
LINE
  5
C2
100
AcDbEntity
  8
一般
370
              -2
390
0
  6
Continuous
 62
               0
100
AcDbLine
 10
-126.37008845357809
 20
-129.01316000031989
 30
0.0
 11
-126.37008845357809
 21
-99.948360000319894
 31
0.0
  0
LINE
  5
C3
100
AcDbEntity
  8
一般
370
              -2
390
0
  6
Continuous
 62
               0
100
AcDbLine
 10
-126.37008845357809
 20
-129.01316000031989
 30
0.0
 11
-126.37008845357809
 21
-148.01360000000011
 31
0.0
  0
SOLID
  5
C4
100
AcDbEntity
  8
一般
370
              -2
390
0
 62
               0
100
AcDbTrace
 10
-126.37008845357809
 20
-129.01316000031989
 30
0.0
 11
-125.09416787420965
 21
-135.01589437531987
 31
0.0
 12
-127.64600903294654
 22
-135.01589437531987
 32
0.0
 13
-127.64600903294654
 23
-135.01589437531987
 33
0.0
  0
SOLID
  5
C5
100
AcDbEntity
  8
一般
370
              -2
390
0
 62
               0
100
AcDbTrace
 10
-126.37008845357809
 20
-148.01360000000011
 30
0.0
 11
-127.64600903294654
 21
-142.01086562500012
 31
0.0
 12
-125.09416787420965
 22
-142.01086562500012
 32
0.0
 13
-125.09416787420965
 23
-142.01086562500012
 33
0.0
  0
MTEXT
  5
C6
100
AcDbEntity
  8
一般
390
0
 62
               0
100
AcDbMText
 10
-136.92933845357808
 20
-112.64836000031988
 30
0.0
 40
8.7312499999999993
 41
0.0
 71
               1
 72
               1
  1
19
  7
ＭＳ Ｐゴシック
 11
0.0
 21
1.0
 31
0.0
 73
               1
 44
0.8762322015334064
  0
POINT
  5
C7
100
AcDbEntity
  8
Defpoints
370
               0
390
0
 62
               0
100
AcDbPoint
 10
-135.05048845357788
 20
-148.01360000000011
 30
0.0
  0
POINT
  5
C8
100
AcDbEntity
  8
Defpoints
370
               0
390
0
 62
               0
100
AcDbPoint
 10
-137.55056845357805
 20
-129.01316000031989
 30
0.0
  0
POINT
  5
C9
100
AcDbEntity
  8
Defpoints
370
               0
390
0
 62
               0
100
AcDbPoint
 10
-126.37008845357809
 20
-129.01316000031989
 30
0.0
  0
ENDBLK
  5
CA
100
AcDbEntity
  8
一般
390
0
100
AcDbBlockEnd
  0
BLOCK
  5
CB
100
AcDbEntity
  8
一般
390
0
100
AcDbBlockBegin
  2
*D11
 70
               1
 10
0.0
 20
0.0
 30
0.0
  3
*D11
  1

  0
LINE
  5
CC
100
AcDbEntity
  8
一般
370
              -2
390
0
  6
Continuous
 62
               0
100
AcDbLine
 10
-131.05048845357788
 20
-148.01360000000011
 30
0.0
 11
-110.37008845357789
 21
-148.01360000000011
 31
0.0
  0
LINE
  5
CD
100
AcDbEntity
  8
一般
370
              -2
390
0
  6
Continuous
 62
               0
100
AcDbLine
 10
-209.55200845357808
 20
-3.0109999999999104
 30
0.0
 11
-110.37008845357789
 21
-3.0109999999999104
 31
0.0
  0
LINE
  5
CE
100
AcDbEntity
  8
一般
370
              -2
390
0
  6
Continuous
 62
               0
100
AcDbLine
 10
-114.37008845357789
 20
-148.01360000000011
 30
0.0
 11
-114.37008845357789
 21
-3.0109999999999104
 31
0.0
  0
SOLID
  5
CF
100
AcDbEntity
  8
一般
370
              -2
390
0
 62
               0
100
AcDbTrace
 10
-114.37008845357789
 20
-148.01360000000011
 30
0.0
 11
-115.64600903294634
 21
-142.01086562500012
 31
0.0
 12
-113.09416787420945
 22
-142.01086562500012
 32
0.0
 13
-113.09416787420945
 23
-142.01086562500012
 33
0.0
  0
SOLID
  5
D0
100
AcDbEntity
  8
一般
370
              -2
390
0
 62
               0
100
AcDbTrace
 10
-114.37008845357789
 20
-3.0109999999999104
 30
0.0
 11
-113.09416787420945
 21
-9.0137343749999097
 31
0.0
 12
-115.64600903294634
 22
-9.0137343749999097
 32
0.0
 13
-115.64600903294634
 23
-9.0137343749999097
 33
0.0
  0
MTEXT
  5
D1
100
AcDbEntity
  8
一般
390
0
 62
               0
100
AcDbMText
 10
-124.92933845357791
 20
-82.523827870135833
 30
0.0
 40
8.7312499999999993
 41
0.0
 71
               1
 72
               1
  1
145
  7
ＭＳ Ｐゴシック
 11
0.0
 21
1.0
 31
0.0
 73
               1
 44
0.8762322015334064
  0
POINT
  5
D2
100
AcDbEntity
  8
Defpoints
370
               0
390
0
 62
               0
100
AcDbPoint
 10
-213.55200845357808
 20
-3.0109999999999104
 30
0.0
  0
POINT
  5
D3
100
AcDbEntity
  8
Defpoints
370
               0
390
0
 62
               0
100
AcDbPoint
 10
-135.05048845357788
 20
-148.01360000000011
 30
0.0
  0
POINT
  5
D4
100
AcDbEntity
  8
Defpoints
370
               0
390
0
 62
               0
100
AcDbPoint
 10
-114.37008845357789
 20
-148.01360000000011
 30
0.0
  0
ENDBLK
  5
D5
100
AcDbEntity
  8
一般
390
0
100
AcDbBlockEnd
  0
BLOCK
  5
D6
100
AcDbEntity
  8
一般
390
0
100
AcDbBlockBegin
  2
*D12
 70
               1
 10
0.0
 20
0.0
 30
0.0
  3
*D12
  1

  0
LINE
  5
D7
100
AcDbEntity
  8
一般
370
              -2
390
0
  6
Continuous
 62
               0
100
AcDbLine
 10
-149.54940845357825
 20
-147.98120000000006
 30
0.0
 11
-127.24989881496926
 21
-173.24314795253804
 31
0.0
  0
SOLID
  5
D8
100
AcDbEntity
  8
一般
370
              -2
390
0
 62
               0
100
AcDbTrace
 10
-149.54940845357825
 20
-147.98120000000006
 30
0.0
 11
-144.64831088337505
 21
-151.67444192397565
 31
0.0
 12
-146.57420985308056
 22
-153.34860035671457
 32
0.0
 13
-146.57420985308056
 23
-153.34860035671457
 33
0.0
  0
LINE
  5
D9
100
AcDbEntity
  8
一般
370
              -2
390
0
  6
Continuous
 62
               0
100
AcDbLine
 10
-127.24989881496926
 20
-173.24314795253804
 30
0.0
 11
-123.24989881496926
 21
-173.24314795253804
 31
0.0
  0
MTEXT
  5
DA
100
AcDbEntity
  8
一般
390
0
 62
               0
100
AcDbMText
 10
-123.24989881496927
 20
-169.08389795253805
 30
0.0
 40
8.7312499999999993
 41
0.0
 71
               1
 72
               1
  1
4-φ13取付穴
  7
ＭＳ Ｐゴシック
 73
               1
 44
0.8762322015334064
  0
POINT
  5
DB
100
AcDbEntity
  8
Defpoints
370
               0
390
0
 62
               0
100
AcDbPoint
 10
-150.79728845357798
 20
-146.56747999999993
 30
0.0
  0
POINT
  5
DC
100
AcDbEntity
  8
Defpoints
370
               0
390
0
 62
               0
100
AcDbPoint
 10
-149.54940845357825
 20
-147.98120000000006
 30
0.0
  0
ENDBLK
  5
DD
100
AcDbEntity
  8
一般
390
0
100
AcDbBlockEnd
  0
BLOCK
  5
DE
100
AcDbEntity
  8
一般
390
0
100
AcDbBlockBegin
  2
*D13
 70
               1
 10
0.0
 20
0.0
 30
0.0
  3
*D13
  1

  0
LINE
  5
DF
100
AcDbEntity
  8
一般
370
              -2
390
0
  6
Continuous
 62
               0
100
AcDbLine
 10
48.789711546421586
 20
-152.00199999999984
 30
0.0
 11
48.789711546421586
 21
-179.85439999999997
 31
0.0
  0
LINE
  5
E0
100
AcDbEntity
  8
一般
370
              -2
390
0
  6
Continuous
 62
               0
100
AcDbLine
 10
66.789991546421788
 20
-153.85440000000006
 30
0.0
 11
66.789991546421788
 21
-179.85439999999997
 31
0.0
  0
LINE
  5
E1
100
AcDbEntity
  8
一般
370
              -2
390
0
  6
Continuous
 62
               0
100
AcDbLine
 10
48.789711546421586
 20
-175.85439999999997
 30
0.0
 11
66.789991546421788
 21
-175.85439999999997
 31
0.0
  0
SOLID
  5
E2
100
AcDbEntity
  8
一般
370
              -2
390
0
 62
               0
100
AcDbTrace
 10
48.789711546421586
 20
-175.85439999999997
 30
0.0
 11
54.792445921421589
 21
-174.57847942063151
 31
0.0
 12
54.792445921421589
 22
-177.13032057936843
 32
0.0
 13
54.792445921421589
 23
-177.13032057936843
 33
0.0
  0
SOLID
  5
E3
100
AcDbEntity
  8
一般
370
              -2
390
0
 62
               0
100
AcDbTrace
 10
66.789991546421788
 20
-175.85439999999997
 30
0.0
 11
60.787257171421786
 21
-177.13032057936843
 31
0.0
 12
60.787257171421786
 22
-174.57847942063151
 32
0.0
 13
60.787257171421786
 23
-174.57847942063151
 33
0.0
  0
MTEXT
  5
E4
100
AcDbEntity
  8
一般
390
0
 62
               0
100
AcDbMText
 10
51.439851546421686
 20
-165.29514999999998
 30
0.0
 40
8.7312499999999993
 41
0.0
 71
               1
 72
               1
  1
18
  7
ＭＳ Ｐゴシック
 73
               1
 44
0.8762322015334064
  0
POINT
  5
E5
100
AcDbEntity
  8
Defpoints
370
               0
390
0
 62
               0
100
AcDbPoint
 10
66.789991546421788
 20
-149.85440000000006
 30
0.0
  0
POINT
  5
E6
100
AcDbEntity
  8
Defpoints
370
               0
390
0
 62
               0
100
AcDbPoint
 10
48.789711546421586
 20
-148.00199999999984
 30
0.0
  0
POINT
  5
E7
100
AcDbEntity
  8
Defpoints
370
               0
390
0
 62
               0
100
AcDbPoint
 10
48.789711546421586
 20
-175.85439999999997
 30
0.0
  0
ENDBLK
  5
E8
100
AcDbEntity
  8
一般
390
0
100
AcDbBlockEnd
  0
BLOCK
  5
E9
100
AcDbEntity
  8
一般
390
0
100
AcDbBlockBegin
  2
*D14
 70
               1
 10
0.0
 20
0.0
 30
0.0
  3
*D14
  1

  0
LINE
  5
EA
100
AcDbEntity
  8
一般
370
              -2
390
0
  6
Continuous
 62
               0
100
AcDbLine
 10
66.789991546421788
 20
-152.00199999999984
 30
0.0
 11
66.789991546421788
 21
-179.85439999999983
 31
0.0
  0
LINE
  5
EB
100
AcDbEntity
  8
一般
370
              -2
390
0
  6
Continuous
 62
               0
100
AcDbLine
 10
126.79111154642187
 20
-152.00199999999984
 30
0.0
 11
126.79111154642187
 21
-179.85439999999983
 31
0.0
  0
LINE
  5
EC
100
AcDbEntity
  8
一般
370
              -2
390
0
  6
Continuous
 62
               0
100
AcDbLine
 10
66.789991546421788
 20
-175.85439999999983
 30
0.0
 11
126.79111154642187
 21
-175.85439999999983
 31
0.0
  0
SOLID
  5
ED
100
AcDbEntity
  8
一般
370
              -2
390
0
 62
               0
100
AcDbTrace
 10
66.789991546421788
 20
-175.85439999999983
 30
0.0
 11
72.792725921421791
 21
-174.57847942063137
 31
0.0
 12
72.792725921421791
 22
-177.13032057936829
 32
0.0
 13
72.792725921421791
 23
-177.13032057936829
 33
0.0
  0
SOLID
  5
EE
100
AcDbEntity
  8
一般
370
              -2
390
0
 62
               0
100
AcDbTrace
 10
126.79111154642187
 20
-175.85439999999983
 30
0.0
 11
120.78837717142187
 21
-177.13032057936829
 31
0.0
 12
120.78837717142187
 22
-174.57847942063137
 32
0.0
 13
120.78837717142187
 23
-174.57847942063137
 33
0.0
  0
MTEXT
  5
EF
100
AcDbEntity
  8
一般
390
0
 62
               0
100
AcDbMText
 10
90.44055154642183
 20
-165.29514999999984
 30
0.0
 40
8.7312499999999993
 41
0.0
 71
               1
 72
               1
  1
60
  7
ＭＳ Ｐゴシック
 73
               1
 44
0.8762322015334064
  0
POINT
  5
F0
100
AcDbEntity
  8
Defpoints
370
               0
390
0
 62
               0
100
AcDbPoint
 10
126.79111154642187
 20
-148.00199999999984
 30
0.0
  0
POINT
  5
F1
100
AcDbEntity
  8
Defpoints
370
               0
390
0
 62
               0
100
AcDbPoint
 10
66.789991546421788
 20
-148.00199999999984
 30
0.0
  0
POINT
  5
F2
100
AcDbEntity
  8
Defpoints
370
               0
390
0
 62
               0
100
AcDbPoint
 10
66.789991546421788
 20
-175.85439999999983
 30
0.0
  0
ENDBLK
  5
F3
100
AcDbEntity
  8
一般
390
0
100
AcDbBlockEnd
  0
BLOCK
  5
F4
100
AcDbEntity
  8
一般
390
0
100
AcDbBlockBegin
  2
*D15
 70
               1
 10
0.0
 20
0.0
 30
0.0
  3
*D15
  1

  0
LINE
  5
F5
100
AcDbEntity
  8
一般
370
              -2
390
0
  6
Continuous
 62
               0
100
AcDbLine
 10
126.79111154642187
 20
-152.00199999999984
 30
0.0
 11
126.79111154642187
 21
-179.85439999999983
 31
0.0
  0
LINE
  5
F6
100
AcDbEntity
  8
一般
370
              -2
390
0
  6
Continuous
 62
               0
100
AcDbLine
 10
144.79139154642169
 20
-152.00199999999984
 30
0.0
 11
144.79139154642169
 21
-179.85439999999983
 31
0.0
  0
LINE
  5
F7
100
AcDbEntity
  8
一般
370
              -2
390
0
  6
Continuous
 62
               0
100
AcDbLine
 10
126.79111154642187
 20
-175.85439999999983
 30
0.0
 11
144.79139154642169
 21
-175.85439999999983
 31
0.0
  0
SOLID
  5
F8
100
AcDbEntity
  8
一般
370
              -2
390
0
 62
               0
100
AcDbTrace
 10
126.79111154642187
 20
-175.85439999999983
 30
0.0
 11
132.79384592142188
 21
-174.57847942063137
 31
0.0
 12
132.79384592142188
 22
-177.13032057936829
 32
0.0
 13
132.79384592142188
 23
-177.13032057936829
 33
0.0
  0
SOLID
  5
F9
100
AcDbEntity
  8
一般
370
              -2
390
0
 62
               0
100
AcDbTrace
 10
144.79139154642169
 20
-175.85439999999983
 30
0.0
 11
138.7886571714217
 21
-177.13032057936829
 31
0.0
 12
138.7886571714217
 22
-174.57847942063137
 32
0.0
 13
138.7886571714217
 23
-174.57847942063137
 33
0.0
  0
MTEXT
  5
FA
100
AcDbEntity
  8
一般
390
0
 62
               0
100
AcDbMText
 10
128.76228590677337
 20
-165.29514999999984
 30
0.0
 40
8.7312499999999993
 41
0.0
 71
               1
 72
               1
  1
18
  7
ＭＳ Ｐゴシック
 73
               1
 44
0.8762322015334064
  0
POINT
  5
FB
100
AcDbEntity
  8
Defpoints
370
               0
390
0
 62
               0
100
AcDbPoint
 10
144.79139154642169
 20
-148.00199999999984
 30
0.0
  0
POINT
  5
FC
100
AcDbEntity
  8
Defpoints
370
               0
390
0
 62
               0
100
AcDbPoint
 10
126.79111154642187
 20
-148.00199999999984
 30
0.0
  0
POINT
  5
FD
100
AcDbEntity
  8
Defpoints
370
               0
390
0
 62
               0
100
AcDbPoint
 10
126.79111154642187
 20
-175.85439999999983
 30
0.0
  0
ENDBLK
  5
FE
100
AcDbEntity
  8
一般
390
0
100
AcDbBlockEnd
  0
BLOCK
  5
FF
100
AcDbEntity
  8
一般
390
0
100
AcDbBlockBegin
  2
*D16
 70
               1
 10
0.0
 20
0.0
 30
0.0
  3
*D16
  1

  0
LINE
  5
100
100
AcDbEntity
  8
一般
370
              -2
390
0
  6
Continuous
 62
               0
100
AcDbLine
 10
92.790791546421957
 20
48.001599999999939
 30
0.0
 11
78.629911546422051
 21
48.001599999999939
 31
0.0
  0
LINE
  5
101
100
AcDbEntity
  8
一般
370
              -2
390
0
  6
Continuous
 62
               0
100
AcDbLine
 10
101.97007156132267
 20
-148.00199999999984
 30
0.0
 11
78.629911546422051
 21
-148.00199999999984
 31
0.0
  0
LINE
  5
102
100
AcDbEntity
  8
一般
370
              -2
390
0
  6
Continuous
 62
               0
100
AcDbLine
 10
82.629911546422051
 20
48.001599999999939
 30
0.0
 11
82.629911546422051
 21
-148.00199999999984
 31
0.0
  0
SOLID
  5
103
100
AcDbEntity
  8
一般
370
              -2
390
0
 62
               0
100
AcDbTrace
 10
82.629911546422051
 20
48.001599999999939
 30
0.0
 11
83.905832125790496
 21
41.998865624999937
 31
0.0
 12
81.353990967053605
 22
41.998865624999944
 32
0.0
 13
81.353990967053605
 23
41.998865624999944
 33
0.0
  0
SOLID
  5
104
100
AcDbEntity
  8
一般
370
              -2
390
0
 62
               0
100
AcDbTrace
 10
82.629911546422051
 20
-148.00199999999984
 30
0.0
 11
81.353990967053605
 21
-141.99926562499985
 31
0.0
 12
83.905832125790496
 22
-141.99926562499985
 32
0.0
 13
83.905832125790496
 23
-141.99926562499985
 33
0.0
  0
MTEXT
  5
105
100
AcDbEntity
  8
一般
390
0
 62
               0
100
AcDbMText
 10
72.070661546422045
 20
-65.366189302020558
 30
0.0
 40
8.7312499999999993
 41
0.0
 71
               1
 72
               1
  1
196
  7
ＭＳ Ｐゴシック
 11
0.0
 21
1.0
 31
0.0
 73
               1
 44
0.8762322015334064
  0
POINT
  5
106
100
AcDbEntity
  8
Defpoints
370
               0
390
0
 62
               0
100
AcDbPoint
 10
105.97007156132267
 20
-148.00199999999984
 30
0.0
  0
POINT
  5
107
100
AcDbEntity
  8
Defpoints
370
               0
390
0
 62
               0
100
AcDbPoint
 10
96.790791546421957
 20
48.001599999999939
 30
0.0
  0
POINT
  5
108
100
AcDbEntity
  8
Defpoints
370
               0
390
0
 62
               0
100
AcDbPoint
 10
82.629911546422051
 20
48.001599999999939
 30
0.0
  0
ENDBLK
  5
109
100
AcDbEntity
  8
一般
390
0
100
AcDbBlockEnd
  0
BLOCK
  5
10A
100
AcDbEntity
  8
一般
390
0
100
AcDbBlockBegin
  2
*D17
 70
               1
 10
0.0
 20
0.0
 30
0.0
  3
*D17
  1

  0
LINE
  5
10B
100
AcDbEntity
  8
一般
370
              -2
390
0
  6
Continuous
 62
               0
100
AcDbLine
 10
-32.211808453578215
 20
7.0009999999999764
 30
0.0
 11
-44.370128453578218
 21
7.0009999999999764
 31
0.0
  0
LINE
  5
10C
100
AcDbEntity
  8
一般
370
              -2
390
0
  6
Continuous
 62
               0
100
AcDbLine
 10
-32.211808453578215
 20
-12.999400000000094
 30
0.0
 11
-44.370128453578218
 21
-12.999400000000094
 31
0.0
  0
LINE
  5
10D
100
AcDbEntity
  8
一般
370
              -2
390
0
  6
Continuous
 62
               0
100
AcDbLine
 10
-40.370128453578218
 20
7.0009999999999764
 30
0.0
 11
-40.370128453578218
 21
22.598519999999976
 31
0.0
  0
LINE
  5
10E
100
AcDbEntity
  8
一般
370
              -2
390
0
  6
Continuous
 62
               0
100
AcDbLine
 10
-40.370128453578218
 20
7.0009999999999764
 30
0.0
 11
-40.370128453578218
 21
-12.999400000000094
 31
0.0
  0
SOLID
  5
10F
100
AcDbEntity
  8
一般
370
              -2
390
0
 62
               0
100
AcDbTrace
 10
-40.370128453578218
 20
7.0009999999999764
 30
0.0
 11
-39.094207874209765
 21
0.9982656249999771
 31
0.0
 12
-41.646049032946671
 22
0.998265624999978
 32
0.0
 13
-41.646049032946671
 23
0.998265624999978
 33
0.0
  0
SOLID
  5
110
100
AcDbEntity
  8
一般
370
              -2
390
0
 62
               0
100
AcDbTrace
 10
-40.370128453578218
 20
-12.999400000000094
 30
0.0
 11
-41.646049032946664
 21
-6.9966656250000945
 31
0.0
 12
-39.094207874209765
 22
-6.9966656250000945
 32
0.0
 13
-39.094207874209765
 23
-6.9966656250000945
 33
0.0
  0
MTEXT
  5
111
100
AcDbEntity
  8
一般
390
0
 62
               0
100
AcDbMText
 10
-50.929378453578224
 20
9.8985199999999782
 30
0.0
 40
8.7312499999999993
 41
0.0
 71
               1
 72
               1
  1
20
  7
ＭＳ Ｐゴシック
 11
0.0
 21
1.0
 31
0.0
 73
               1
 44
0.8762322015334064
  0
POINT
  5
112
100
AcDbEntity
  8
Defpoints
370
               0
390
0
 62
               0
100
AcDbPoint
 10
-28.211808453578215
 20
-12.999400000000094
 30
0.0
  0
POINT
  5
113
100
AcDbEntity
  8
Defpoints
370
               0
390
0
 62
               0
100
AcDbPoint
 10
-28.211808453578215
 20
7.0009999999999764
 30
0.0
  0
POINT
  5
114
100
AcDbEntity
  8
Defpoints
370
               0
390
0
 62
               0
100
AcDbPoint
 10
-40.370128453578218
 20
7.0009999999999764
 30
0.0
  0
ENDBLK
  5
115
100
AcDbEntity
  8
一般
390
0
100
AcDbBlockEnd
  0
BLOCK
  5
116
100
AcDbEntity
  8
一般
390
0
100
AcDbBlockBegin
  2
*D18
 70
               1
 10
0.0
 20
0.0
 30
0.0
  3
*D18
  1

  0
LINE
  5
117
100
AcDbEntity
  8
一般
370
              -2
390
0
  6
Continuous
 62
               0
100
AcDbLine
 10
-22.497088453577916
 20
-66.057079999999928
 30
0.0
 11
-22.497088453577916
 21
-46.854359999999929
 31
0.0
  0
LINE
  5
118
100
AcDbEntity
  8
一般
370
              -2
390
0
  6
Continuous
 62
               0
100
AcDbLine
 10
-16.497008453578118
 20
-66.057079999999928
 30
0.0
 11
-16.497008453578118
 21
-46.854359999999929
 31
0.0
  0
LINE
  5
119
100
AcDbEntity
  8
一般
370
              -2
390
0
  6
Continuous
 62
               0
100
AcDbLine
 10
-16.497008453578118
 20
-50.854359999999929
 30
0.0
 11
-22.497088453577916
 21
-50.854359999999929
 31
0.0
  0
LINE
  5
11A
100
AcDbEntity
  8
一般
370
              -2
390
0
  6
Continuous
 62
               0
100
AcDbLine
 10
-22.497088453577916
 20
-50.854359999999929
 30
0.0
 11
-40.237688453577917
 21
-50.854359999999929
 31
0.0
  0
SOLID
  5
11B
100
AcDbEntity
  8
一般
370
              -2
390
0
 62
               0
100
AcDbTrace
 10
-22.497088453577916
 20
-50.854359999999929
 30
0.0
 11
-28.499822828577916
 21
-52.130280579368382
 31
0.0
 12
-28.499822828577916
 22
-49.578439420631483
 32
0.0
 13
-28.499822828577916
 23
-49.578439420631483
 33
0.0
  0
LINE
  5
11C
100
AcDbEntity
  8
一般
370
              -2
390
0
  6
Continuous
 62
               0
100
AcDbLine
 10
-16.497008453578118
 20
-50.854359999999929
 30
0.0
 11
-8.4970084535781183
 21
-50.854359999999929
 31
0.0
  0
SOLID
  5
11D
100
AcDbEntity
  8
一般
370
              -2
390
0
 62
               0
100
AcDbTrace
 10
-16.497008453578118
 20
-50.854359999999929
 30
0.0
 11
-10.494274078578119
 21
-49.578439420631483
 31
0.0
 12
-10.494274078578119
 22
-52.130280579368375
 32
0.0
 13
-10.494274078578119
 23
-52.130280579368375
 33
0.0
  0
MTEXT
  5
11E
100
AcDbEntity
  8
一般
390
0
 62
               0
100
AcDbMText
 10
-40.237688453577917
 20
-40.295109999999923
 30
0.0
 40
8.7312499999999993
 41
0.0
 71
               1
 72
               1
  1
6
  7
ＭＳ Ｐゴシック
 73
               1
 44
0.8762322015334064
  0
POINT
  5
11F
100
AcDbEntity
  8
Defpoints
370
               0
390
0
 62
               0
100
AcDbPoint
 10
-16.497008453578118
 20
-70.057079999999928
 30
0.0
  0
POINT
  5
120
100
AcDbEntity
  8
Defpoints
370
               0
390
0
 62
               0
100
AcDbPoint
 10
-22.497088453577916
 20
-70.057079999999928
 30
0.0
  0
POINT
  5
121
100
AcDbEntity
  8
Defpoints
370
               0
390
0
 62
               0
100
AcDbPoint
 10
-22.497088453577916
 20
-50.854359999999929
 30
0.0
  0
ENDBLK
  5
122
100
AcDbEntity
  8
一般
390
0
100
AcDbBlockEnd
  0
BLOCK
  5
123
100
AcDbEntity
  8
一般
390
0
100
AcDbBlockBegin
  2
*D19
 70
               1
 10
0.0
 20
0.0
 30
0.0
  3
*D19
  1

  0
LINE
  5
124
100
AcDbEntity
  8
一般
370
              -2
390
0
  6
Continuous
 62
               0
100
AcDbLine
 10
-26.497088453577916
 20
-70.057079999999928
 30
0.0
 11
-47.887688453577915
 21
-70.057079999999928
 31
0.0
  0
LINE
  5
125
100
AcDbEntity
  8
一般
370
              -2
390
0
  6
Continuous
 62
               0
100
AcDbLine
 10
-26.497088453577916
 20
-73.556879999999978
 30
0.0
 11
-47.887688453577915
 21
-73.556879999999978
 31
0.0
  0
LINE
  5
126
100
AcDbEntity
  8
一般
370
              -2
390
0
  6
Continuous
 62
               0
100
AcDbLine
 10
-43.887688453577915
 20
-73.556879999999978
 30
0.0
 11
-43.887688453577915
 21
-70.057079999999928
 31
0.0
  0
LINE
  5
127
100
AcDbEntity
  8
一般
370
              -2
390
0
  6
Continuous
 62
               0
100
AcDbLine
 10
-43.887688453577915
 20
-70.057079999999928
 30
0.0
 11
-43.887688453577915
 21
-62.057079999999928
 31
0.0
  0
SOLID
  5
128
100
AcDbEntity
  8
一般
370
              -2
390
0
 62
               0
100
AcDbTrace
 10
-43.887688453577915
 20
-70.057079999999928
 30
0.0
 11
-45.163609032946361
 21
-64.054345624999925
 31
0.0
 12
-42.611767874209463
 22
-64.054345624999925
 32
0.0
 13
-42.611767874209463
 23
-64.054345624999925
 33
0.0
  0
LINE
  5
129
100
AcDbEntity
  8
一般
370
              -2
390
0
  6
Continuous
 62
               0
100
AcDbLine
 10
-43.887688453577915
 20
-73.556879999999978
 30
0.0
 11
-43.887688453577915
 21
-95.090800269148062
 31
0.0
  0
SOLID
  5
12A
100
AcDbEntity
  8
一般
370
              -2
390
0
 62
               0
100
AcDbTrace
 10
-43.887688453577915
 20
-73.556879999999978
 30
0.0
 11
-42.611767874209463
 21
-79.559614374999981
 31
0.0
 12
-45.163609032946368
 22
-79.559614374999981
 32
0.0
 13
-45.163609032946368
 23
-79.559614374999981
 33
0.0
  0
MTEXT
  5
12B
100
AcDbEntity
  8
一般
390
0
 62
               0
100
AcDbMText
 10
-54.446938453577914
 20
-95.090800269148062
 30
0.0
 40
8.7312499999999993
 41
0.0
 71
               1
 72
               1
  1
3.5
  7
ＭＳ Ｐゴシック
 11
0.0
 21
1.0
 31
0.0
 73
               1
 44
0.8762322015334064
  0
POINT
  5
12C
100
AcDbEntity
  8
Defpoints
370
               0
390
0
 62
               0
100
AcDbPoint
 10
-22.497088453577916
 20
-73.556879999999978
 30
0.0
  0
POINT
  5
12D
100
AcDbEntity
  8
Defpoints
370
               0
390
0
 62
               0
100
AcDbPoint
 10
-22.497088453577916
 20
-70.057079999999928
 30
0.0
  0
POINT
  5
12E
100
AcDbEntity
  8
Defpoints
370
               0
390
0
 62
               0
100
AcDbPoint
 10
-43.887688453577915
 20
-70.057079999999928
 30
0.0
  0
ENDBLK
  5
12F
100
AcDbEntity
  8
一般
390
0
100
AcDbBlockEnd
  0
BLOCK
  5
130
100
AcDbEntity
  8
一般
390
0
100
AcDbBlockBegin
  2
*D20
 70
               1
 10
0.0
 20
0.0
 30
0.0
  3
*D20
  1

  0
LINE
  5
131
100
AcDbEntity
  8
一般
370
              -2
390
0
  6
Continuous
 62
               0
100
AcDbLine
 10
-29.211808453578215
 20
10.000999999999976
 30
0.0
 11
-29.211808453578215
 21
108.1456
 31
0.0
  0
LINE
  5
132
100
AcDbEntity
  8
一般
370
              -2
390
0
  6
Continuous
 62
               0
100
AcDbLine
 10
15.78904042650786
 20
15.676920000000052
 30
0.0
 11
15.78904042650786
 21
108.1456
 31
0.0
  0
LINE
  5
133
100
AcDbEntity
  8
一般
370
              -2
390
0
  6
Continuous
 62
               0
100
AcDbLine
 10
-29.211808453578215
 20
104.1456
 30
0.0
 11
15.78904042650786
 21
104.1456
 31
0.0
  0
SOLID
  5
134
100
AcDbEntity
  8
一般
370
              -2
390
0
 62
               0
100
AcDbTrace
 10
-29.211808453578215
 20
104.1456
 30
0.0
 11
-23.209074078578215
 21
105.42152057936845
 31
0.0
 12
-23.209074078578215
 22
102.86967942063156
 32
0.0
 13
-23.209074078578215
 23
102.86967942063156
 33
0.0
  0
SOLID
  5
135
100
AcDbEntity
  8
一般
370
              -2
390
0
 62
               0
100
AcDbTrace
 10
15.78904042650786
 20
104.1456
 30
0.0
 11
9.7863060515078608
 21
102.86967942063156
 31
0.0
 12
9.7863060515078608
 22
105.42152057936845
 32
0.0
 13
9.7863060515078608
 23
105.42152057936845
 33
0.0
  0
MTEXT
  5
136
100
AcDbEntity
  8
一般
390
0
 62
               0
100
AcDbMText
 10
-13.061384013535177
 20
114.70485000000002
 30
0.0
 40
8.7312499999999993
 41
0.0
 71
               1
 72
               1
  1
45
  7
ＭＳ Ｐゴシック
 73
               1
 44
0.8762322015334064
  0
POINT
  5
137
100
AcDbEntity
  8
Defpoints
370
               0
390
0
 62
               0
100
AcDbPoint
 10
15.78904042650786
 20
11.676920000000052
 30
0.0
  0
POINT
  5
138
100
AcDbEntity
  8
Defpoints
370
               0
390
0
 62
               0
100
AcDbPoint
 10
-29.211808453578215
 20
6.0009999999999764
 30
0.0
  0
POINT
  5
139
100
AcDbEntity
  8
Defpoints
370
               0
390
0
 62
               0
100
AcDbPoint
 10
-29.211808453578215
 20
104.1456
 30
0.0
  0
ENDBLK
  5
13A
100
AcDbEntity
  8
一般
390
0
100
AcDbBlockEnd
  0
BLOCK
  5
13B
100
AcDbEntity
  8
一般
390
0
100
AcDbBlockBegin
  2
*D21
 70
               1
 10
0.0
 20
0.0
 30
0.0
  3
*D21
  1

  0
LINE
  5
13C
100
AcDbEntity
  8
一般
370
              -2
390
0
  6
Continuous
 62
               0
100
AcDbLine
 10
-29.211808453578215
 20
10.000999999999976
 30
0.0
 11
-29.211808453578215
 21
128.14563999999984
 31
0.0
  0
LINE
  5
13D
100
AcDbEntity
  8
一般
370
              -2
390
0
  6
Continuous
 62
               0
100
AcDbLine
 10
27.789311546421864
 20
64.487520000000018
 30
0.0
 11
27.789311546421864
 21
128.14563999999982
 31
0.0
  0
LINE
  5
13E
100
AcDbEntity
  8
一般
370
              -2
390
0
  6
Continuous
 62
               0
100
AcDbLine
 10
-29.211808453578215
 20
124.14563999999983
 30
0.0
 11
27.789311546421864
 21
124.14563999999983
 31
0.0
  0
SOLID
  5
13F
100
AcDbEntity
  8
一般
370
              -2
390
0
 62
               0
100
AcDbTrace
 10
-29.211808453578215
 20
124.14563999999983
 30
0.0
 11
-23.209074078578215
 21
125.42156057936828
 31
0.0
 12
-23.209074078578215
 22
122.86971942063138
 32
0.0
 13
-23.209074078578215
 23
122.86971942063138
 33
0.0
  0
SOLID
  5
140
100
AcDbEntity
  8
一般
370
              -2
390
0
 62
               0
100
AcDbTrace
 10
27.789311546421864
 20
124.14563999999983
 30
0.0
 11
21.786577171421865
 21
122.86971942063138
 31
0.0
 12
21.786577171421865
 22
125.42156057936828
 32
0.0
 13
21.786577171421865
 23
125.42156057936828
 33
0.0
  0
MTEXT
  5
141
100
AcDbEntity
  8
一般
390
0
 62
               0
100
AcDbMText
 10
-7.061248453578175
 20
134.70488999999981
 30
0.0
 40
8.7312499999999993
 41
0.0
 71
               1
 72
               1
  1
57
  7
ＭＳ Ｐゴシック
 73
               1
 44
0.8762322015334064
  0
POINT
  5
142
100
AcDbEntity
  8
Defpoints
370
               0
390
0
 62
               0
100
AcDbPoint
 10
27.789311546421864
 20
60.487520000000018
 30
0.0
  0
POINT
  5
143
100
AcDbEntity
  8
Defpoints
370
               0
390
0
 62
               0
100
AcDbPoint
 10
-29.211808453578215
 20
6.0009999999999764
 30
0.0
  0
POINT
  5
144
100
AcDbEntity
  8
Defpoints
370
               0
390
0
 62
               0
100
AcDbPoint
 10
-29.211808453578215
 20
124.14563999999983
 30
0.0
  0
ENDBLK
  5
145
100
AcDbEntity
  8
一般
390
0
100
AcDbBlockEnd
  0
BLOCK
  5
146
100
AcDbEntity
  8
一般
390
0
100
AcDbBlockBegin
  2
*D22
 70
               1
 10
0.0
 20
0.0
 30
0.0
  3
*D22
  1

  0
LINE
  5
147
100
AcDbEntity
  8
一般
370
              -2
390
0
  6
Continuous
 62
               0
100
AcDbLine
 10
27.789311546421864
 20
64.487520000000018
 30
0.0
 11
27.789311546421864
 21
108.14564000000001
 31
0.0
  0
LINE
  5
148
100
AcDbEntity
  8
一般
370
              -2
390
0
  6
Continuous
 62
               0
100
AcDbLine
 10
111.79079154642196
 20
68.145600000000002
 30
0.0
 11
111.79079154642196
 21
108.14564000000001
 31
0.0
  0
LINE
  5
149
100
AcDbEntity
  8
一般
370
              -2
390
0
  6
Continuous
 62
               0
100
AcDbLine
 10
27.789311546421864
 20
104.14564000000001
 30
0.0
 11
111.79079154642196
 21
104.14564000000001
 31
0.0
  0
SOLID
  5
14A
100
AcDbEntity
  8
一般
370
              -2
390
0
 62
               0
100
AcDbTrace
 10
27.789311546421864
 20
104.14564000000001
 30
0.0
 11
33.79204592142186
 21
105.42156057936846
 31
0.0
 12
33.79204592142186
 22
102.86971942063157
 32
0.0
 13
33.79204592142186
 23
102.86971942063157
 33
0.0
  0
SOLID
  5
14B
100
AcDbEntity
  8
一般
370
              -2
390
0
 62
               0
100
AcDbTrace
 10
111.79079154642196
 20
104.14564000000001
 30
0.0
 11
105.78805717142195
 21
102.86971942063157
 31
0.0
 12
105.78805717142195
 22
105.42156057936846
 32
0.0
 13
105.78805717142195
 23
105.42156057936846
 33
0.0
  0
MTEXT
  5
14C
100
AcDbEntity
  8
一般
390
0
 62
               0
100
AcDbMText
 10
63.440051546421905
 20
114.70489000000003
 30
0.0
 40
8.7312499999999993
 41
0.0
 71
               1
 72
               1
  1
84
  7
ＭＳ Ｐゴシック
 73
               1
 44
0.8762322015334064
  0
POINT
  5
14D
100
AcDbEntity
  8
Defpoints
370
               0
390
0
 62
               0
100
AcDbPoint
 10
111.79079154642196
 20
64.145600000000002
 30
0.0
  0
POINT
  5
14E
100
AcDbEntity
  8
Defpoints
370
               0
390
0
 62
               0
100
AcDbPoint
 10
27.789311546421864
 20
60.487520000000018
 30
0.0
  0
POINT
  5
14F
100
AcDbEntity
  8
Defpoints
370
               0
390
0
 62
               0
100
AcDbPoint
 10
27.789311546421864
 20
104.14564000000001
 30
0.0
  0
ENDBLK
  5
150
100
AcDbEntity
  8
一般
390
0
100
AcDbBlockEnd
  0
BLOCK
  5
151
100
AcDbEntity
  8
一般
390
0
100
AcDbBlockBegin
  2
*D23
 70
               1
 10
0.0
 20
0.0
 30
0.0
  3
*D23
  1

  0
LINE
  5
152
100
AcDbEntity
  8
一般
370
              -2
390
0
  6
Continuous
 62
               0
100
AcDbLine
 10
27.793311546421585
 20
64.308920000000001
 30
0.0
 11
27.793311546421585
 21
128.14563999999999
 31
0.0
  0
LINE
  5
153
100
AcDbEntity
  8
一般
370
              -2
390
0
  6
Continuous
 62
               0
100
AcDbLine
 10
281.99391154642171
 20
10.614919999999984
 30
0.0
 11
281.99391154642171
 21
128.14563999999999
 31
0.0
  0
LINE
  5
154
100
AcDbEntity
  8
一般
370
              -2
390
0
  6
Continuous
 62
               0
100
AcDbLine
 10
27.793311546421585
 20
124.14563999999999
 30
0.0
 11
281.99391154642171
 21
124.14563999999999
 31
0.0
  0
SOLID
  5
155
100
AcDbEntity
  8
一般
370
              -2
390
0
 62
               0
100
AcDbTrace
 10
27.793311546421585
 20
124.14563999999999
 30
0.0
 11
33.79604592142158
 21
125.42156057936843
 31
0.0
 12
33.79604592142158
 22
122.86971942063154
 32
0.0
 13
33.79604592142158
 23
122.86971942063154
 33
0.0
  0
SOLID
  5
156
100
AcDbEntity
  8
一般
370
              -2
390
0
 62
               0
100
AcDbTrace
 10
281.99391154642171
 20
124.14563999999999
 30
0.0
 11
275.99117717142173
 21
122.86971942063154
 31
0.0
 12
275.99117717142173
 22
125.42156057936843
 32
0.0
 13
275.99117717142173
 23
125.42156057936843
 33
0.0
  0
MTEXT
  5
157
100
AcDbEntity
  8
一般
390
0
 62
               0
100
AcDbMText
 10
145.36861087355143
 20
134.70488999999998
 30
0.0
 40
8.7312499999999993
 41
0.0
 71
               1
 72
               1
  1
254
  7
ＭＳ Ｐゴシック
 73
               1
 44
0.8762322015334064
  0
POINT
  5
158
100
AcDbEntity
  8
Defpoints
370
               0
390
0
 62
               0
100
AcDbPoint
 10
281.99391154642171
 20
6.6149199999999837
 30
0.0
  0
POINT
  5
159
100
AcDbEntity
  8
Defpoints
370
               0
390
0
 62
               0
100
AcDbPoint
 10
27.793311546421585
 20
60.308920000000001
 30
0.0
  0
POINT
  5
15A
100
AcDbEntity
  8
Defpoints
370
               0
390
0
 62
               0
100
AcDbPoint
 10
27.793311546421585
 20
124.14563999999999
 30
0.0
  0
ENDBLK
  5
15B
100
AcDbEntity
  8
一般
390
0
100
AcDbBlockEnd
  0
BLOCK
  5
15C
100
AcDbEntity
  8
一般
390
0
100
AcDbBlockBegin
  2
*D24
 70
               1
 10
0.0
 20
0.0
 30
0.0
  3
*D24
  1

  0
LINE
  5
15D
100
AcDbEntity
  8
一般
370
              -2
390
0
  6
Continuous
 62
               0
100
AcDbLine
 10
281.99391154642171
 20
10.614919999999984
 30
0.0
 11
281.99391154642171
 21
128.14563999999999
 31
0.0
  0
LINE
  5
15E
100
AcDbEntity
  8
一般
370
              -2
390
0
  6
Continuous
 62
               0
100
AcDbLine
 10
322.98299154642177
 20
44.145600000000002
 30
0.0
 11
322.98299154642177
 21
128.14563999999999
 31
0.0
  0
LINE
  5
15F
100
AcDbEntity
  8
一般
370
              -2
390
0
  6
Continuous
 62
               0
100
AcDbLine
 10
281.99391154642171
 20
124.14563999999999
 30
0.0
 11
322.98299154642177
 21
124.14563999999999
 31
0.0
  0
SOLID
  5
160
100
AcDbEntity
  8
一般
370
              -2
390
0
 62
               0
100
AcDbTrace
 10
281.99391154642171
 20
124.14563999999999
 30
0.0
 11
287.9966459214217
 21
125.42156057936843
 31
0.0
 12
287.9966459214217
 22
122.86971942063154
 32
0.0
 13
287.9966459214217
 23
122.86971942063154
 33
0.0
  0
SOLID
  5
161
100
AcDbEntity
  8
一般
370
              -2
390
0
 62
               0
100
AcDbTrace
 10
322.98299154642177
 20
124.14563999999999
 30
0.0
 11
316.98025717142178
 21
122.86971942063154
 31
0.0
 12
316.98025717142178
 22
125.42156057936843
 32
0.0
 13
316.98025717142178
 23
125.42156057936843
 33
0.0
  0
MTEXT
  5
162
100
AcDbEntity
  8
一般
390
0
 62
               0
100
AcDbMText
 10
296.13845154642172
 20
134.70488999999998
 30
0.0
 40
8.7312499999999993
 41
0.0
 71
               1
 72
               1
  1
41
  7
ＭＳ Ｐゴシック
 73
               1
 44
0.8762322015334064
  0
POINT
  5
163
100
AcDbEntity
  8
Defpoints
370
               0
390
0
 62
               0
100
AcDbPoint
 10
322.98299154642177
 20
40.145600000000002
 30
0.0
  0
POINT
  5
164
100
AcDbEntity
  8
Defpoints
370
               0
390
0
 62
               0
100
AcDbPoint
 10
281.99391154642171
 20
6.6149199999999837
 30
0.0
  0
POINT
  5
165
100
AcDbEntity
  8
Defpoints
370
               0
390
0
 62
               0
100
AcDbPoint
 10
281.99391154642171
 20
124.14563999999999
 30
0.0
  0
ENDBLK
  5
166
100
AcDbEntity
  8
一般
390
0
100
AcDbBlockEnd
  0
BLOCK
  5
167
100
AcDbEntity
  8
一般
390
0
100
AcDbBlockBegin
  2
*D25
 70
               1
 10
0.0
 20
0.0
 30
0.0
  3
*D25
  1

  0
LINE
  5
168
100
AcDbEntity
  8
一般
370
              -2
390
0
  6
Continuous
 62
               0
100
AcDbLine
 10
322.94181380719471
 20
44.61551999999989
 30
0.0
 11
322.94181380719471
 21
128.14559999999989
 31
0.0
  0
LINE
  5
169
100
AcDbEntity
  8
一般
370
              -2
390
0
  6
Continuous
 62
               0
100
AcDbLine
 10
332.94193447757056
 20
44.61551999999989
 30
0.0
 11
332.94193447757056
 21
128.14559999999989
 31
0.0
  0
LINE
  5
16A
100
AcDbEntity
  8
一般
370
              -2
390
0
  6
Continuous
 62
               0
100
AcDbLine
 10
332.94193447757056
 20
124.1455999999999
 30
0.0
 11
322.94181380719471
 21
124.1455999999999
 31
0.0
  0
LINE
  5
16B
100
AcDbEntity
  8
一般
370
              -2
390
0
  6
Continuous
 62
               0
100
AcDbLine
 10
322.94181380719471
 20
124.1455999999999
 30
0.0
 11
314.94181380719471
 21
124.1455999999999
 31
0.0
  0
SOLID
  5
16C
100
AcDbEntity
  8
一般
370
              -2
390
0
 62
               0
100
AcDbTrace
 10
322.94181380719471
 20
124.1455999999999
 30
0.0
 11
316.93907943219472
 21
122.86967942063146
 31
0.0
 12
316.93907943219472
 22
125.42152057936835
 32
0.0
 13
316.93907943219472
 23
125.42152057936835
 33
0.0
  0
LINE
  5
16D
100
AcDbEntity
  8
一般
370
              -2
390
0
  6
Continuous
 62
               0
100
AcDbLine
 10
332.94193447757056
 20
124.1455999999999
 30
0.0
 11
340.94193447757056
 21
124.1455999999999
 31
0.0
  0
SOLID
  5
16E
100
AcDbEntity
  8
一般
370
              -2
390
0
 62
               0
100
AcDbTrace
 10
332.94193447757056
 20
124.1455999999999
 30
0.0
 11
338.94466885257054
 21
125.42152057936835
 31
0.0
 12
338.94466885257054
 22
122.86967942063146
 32
0.0
 13
338.94466885257054
 23
122.86967942063146
 33
0.0
  0
MTEXT
  5
16F
100
AcDbEntity
  8
一般
390
0
 62
               0
100
AcDbMText
 10
321.59187414238261
 20
134.70484999999988
 30
0.0
 40
8.7312499999999993
 41
0.0
 71
               1
 72
               1
  1
10
  7
ＭＳ Ｐゴシック
 73
               1
 44
0.8762322015334064
  0
POINT
  5
170
100
AcDbEntity
  8
Defpoints
370
               0
390
0
 62
               0
100
AcDbPoint
 10
332.94193447757056
 20
40.61551999999989
 30
0.0
  0
POINT
  5
171
100
AcDbEntity
  8
Defpoints
370
               0
390
0
 62
               0
100
AcDbPoint
 10
322.94181380719471
 20
40.61551999999989
 30
0.0
  0
POINT
  5
172
100
AcDbEntity
  8
Defpoints
370
               0
390
0
 62
               0
100
AcDbPoint
 10
322.94181380719471
 20
124.1455999999999
 30
0.0
  0
ENDBLK
  5
173
100
AcDbEntity
  8
一般
390
0
100
AcDbBlockEnd
  0
BLOCK
  5
174
100
AcDbEntity
  8
一般
390
0
100
AcDbBlockBegin
  2
*D26
 70
               1
 10
0.0
 20
0.0
 30
0.0
  3
*D26
  1

  0
LINE
  5
175
100
AcDbEntity
  8
一般
370
              -2
390
0
  6
Continuous
 62
               0
100
AcDbLine
 10
328.50471154642173
 20
49.115600000000086
 30
0.0
 11
357.94871154642169
 21
49.115600000000086
 31
0.0
  0
LINE
  5
176
100
AcDbEntity
  8
一般
370
              -2
390
0
  6
Continuous
 62
               0
100
AcDbLine
 10
328.37111154642184
 20
-75.885800000000017
 30
0.0
 11
357.94871154642169
 21
-75.885800000000017
 31
0.0
  0
LINE
  5
177
100
AcDbEntity
  8
一般
370
              -2
390
0
  6
Continuous
 62
               0
100
AcDbLine
 10
353.94871154642169
 20
49.115600000000086
 30
0.0
 11
353.94871154642169
 21
-75.885800000000017
 31
0.0
  0
SOLID
  5
178
100
AcDbEntity
  8
一般
370
              -2
390
0
 62
               0
100
AcDbTrace
 10
353.94871154642169
 20
49.115600000000086
 30
0.0
 11
355.22463212579015
 21
43.112865625000083
 31
0.0
 12
352.67279096705323
 22
43.11286562500009
 32
0.0
 13
352.67279096705323
 23
43.11286562500009
 33
0.0
  0
SOLID
  5
179
100
AcDbEntity
  8
一般
370
              -2
390
0
 62
               0
100
AcDbTrace
 10
353.94871154642169
 20
-75.885800000000017
 30
0.0
 11
352.67279096705323
 21
-69.883065625000015
 31
0.0
 12
355.22463212579015
 22
-69.883065625000015
 32
0.0
 13
355.22463212579015
 23
-69.883065625000015
 33
0.0
  0
MTEXT
  5
17A
100
AcDbEntity
  8
一般
390
0
 62
               0
100
AcDbMText
 10
343.38946154642173
 20
-19.307078752093808
 30
0.0
 40
8.7312499999999993
 41
0.0
 71
               1
 72
               1
  1
125
  7
ＭＳ Ｐゴシック
 11
0.0
 21
1.0
 31
0.0
 73
               1
 44
0.8762322015334064
  0
POINT
  5
17B
100
AcDbEntity
  8
Defpoints
370
               0
390
0
 62
               0
100
AcDbPoint
 10
324.37111154642184
 20
-75.885800000000017
 30
0.0
  0
POINT
  5
17C
100
AcDbEntity
  8
Defpoints
370
               0
390
0
 62
               0
100
AcDbPoint
 10
324.50471154642173
 20
49.115600000000086
 30
0.0
  0
POINT
  5
17D
100
AcDbEntity
  8
Defpoints
370
               0
390
0
 62
               0
100
AcDbPoint
 10
353.94871154642169
 20
49.115600000000086
 30
0.0
  0
ENDBLK
  5
17E
100
AcDbEntity
  8
一般
390
0
100
AcDbBlockEnd
  0
BLOCK
  5
17F
100
AcDbEntity
  8
一般
390
0
100
AcDbBlockBegin
  2
*D27
 70
               1
 10
0.0
 20
0.0
 30
0.0
  3
*D27
  1

  0
LINE
  5
180
100
AcDbEntity
  8
一般
370
              -2
390
0
  6
Continuous
 62
               0
100
AcDbLine
 10
326.99451154642179
 20
-13.385479999999916
 30
0.0
 11
375.9487115464218
 21
-13.385479999999916
 31
0.0
  0
LINE
  5
181
100
AcDbEntity
  8
一般
370
              -2
390
0
  6
Continuous
 62
               0
100
AcDbLine
 10
148.79139154642169
 20
-148.00199999999984
 30
0.0
 11
375.9487115464218
 21
-148.00199999999984
 31
0.0
  0
LINE
  5
182
100
AcDbEntity
  8
一般
370
              -2
390
0
  6
Continuous
 62
               0
100
AcDbLine
 10
371.9487115464218
 20
-13.385479999999916
 30
0.0
 11
371.9487115464218
 21
-148.00199999999984
 31
0.0
  0
SOLID
  5
183
100
AcDbEntity
  8
一般
370
              -2
390
0
 62
               0
100
AcDbTrace
 10
371.9487115464218
 20
-13.385479999999916
 30
0.0
 11
373.22463212579027
 21
-19.388214374999915
 31
0.0
 12
370.67279096705334
 22
-19.388214374999915
 32
0.0
 13
370.67279096705334
 23
-19.388214374999915
 33
0.0
  0
SOLID
  5
184
100
AcDbEntity
  8
一般
370
              -2
390
0
 62
               0
100
AcDbTrace
 10
371.9487115464218
 20
-148.00199999999984
 30
0.0
 11
370.67279096705334
 21
-141.99926562499985
 31
0.0
 12
373.22463212579027
 22
-141.99926562499985
 32
0.0
 13
373.22463212579027
 23
-141.99926562499985
 33
0.0
  0
MTEXT
  5
185
100
AcDbEntity
  8
一般
390
0
 62
               0
100
AcDbMText
 10
361.38946154642184
 20
-97.173872763934526
 30
0.0
 40
8.7312499999999993
 41
0.0
 71
               1
 72
               1
  1
135
  7
ＭＳ Ｐゴシック
 11
0.0
 21
1.0
 31
0.0
 73
               1
 44
0.8762322015334064
  0
POINT
  5
186
100
AcDbEntity
  8
Defpoints
370
               0
390
0
 62
               0
100
AcDbPoint
 10
144.79139154642169
 20
-148.00199999999984
 30
0.0
  0
POINT
  5
187
100
AcDbEntity
  8
Defpoints
370
               0
390
0
 62
               0
100
AcDbPoint
 10
322.99451154642179
 20
-13.385479999999916
 30
0.0
  0
POINT
  5
188
100
AcDbEntity
  8
Defpoints
370
               0
390
0
 62
               0
100
AcDbPoint
 10
371.9487115464218
 20
-13.385479999999916
 30
0.0
  0
ENDBLK
  5
189
100
AcDbEntity
  8
一般
390
0
100
AcDbBlockEnd
  0
BLOCK
  5
18A
100
AcDbEntity
  8
一般
390
0
100
AcDbBlockBegin
  2
グループ-1
 70
               0
 10
0.0
 20
0.0
 30
0.0
  3
グループ-1
  1

  0
LWPOLYLINE
  5
18B
100
AcDbEntity
  8
一般
370
               5
390
0
 62
               7
100
AcDbPolyline
 90
        3
 70
             128
 10
331.15931154642192
 20
-85.262799999999856
 10
327.28711154642178
 20
-78.144800000000032
 10
328.08611154642165
 20
-86.208400000000097
  0
LINE
  5
18C
100
AcDbEntity
  8
一般
370
               5
390
0
 62
               7
100
AcDbLine
 10
327.28711154642178
 20
-78.144800000000032
 30
0.0
 11
331.69839154642204
 21
-92.481480000000033
 31
0.0
  0
ENDBLK
  5
18D
100
AcDbEntity
  8
一般
390
0
100
AcDbBlockEnd
  0
BLOCK
  5
18E
100
AcDbEntity
  8
一般
390
0
100
AcDbBlockBegin
  2
グループ-2
 70
               0
 10
0.0
 20
0.0
 30
0.0
  3
グループ-2
  1

  0
LWPOLYLINE
  5
18F
100
AcDbEntity
  8
一般
370
               5
390
0
 62
               7
100
AcDbPolyline
 90
        3
 70
             128
 10
315.26811154642155
 20
-86.856480000000033
 10
313.66039154642158
 20
-78.316000000000031
 10
312.05271154642173
 20
-86.856480000000033
  0
LINE
  5
190
100
AcDbEntity
  8
一般
370
               5
390
0
 62
               7
100
AcDbLine
 10
313.66039154642158
 20
-78.316000000000031
 30
0.0
 11
313.66039154642158
 21
-93.316000000000031
 31
0.0
  0
ENDBLK
  5
191
100
AcDbEntity
  8
一般
390
0
100
AcDbBlockEnd
  0
BLOCK
  5
192
100
AcDbEntity
  8
寸法
390
0
100
AcDbBlockBegin
  2
*D30
 70
               1
 10
0.0
 20
0.0
 30
0.0
  3
*D30
  1

  0
LINE
  5
193
100
AcDbEntity
  8
寸法
370
              -2
390
0
  6
Continuous
 62
               0
100
AcDbLine
 10
-172.21978845357819
 20
81.990480000000161
 30
0.0
 11
-92.370088453577878
 21
81.990480000000161
 31
0.0
  0
LINE
  5
194
100
AcDbEntity
  8
寸法
370
              -2
390
0
  6
Continuous
 62
               0
100
AcDbLine
 10
-169.05244845357822
 20
137.99060000000009
 30
0.0
 11
-92.370088453577878
 21
137.99060000000009
 31
0.0
  0
LINE
  5
195
100
AcDbEntity
  8
寸法
370
              -2
390
0
  6
Continuous
 62
               0
100
AcDbLine
 10
-96.370088453577878
 20
81.990480000000161
 30
0.0
 11
-96.370088453577878
 21
137.99060000000009
 31
0.0
  0
SOLID
  5
196
100
AcDbEntity
  8
寸法
370
              -2
390
0
 62
               0
100
AcDbTrace
 10
-96.370088453577878
 20
81.990480000000161
 30
0.0
 11
-97.646009032946324
 21
87.993214375000164
 31
0.0
 12
-95.094167874209433
 22
87.993214375000164
 32
0.0
 13
-95.094167874209433
 23
87.993214375000164
 33
0.0
  0
SOLID
  5
197
100
AcDbEntity
  8
寸法
370
              -2
390
0
 62
               0
100
AcDbTrace
 10
-96.370088453577878
 20
137.99060000000009
 30
0.0
 11
-95.094167874209433
 21
131.9878656250001
 31
0.0
 12
-97.646009032946324
 22
131.9878656250001
 32
0.0
 13
-97.646009032946324
 23
131.9878656250001
 33
0.0
  0
MTEXT
  5
198
100
AcDbEntity
  8
寸法
390
0
 62
               0
100
AcDbMText
 10
-106.90933845357787
 20
104.32584420288099
 30
0.0
 40
8.7312499999999993
 41
0.0
 71
               1
 72
               1
  1
56
  7
ＭＳ Ｐゴシック
 11
0.0
 21
1.0
 31
0.0
 73
               1
 44
0.8762322015334064
  0
POINT
  5
199
100
AcDbEntity
  8
Defpoints
370
               0
390
0
 62
               0
100
AcDbPoint
 10
-173.05244845357822
 20
137.99060000000009
 30
0.0
  0
POINT
  5
19A
100
AcDbEntity
  8
Defpoints
370
               0
390
0
 62
               0
100
AcDbPoint
 10
-176.21978845357819
 20
81.990480000000161
 30
0.0
  0
POINT
  5
19B
100
AcDbEntity
  8
Defpoints
370
               0
390
0
 62
               0
100
AcDbPoint
 10
-96.370088453577878
 20
81.990480000000161
 30
0.0
  0
ENDBLK
  5
19C
100
AcDbEntity
  8
寸法
390
0
100
AcDbBlockEnd
  0
ENDSEC
  0
SECTION
  2
ENTITIES
  0
DIMENSION
  5
19D
100
AcDbEntity
  8
一般
370
               5
390
0
  6
Continuous
 62
               7
100
AcDbDimension
  2
*D1
 10
48.789711546421586
 20
-195.85439999999983
 30
0.0
 11
96.790551546421639
 21
-195.85439999999983
 31
0.0
 71
               5
 72
               1
 41
1.0
 42
0.0
  3
中谷
100
AcDbAlignedDimension
 13
144.79139154642169
 23
-148.00199999999984
 33
0.0
 14
48.789711546421586
 24
-148.00199999999984
 34
0.0
100
AcDbRotatedDimension
1001
ACAD
1000
DSTYLE
1002
{
1070
             279
1070
               2
1070
             340
1005
42
1070
              73
1070
               1
1070
              74
1070
               1
1070
             147
1040
0.05
1002
}
  0
DIMENSION
  5
19E
100
AcDbEntity
  8
一般
370
               5
390
0
  6
Continuous
 62
               7
100
AcDbDimension
  2
*D2
 10
27.789311546421864
 20
-195.85440000000006
 30
0.0
 11
38.289511546421721
 21
-195.85440000000006
 31
0.0
 71
               5
 72
               1
 41
1.0
 42
0.0
  3
中谷
100
AcDbAlignedDimension
 13
48.789711546421586
 23
-147.85440000000006
 33
0.0
 14
27.789311546421864
 24
-137.85440000000006
 34
0.0
100
AcDbRotatedDimension
1001
ACAD
1000
DSTYLE
1002
{
1070
             279
1070
               2
1070
             340
1005
42
1070
              73
1070
               1
1070
              74
1070
               1
1070
             147
1040
0.05
1002
}
  0
ARC
  5
19F
100
AcDbEntity
  8
一般
370
               5
390
0
  6
Continuous
 62
               7
100
AcDbCircle
 10
-19.497008453578118
 20
-79.59660000000008
 30
0.0
 40
10.000336878565678
100
AcDbArc
 50
107.45747661538893
 51
72.542304765325781
  0
INSERT
  5
1A0
100
AcDbEntity
  8
一般
390
0
 62
               7
100
AcDbBlockReference
  2
グループ
 10
0.0
 20
0.0
 30
0.0
  0
DIMENSION
  5
1A1
100
AcDbEntity
  8
一般
370
               5
390
0
  6
Continuous
 62
               7
100
AcDbDimension
  2
*D4
 10
107.34311154642155
 20
38.49011999999999
 30
0.0
 11
142.92899745732331
 21
106.03677527989313
 31
0.0
 70
               3
 71
               5
 72
               1
 41
1.0
 42
0.0
  1
2-φ21電線口×2ヶ
  3
中谷
100
AcDbDiametricDimension
 15
116.23851154642171
 25
57.51299999999992
 35
0.0
 40
53.566919999999996
1001
ACAD
1000
DSTYLE
1002
{
1070
             172
1070
               0
1070
             289
1070
               0
1070
             342
1005
62
1070
             340
1005
42
1070
              73
1070
               1
1070
              74
1070
               1
1070
              75
1070
               1
1070
              76
1070
               1
1070
             174
1070
               0
1070
             147
1040
0.05
1002
}
  0
ARC
  5
1A2
100
AcDbEntity
  8
一般
370
               5
390
0
 62
               7
100
AcDbCircle
 10
36.789391546421662
 20
50.932919999999967
 30
0.0
 40
2.0000183699155536
100
AcDbArc
 50
272.00001047693462
 51
0.0
  0
ARC
  5
1A3
100
AcDbEntity
  8
一般
370
               5
390
0
 62
               7
100
AcDbCircle
 10
36.789391546421662
 20
-34.999879999999962
 30
0.0
 40
2.0001200000002441
100
AcDbArc
 50
0.0
 51
89.998854153147704
  0
ARC
  5
1A4
100
AcDbEntity
  8
一般
370
               5
390
0
 62
               7
100
AcDbCircle
 10
36.789391546421662
 20
-45.000080000000025
 30
0.0
 40
2.0001200000000381
100
AcDbArc
 50
270.0
 51
0.0
  0
ARC
  5
1A5
100
AcDbEntity
  8
一般
370
               5
390
0
 62
               7
100
AcDbCircle
 10
36.789391546421662
 20
-131.00167999999996
 30
0.0
 40
2.0001200000002441
100
AcDbArc
 50
0.0
 51
89.998854153147704
  0
CIRCLE
  5
1A6
100
AcDbEntity
  8
一般
370
               5
390
0
 62
               7
100
AcDbCircle
 10
-139.48340845357791
 20
96.93732
 30
0.0
 40
10.000199999999694
  0
LINE
  5
1A7
100
AcDbEntity
  8
一般
370
               5
390
0
 62
               7
100
AcDbLine
 10
-240.02700845357811
 20
-3.0109999999999104
 30
0.0
 11
-146.84600845357829
 21
90.169999999999845
 31
0.0
  0
LINE
  5
1A8
100
AcDbEntity
  8
一般
370
               5
390
0
 62
               7
100
AcDbLine
 10
-240.02708845357824
 20
-3.0109999999999104
 30
0.0
 11
-333.52780845357825
 21
89.83752000000004
 31
0.0
  0
LINE
  5
1A9
100
AcDbEntity
  8
一般
370
               5
390
0
 62
               7
100
AcDbLine
 10
-50.370088453578234
 20
-116.05687999999998
 30
0.0
 11
9.1623115464218188
 21
-116.05687999999998
 31
0.0
  0
LINE
  5
1AA
100
AcDbEntity
  8
一般
370
               5
390
0
 62
               7
100
AcDbLine
 10
-16.497008453578118
 20
-70.056879999999978
 30
0.0
 11
-16.497008453578118
 21
-73.556879999999978
 31
0.0
  0
LINE
  5
1AB
100
AcDbEntity
  8
一般
370
               5
390
0
 62
               7
100
AcDbLine
 10
-16.497008453578118
 20
-73.556879999999978
 30
0.0
 11
-22.497088453577916
 21
-73.556879999999978
 31
0.0
  0
LINE
  5
1AC
100
AcDbEntity
  8
一般
370
               5
390
0
 62
               7
100
AcDbLine
 10
-22.497088453577916
 20
-70.056879999999978
 30
0.0
 11
-22.497088453577916
 21
-73.556879999999978
 31
0.0
  0
LINE
  5
1AD
100
AcDbEntity
  8
一般
370
               5
390
0
  6
STYLE_13
 62
               7
100
AcDbLine
 10
-19.497008453578118
 20
-66.743600000000015
 30
0.0
 11
-19.497008453578118
 21
-93.45939999999996
 31
0.0
  0
LINE
  5
1AE
100
AcDbEntity
  8
一般
370
               5
390
0
  6
STYLE_13
 62
               7
100
AcDbLine
 10
-32.667488453578073
 20
-79.59660000000008
 30
0.0
 11
-5.7182084535780717
 21
-79.59660000000008
 31
0.0
  0
LINE
  5
1AF
100
AcDbEntity
  8
一般
370
               5
390
0
  6
Continuous
 62
               7
100
AcDbLine
 10
-7.0214884535781579
 20
18.748199999999997
 30
0.0
 11
-7.0214884535781579
 21
-26.251800000000003
 31
0.0
  0
LINE
  5
1B0
100
AcDbEntity
  8
一般
370
               5
390
0
 62
               7
100
AcDbLine
 10
-240.0524084535781
 20
19.989320000000021
 30
0.0
 11
-236.03128845357833
 21
13.513119999999958
 31
0.0
  0
LINE
  5
1B1
100
AcDbEntity
  8
一般
370
               5
390
0
 62
               7
100
AcDbLine
 10
-244.03148845357839
 20
13.510920000000056
 30
0.0
 11
-240.0524084535781
 21
19.989399999999989
 31
0.0
  0
LINE
  5
1B2
100
AcDbEntity
  8
一般
370
               5
390
0
 62
               7
100
AcDbLine
 10
-246.02160845357844
 20
-24.011399999999981
 30
0.0
 11
-246.02320845357804
 21
-17.845280000000116
 31
0.0
  0
LINE
  5
1B3
100
AcDbEntity
  8
一般
370
               5
390
0
 62
               7
100
AcDbLine
 10
-246.02160845357844
 20
-24.011399999999981
 30
0.0
 11
-234.02140845357837
 21
-24.011399999999981
 31
0.0
  0
LINE
  5
1B4
100
AcDbEntity
  8
一般
370
               5
390
0
 62
               7
100
AcDbLine
 10
-234.02300845357797
 20
-17.842200000000048
 30
0.0
 11
-234.02140845357837
 21
-24.011399999999981
 31
0.0
  0
ARC
  5
1B5
100
AcDbEntity
  8
一般
370
               5
390
0
 62
               7
100
AcDbCircle
 10
-240.03540845357827
 20
28.555720000000065
 30
0.0
 40
15.566382214400599
100
AcDbArc
 50
255.12493609293477
 51
284.90566845008783
  0
LINE
  5
1B6
100
AcDbEntity
  8
一般
370
               5
390
0
 62
               7
100
AcDbLine
 10
23.78919154642162
 20
20.00120000000004
 30
0.0
 11
20.789111546421822
 21
14.001119999999901
 31
0.0
  0
LINE
  5
1B7
100
AcDbEntity
  8
一般
370
               5
390
0
 62
               7
100
AcDbLine
 10
20.588991546421578
 20
13.601119999999867
 30
0.0
 11
17.102991546421883
 21
13.165319999999838
 31
0.0
  0
ARC
  5
1B8
100
AcDbEntity
  8
一般
370
               5
390
0
 62
               7
100
AcDbCircle
 10
17.289111546421822
 20
11.676920000000052
 30
0.0
 40
1.5000711199139598
100
AcDbArc
 50
97.127290374458752
 51
180.0
  0
ARC
  5
1B9
100
AcDbEntity
  8
一般
370
               5
390
0
 62
               7
100
AcDbCircle
 10
17.289111546421822
 20
-17.675280000000043
 30
0.0
 40
1.5001200000002441
100
AcDbArc
 50
180.0
 51
262.86986726282282
  0
LINE
  5
1BA
100
AcDbEntity
  8
一般
370
               5
390
0
 62
               7
100
AcDbLine
 10
17.102991546421883
 20
-19.163680000000056
 30
0.0
 11
23.788991546421578
 21
-19.9996000000001
 31
0.0
  0
LINE
  5
1BB
100
AcDbEntity
  8
一般
370
               5
390
0
 62
               7
100
AcDbLine
 10
23.78919154642162
 20
12.923919999999953
 30
0.0
 11
20.589111546421822
 21
13.600999999999999
 31
0.0
  0
ARC
  5
1BC
100
AcDbEntity
  8
一般
370
               5
390
0
 62
               7
100
AcDbCircle
 10
-240.02700845357811
 20
-3.0109999999999104
 30
0.0
 40
17.000314837225819
100
AcDbArc
 50
290.68247801041713
 51
76.406144279274542
  0
ARC
  5
1BD
100
AcDbEntity
  8
一般
370
               5
390
0
 62
               7
100
AcDbCircle
 10
-240.02700845357811
 20
-3.0109999999999104
 30
0.0
 40
16.000205529930092
100
AcDbArc
 50
292.03946724934127
 51
247.99066920041693
  0
ARC
  5
1BE
100
AcDbEntity
  8
一般
370
               5
390
0
 62
               7
100
AcDbCircle
 10
-240.02700845357811
 20
-3.0109999999999104
 30
0.0
 40
17.000363057017179
100
AcDbArc
 50
103.62419985589619
 51
249.34769068187771
  0
LINE
  5
1BF
100
AcDbEntity
  8
一般
370
               5
390
0
 62
               7
100
AcDbLine
 10
-315.05380845357809
 20
67.990319999999883
 30
0.0
 11
-165.05108845357802
 21
67.990319999999883
 31
0.0
  0
LINE
  5
1C0
100
AcDbEntity
  8
一般
370
               5
390
0
 62
               7
100
AcDbLine
 10
146.79139154642172
 20
69.001999999999839
 30
0.0
 11
76.790191546421823
 21
69.001999999999839
 31
0.0
  0
LINE
  5
1C1
100
AcDbEntity
  8
一般
370
               5
390
0
 62
               7
100
AcDbLine
 10
-237.02700845357805
 20
3.4891199999999571
 30
0.0
 11
-243.02708845357824
 21
3.4891199999999571
 31
0.0
  0
LINE
  5
1C2
100
AcDbEntity
  8
一般
370
               5
390
0
 62
               7
100
AcDbLine
 10
-237.02700845357805
 20
6.5285999999999831
 30
0.0
 11
-237.02700845357805
 21
3.4891199999999571
 31
0.0
  0
LINE
  5
1C3
100
AcDbEntity
  8
一般
370
               5
390
0
 62
               7
100
AcDbLine
 10
-243.02708845357824
 20
6.5285999999999831
 30
0.0
 11
-243.02708845357824
 21
3.4891199999999571
 31
0.0
  0
LINE
  5
1C4
100
AcDbEntity
  8
一般
370
               5
390
0
  6
STYLE_01
 62
               7
100
AcDbLine
 10
15.788991546421578
 20
3.5009199999998373
 30
0.0
 11
-28.211808453578215
 21
3.5009199999998373
 31
0.0
  0
LINE
  5
1C5
100
AcDbEntity
  8
一般
370
               5
390
0
 62
               7
100
AcDbLine
 10
294.99411154642178
 20
3.1147999999998888
 30
0.0
 11
294.99411154642178
 21
-29.885800000000017
 31
0.0
  0
LINE
  5
1C6
100
AcDbEntity
  8
一般
370
               5
390
0
 62
               7
100
AcDbLine
 10
275.67791154642168
 20
6.6149199999999837
 30
0.0
 11
279.99371154642165
 21
6.6149199999999837
 31
0.0
  0
LINE
  5
1C7
100
AcDbEntity
  8
一般
370
               5
390
0
 62
               7
100
AcDbLine
 10
276.97691154642189
 20
-33.385880000000043
 30
0.0
 11
279.99391154642171
 21
-33.385880000000043
 31
0.0
  0
LINE
  5
1C8
100
AcDbEntity
  8
一般
370
               5
390
0
 62
               7
100
AcDbLine
 10
276.79379154642186
 20
6.6149199999999837
 30
0.0
 11
276.79379154642186
 21
-33.385880000000043
 31
0.0
  0
ARC
  5
1C9
100
AcDbEntity
  8
一般
370
               5
390
0
 62
               7
100
AcDbCircle
 10
-195.05160845357798
 20
-12.39708000000013
 30
0.0
 40
62.501068563588589
100
AcDbArc
 50
298.26512724545165
 51
65.233725790898518
  0
ARC
  5
1CA
100
AcDbEntity
  8
一般
370
               5
390
0
 62
               7
100
AcDbCircle
 10
-195.05160845357798
 20
-12.39708000000013
 30
0.0
 40
53.501015692085467
100
AcDbArc
 50
303.91263277022142
 51
59.586196965698996
  0
LINE
  5
1CB
100
AcDbEntity
  8
一般
370
               5
390
0
 62
               7
100
AcDbLine
 10
-165.27028845357827
 20
-19.776400000000137
 30
0.0
 11
-157.43928845357814
 21
-24.297480000000007
 31
0.0
  0
ARC
  5
1CC
100
AcDbEntity
  8
一般
370
               5
390
0
 62
               7
100
AcDbCircle
 10
-155.43920845357835
 20
-20.833400000000097
 30
0.0
 40
4.0001252038404029
100
AcDbArc
 50
239.99971224666959
 51
347.97643133838142
  0
ARC
  5
1CD
100
AcDbEntity
  8
一般
370
               5
390
0
 62
               7
100
AcDbCircle
 10
-195.05160845357798
 20
-12.39708000000013
 30
0.0
 40
44.5007031575906
100
AcDbArc
 50
347.97738050829963
 51
51.135880435509648
  0
LINE
  5
1CE
100
AcDbEntity
  8
一般
370
               5
390
0
 62
               7
100
AcDbLine
 10
322.99451154642179
 20
39.61551999999989
 30
0.0
 11
322.99451154642179
 21
-66.38648000000012
 31
0.0
  0
ARC
  5
1CF
100
AcDbEntity
  8
一般
370
               5
390
0
 62
               7
100
AcDbCircle
 10
313.49451154642179
 20
39.61551999999989
 30
0.0
 40
9.5000800000002528
100
AcDbArc
 50
0.0
 51
180.0
  0
LINE
  5
1D0
100
AcDbEntity
  8
一般
370
               5
390
0
 62
               7
100
AcDbLine
 10
303.99431154642184
 20
39.61551999999989
 30
0.0
 11
303.99431154642184
 21
-66.38648000000012
 31
0.0
  0
ARC
  5
1D1
100
AcDbEntity
  8
一般
370
               5
390
0
 62
               7
100
AcDbCircle
 10
313.49451154642179
 20
-66.38648000000012
 30
0.0
 40
9.5001999999999498
100
AcDbArc
 50
180.0
 51
0.0
  0
LINE
  5
1D2
100
AcDbEntity
  8
一般
370
               5
390
0
 62
               7
100
AcDbLine
 10
298.99419154642192
 20
-32.385880000000043
 30
0.0
 11
303.99431154642184
 21
-37.385880000000043
 31
0.0
  0
LINE
  5
1D3
100
AcDbEntity
  8
一般
370
               5
390
0
 62
               7
100
AcDbLine
 10
284.99391154642171
 20
-29.885800000000017
 30
0.0
 11
294.99411154642178
 21
-29.885800000000017
 31
0.0
  0
LINE
  5
1D4
100
AcDbEntity
  8
一般
370
               5
390
0
 62
               7
100
AcDbLine
 10
284.99391154642171
 20
3.1147999999998888
 30
0.0
 11
294.99411154642178
 21
3.1147999999998888
 31
0.0
  0
LINE
  5
1D5
100
AcDbEntity
  8
一般
370
               5
390
0
 62
               7
100
AcDbLine
 10
298.99419154642192
 20
5.6147999999998888
 30
0.0
 11
303.99431154642184
 21
10.614919999999984
 31
0.0
  0
LINE
  5
1D6
100
AcDbEntity
  8
一般
370
               5
390
0
 62
               7
100
AcDbLine
 10
281.99391154642171
 20
-5.3854000000001179
 30
0.0
 11
284.99391154642171
 21
-5.3854000000001179
 31
0.0
  0
LINE
  5
1D7
100
AcDbEntity
  8
一般
370
               5
390
0
 62
               7
100
AcDbLine
 10
284.99391154642171
 20
3.1147999999998888
 30
0.0
 11
284.99391154642171
 21
-29.885800000000017
 31
0.0
  0
LINE
  5
1D8
100
AcDbEntity
  8
一般
370
               5
390
0
 62
               7
100
AcDbLine
 10
281.99391154642171
 20
-21.385679999999979
 30
0.0
 11
284.99391154642171
 21
-21.385679999999979
 31
0.0
  0
LINE
  5
1D9
100
AcDbEntity
  8
一般
370
               5
390
0
 62
               7
100
AcDbLine
 10
298.99419154642192
 20
-32.385880000000043
 30
0.0
 11
294.99411154642178
 21
-32.385880000000043
 31
0.0
  0
LINE
  5
1DA
100
AcDbEntity
  8
一般
370
               5
390
0
 62
               7
100
AcDbLine
 10
298.99419154642192
 20
5.6147999999998888
 30
0.0
 11
294.99411154642178
 21
5.6147999999998888
 31
0.0
  0
LINE
  5
1DB
100
AcDbEntity
  8
一般
370
               5
390
0
 62
               7
100
AcDbLine
 10
281.99391154642171
 20
6.6149199999999837
 30
0.0
 11
281.99391154642171
 21
-33.385880000000043
 31
0.0
  0
LINE
  5
1DC
100
AcDbEntity
  8
一般
370
               5
390
0
 62
               7
100
AcDbLine
 10
294.99411154642178
 20
-29.885800000000017
 30
0.0
 11
294.99411154642178
 21
-32.385880000000043
 31
0.0
  0
LINE
  5
1DD
100
AcDbEntity
  8
一般
370
               5
390
0
 62
               7
100
AcDbLine
 10
294.99411154642178
 20
3.1147999999998888
 30
0.0
 11
294.99411154642178
 21
5.6147999999998888
 31
0.0
  0
LINE
  5
1DE
100
AcDbEntity
  8
一般
370
               5
390
0
 62
               7
100
AcDbLine
 10
294.99411154642178
 20
3.1147999999998888
 30
0.0
 11
294.99411154642178
 21
-29.885800000000017
 31
0.0
  0
LINE
  5
1DF
100
AcDbEntity
  8
一般
370
               5
390
0
  6
STYLE_06
 62
               7
100
AcDbLine
 10
-195.05160845357798
 20
55.740719999999953
 30
0.0
 11
-195.05160845357798
 21
-82.535000000000082
 31
0.0
  0
LINE
  5
1E0
100
AcDbEntity
  8
一般
370
               5
390
0
  6
STYLE_06
 62
               7
100
AcDbLine
 10
-270.98948845357825
 20
-12.39708000000013
 30
0.0
 11
-124.98740845357798
 21
-12.39708000000013
 31
0.0
  0
ARC
  5
1E1
100
AcDbEntity
  8
一般
370
               5
390
0
  6
STYLE_11
 62
               7
100
AcDbCircle
 10
-195.05160845357798
 20
-12.39708000000013
 30
0.0
 40
62.501172969793231
100
AcDbArc
 50
65.23377187428521
 51
298.26515710935774
  0
ARC
  5
1E2
100
AcDbEntity
  8
一般
370
               5
390
0
  6
STYLE_11
 62
               7
100
AcDbCircle
 10
-195.05160845357798
 20
-12.39708000000013
 30
0.0
 40
53.500824124538312
100
AcDbArc
 50
59.586221049220967
 51
303.91262172010192
  0
ARC
  5
1E3
100
AcDbEntity
  8
一般
370
               5
390
0
  6
STYLE_11
 62
               7
100
AcDbCircle
 10
-195.05160845357798
 20
-12.39708000000013
 30
0.0
 40
44.500728247398364
100
AcDbArc
 50
51.135880435509556
 51
308.67619205311826
  0
LINE
  5
1E4
100
AcDbEntity
  8
一般
370
               5
390
0
  6
STYLE_08
 62
               7
100
AcDbLine
 10
332.99471154642185
 20
39.61551999999989
 30
0.0
 11
332.99471154642185
 21
-66.38648000000012
 31
0.0
  0
ARC
  5
1E5
100
AcDbEntity
  8
一般
370
               5
390
0
  6
STYLE_08
 62
               7
100
AcDbCircle
 10
323.49451154642179
 20
-66.38648000000012
 30
0.0
 40
9.5001199999998107
100
AcDbArc
 50
180.0
 51
359.99975875766046
  0
ARC
  5
1E6
100
AcDbEntity
  8
一般
370
               5
390
0
  6
STYLE_08
 62
               7
100
AcDbCircle
 10
323.49451154642179
 20
39.61551999999989
 30
0.0
 40
9.5002000000000635
100
AcDbArc
 50
0.0
 51
180.0
  0
MTEXT
  5
1E7
100
AcDbEntity
  8
一般
390
0
 62
               7
100
AcDbMText
 10
-152.37008845357823
 20
117.83837000000001
 30
0.0
 40
8.7312499999999993
 41
0.0
 71
               1
 72
               1
  1
SHUT
  7
ＭＳ Ｐゴシック
 73
               1
 44
0.8762322015334064
  0
MTEXT
  5
1E8
100
AcDbEntity
  8
一般
390
0
 62
               7
100
AcDbMText
 10
-358.37008845357821
 20
117.83837000000001
 30
0.0
 40
8.7312499999999993
 41
0.0
 71
               1
 72
               1
  1
OPEN
  7
ＭＳ Ｐゴシック
 73
               1
 44
0.8762322015334064
  0
MTEXT
  5
1E9
100
AcDbEntity
  8
一般
390
0
 62
               7
100
AcDbMText
 10
-143.55128845357805
 20
98.947249999999954
 30
0.0
 40
8.7312499999999993
 41
0.0
 71
               1
 72
               1
  1
S
  7
ＭＳ Ｐゴシック
 73
               1
 44
0.8762322015334064
  0
MTEXT
  5
1EA
100
AcDbEntity
  8
一般
390
0
 62
               7
100
AcDbMText
 10
183.10371154642152
 20
-158.32942999999995
 30
0.0
 40
8.7312499999999993
 41
0.0
 71
               1
 72
               1
  1
手動ハンドル
  7
ＭＳ Ｐゴシック
 73
               1
 44
0.8762322015334064
  0
MTEXT
  5
1EB
100
AcDbEntity
  8
一般
390
0
 62
               7
100
AcDbMText
 10
-11.720288453578277
 20
29.580850000000066
 30
0.0
 40
8.7312499999999993
 41
0.0
 71
               1
 72
               1
  1
A
  7
ＭＳ Ｐゴシック
 73
               1
 44
0.8762322015334064
  0
MTEXT
  5
1EC
100
AcDbEntity
  8
一般
390
0
 62
               7
100
AcDbMText
 10
-11.720288453578277
 20
-29.651349999999912
 30
0.0
 40
8.7312499999999993
 41
0.0
 71
               1
 72
               1
  1
A'
  7
ＭＳ Ｐゴシック
 73
               1
 44
0.8762322015334064
  0
MTEXT
  5
1ED
100
AcDbEntity
  8
一般
390
0
 62
               7
100
AcDbMText
 10
168.92579154642181
 20
-176.63323000000008
 30
0.0
 40
8.7312499999999993
 41
0.0
 71
               1
 72
               1
  1
電源をＯＦＦにしハンドルを
  7
ＭＳ Ｐゴシック
 73
               1
 44
0.8762322015334064
  0
MTEXT
  5
1EE
100
AcDbEntity
  8
一般
390
0
 62
               7
100
AcDbMText
 10
168.92579154642181
 20
-194.63323000000008
 30
0.0
 40
8.7312499999999993
 41
0.0
 71
               1
 72
               1
  1
手前に引きながら回します。
  7
ＭＳ Ｐゴシック
 73
               1
 44
0.8762322015334064
  0
MTEXT
  5
1EF
100
AcDbEntity
  8
一般
390
0
 62
               7
100
AcDbMText
 10
304.82111154642178
 20
-99.135630000000148
 30
0.0
 40
8.7312499999999993
 41
0.0
 71
               1
 72
               1
  1
自\P動
  7
ＭＳ Ｐゴシック
 73
               1
 44
0.8762322015334064
  0
MTEXT
  5
1F0
100
AcDbEntity
  8
一般
390
0
 62
               7
100
AcDbMText
 10
-35.876088453578006
 20
-104.91675000000002
 30
0.0
 40
8.7312499999999993
 41
0.0
 71
               1
 72
               1
  1
A-A'
  7
ＭＳ Ｐゴシック
 73
               1
 44
0.8762322015334064
  0
MTEXT
  5
1F1
100
AcDbEntity
  8
一般
390
0
 62
               7
100
AcDbMText
 10
-51.876088453578006
 20
-120.50035000000007
 30
0.0
 40
8.7312499999999993
 41
0.0
 71
               1
 72
               1
  1
SECTION
  7
ＭＳ Ｐゴシック
 73
               1
 44
0.8762322015334064
  0
LINE
  5
1F2
100
AcDbEntity
  8
一般
370
               5
390
0
 62
               7
100
AcDbLine
 10
306.23451154642203
 20
-75.561280000000124
 30
0.0
 11
271.44339154642182
 21
-169.64848000000006
 31
0.0
  0
SOLID
  5
1F3
100
AcDbEntity
  8
一般
370
               5
390
0
 62
               7
100
AcDbTrace
 10
306.23451154642203
 20
-75.561280000000124
 30
0.0
 11
304.93600086771136
 21
-87.915783844953381
 31
0.0
 12
298.93271638909658
 22
-85.61133884152683
 32
0.0
 13
298.93271638909658
 23
-85.61133884152683
 33
0.0
  0
LINE
  5
1F4
100
AcDbEntity
  8
一般
370
               5
390
0
 62
               7
100
AcDbLine
 10
178.42939154642181
 20
-169.64848000000006
 30
0.0
 11
271.44339154642182
 21
-169.64848000000006
 31
0.0
  0
LINE
  5
1F5
100
AcDbEntity
  8
一般
370
               5
390
0
 62
               7
100
AcDbLine
 10
25.78919154642162
 20
23.501319999999907
 30
0.0
 11
27.789311546421864
 21
23.501319999999907
 31
0.0
  0
LINE
  5
1F6
100
AcDbEntity
  8
一般
370
               5
390
0
 62
               7
100
AcDbLine
 10
25.78919154642162
 20
-29.499679999999898
 30
0.0
 11
27.789311546421864
 21
-29.499679999999898
 31
0.0
  0
LINE
  5
1F7
100
AcDbEntity
  8
一般
370
               5
390
0
 62
               7
100
AcDbLine
 10
46.789591546421704
 20
66.001920000000041
 30
0.0
 11
47.046191546421596
 21
66.001920000000041
 31
0.0
  0
LINE
  5
1F8
100
AcDbEntity
  8
一般
370
               5
390
0
 62
               7
100
AcDbLine
 10
46.789591546421704
 20
-146.00199999999984
 30
0.0
 11
47.046191546421596
 21
-146.00199999999984
 31
0.0
  0
LINE
  5
1F9
100
AcDbEntity
  8
一般
370
               5
390
0
 62
               7
100
AcDbLine
 10
46.789591546421704
 20
66.001920000000041
 30
0.0
 11
76.790191546421823
 21
66.001920000000041
 31
0.0
  0
LINE
  5
1FA
100
AcDbEntity
  8
一般
370
               5
390
0
 62
               7
100
AcDbLine
 10
275.67791154642168
 20
6.6149199999999837
 30
0.0
 11
281.99391154642171
 21
6.6149199999999837
 31
0.0
  0
LINE
  5
1FB
100
AcDbEntity
  8
一般
370
               5
390
0
 62
               7
100
AcDbLine
 10
276.97691154642189
 20
-33.385880000000043
 30
0.0
 11
281.99391154642171
 21
-33.385880000000043
 31
0.0
  0
LINE
  5
1FC
100
AcDbEntity
  8
一般
370
               5
390
0
 62
               7
100
AcDbLine
 10
25.28919154642162
 20
-15.499400000000094
 30
0.0
 11
25.78919154642162
 21
-15.499400000000094
 31
0.0
  0
LINE
  5
1FD
100
AcDbEntity
  8
一般
370
               5
390
0
 62
               7
100
AcDbLine
 10
25.28919154642162
 20
9.5011199999999008
 30
0.0
 11
25.78919154642162
 21
9.5011199999999008
 31
0.0
  0
LINE
  5
1FE
100
AcDbEntity
  8
一般
370
               5
390
0
 62
               7
100
AcDbLine
 10
-32.211808453578215
 20
-12.999400000000094
 30
0.0
 11
15.788991546421578
 21
-12.999400000000094
 31
0.0
  0
LINE
  5
1FF
100
AcDbEntity
  8
一般
370
               5
390
0
 62
               7
100
AcDbLine
 10
-32.211808453578215
 20
7.0009999999999764
 30
0.0
 11
15.788991546421578
 21
7.0009999999999764
 31
0.0
  0
LINE
  5
200
100
AcDbEntity
  8
一般
370
               5
390
0
 62
               7
100
AcDbLine
 10
-29.211808453578215
 20
-11.999279999999999
 30
0.0
 11
-29.211808453578215
 21
6.0009999999999764
 31
0.0
  0
LINE
  5
201
100
AcDbEntity
  8
一般
370
               5
390
0
 62
               7
100
AcDbLine
 10
143.40539154642201
 20
83.002199999999903
 30
0.0
 11
80.176191546421876
 21
83.002199999999903
 31
0.0
  0
LINE
  5
202
100
AcDbEntity
  8
一般
370
               5
390
0
 62
               7
100
AcDbLine
 10
134.29119154642203
 20
74.002120000000104
 30
0.0
 11
145.16831154642159
 21
74.002120000000104
 31
0.0
  0
LINE
  5
203
100
AcDbEntity
  8
一般
370
               5
390
0
 62
               7
100
AcDbLine
 10
132.79119154642203
 20
75.502120000000104
 30
0.0
 11
132.79119154642203
 21
80.002199999999903
 31
0.0
  0
LINE
  5
204
100
AcDbEntity
  8
一般
370
               5
390
0
 62
               7
100
AcDbLine
 10
90.790391546421873
 20
80.002199999999903
 30
0.0
 11
90.790391546421873
 21
75.502120000000104
 31
0.0
  0
LINE
  5
205
100
AcDbEntity
  8
一般
370
               5
390
0
 62
               7
100
AcDbLine
 10
146.79139154642172
 20
68.001920000000041
 30
0.0
 11
144.37819154642156
 21
68.001920000000041
 31
0.0
  0
LINE
  5
206
100
AcDbEntity
  8
一般
370
               5
390
0
 62
               7
100
AcDbLine
 10
146.40359154642167
 20
80.106800000000078
 30
0.0
 11
146.79139154642172
 21
69.001999999999839
 31
0.0
  0
LINE
  5
207
100
AcDbEntity
  8
一般
370
               5
390
0
 62
               7
100
AcDbLine
 10
77.177991546421524
 20
80.106800000000078
 30
0.0
 11
76.790191546421823
 21
69.001999999999839
 31
0.0
  0
ARC
  5
208
100
AcDbEntity
  8
一般
370
               5
390
0
 62
               7
100
AcDbCircle
 10
89.290391546421873
 20
75.502120000000104
 30
0.0
 40
1.5
100
AcDbArc
 50
270.0
 51
0.0
  0
ARC
  5
209
100
AcDbEntity
  8
一般
370
               5
390
0
 62
               7
100
AcDbCircle
 10
78.413311546422023
 20
72.501999999999839
 30
0.0
 40
1.5001200000002655
100
AcDbArc
 50
90.0
 51
177.99821427080892
  0
ARC
  5
20A
100
AcDbEntity
  8
一般
370
               5
390
0
 62
               7
100
AcDbCircle
 10
93.79051154642174
 20
80.002199999999903
 30
0.0
 40
3.0
100
AcDbArc
 50
90.0
 51
180.0
  0
ARC
  5
20B
100
AcDbEntity
  8
一般
370
               5
390
0
 62
               7
100
AcDbCircle
 10
80.176191546421876
 20
80.002199999999903
 30
0.0
 40
3.0
100
AcDbArc
 50
90.0
 51
178.00187156753438
  0
ARC
  5
20C
100
AcDbEntity
  8
一般
370
               5
390
0
 62
               7
100
AcDbCircle
 10
143.40539154642201
 20
80.002199999999903
 30
0.0
 40
3.0000240665697957
100
AcDbArc
 50
1.9981017963681227
 51
89.999236066464832
  0
ARC
  5
20D
100
AcDbEntity
  8
一般
370
               5
390
0
 62
               7
100
AcDbCircle
 10
129.79111154642186
 20
80.002199999999903
 30
0.0
 40
3.0000800000001675
100
AcDbArc
 50
0.0
 51
90.0
  0
ARC
  5
20E
100
AcDbEntity
  8
一般
370
               5
390
0
 62
               7
100
AcDbCircle
 10
145.16811154642156
 20
72.501999999999839
 30
0.0
 40
1.5001154622230308
100
AcDbArc
 50
2.0017857291935739
 51
89.995416704305299
  0
ARC
  5
20F
100
AcDbEntity
  8
一般
370
               5
390
0
 62
               7
100
AcDbCircle
 10
134.29119154642203
 20
75.502120000000104
 30
0.0
 40
1.5
100
AcDbArc
 50
180.0
 51
270.0
  0
ARC
  5
210
100
AcDbEntity
  8
一般
370
               5
390
0
 62
               7
100
AcDbCircle
 10
30.789311546421864
 20
45.720399999999927
 30
0.0
 40
3.0000282529336291
100
AcDbArc
 50
92.000392212504039
 51
180.0
  0
ARC
  5
211
100
AcDbEntity
  8
一般
370
               5
390
0
 62
               7
100
AcDbCircle
 10
40.289511546421906
 20
64.273919999999976
 30
0.0
 40
1.5001126699018601
100
AcDbArc
 50
91.998732048470771
 51
180.00152776523197
  0
ARC
  5
212
100
AcDbEntity
  8
一般
370
               5
390
0
 62
               7
100
AcDbCircle
 10
29.289311546421864
 20
-127.50159999999994
 30
0.0
 40
1.5
100
AcDbArc
 50
180.0
 51
270.0
  0
ARC
  5
213
100
AcDbEntity
  8
一般
370
               5
390
0
 62
               7
100
AcDbCircle
 10
40.289511546421906
 20
-144.274
 30
0.0
 40
1.5
100
AcDbArc
 50
180.0
 51
268.0026350511655
  0
LINE
  5
214
100
AcDbEntity
  8
一般
370
               5
390
0
 62
               7
100
AcDbLine
 10
164.99179154642178
 20
-143.74480000000005
 30
0.0
 11
164.99179154642178
 21
-129.00167999999996
 31
0.0
  0
LINE
  5
215
100
AcDbEntity
  8
一般
370
               5
390
0
 62
               7
100
AcDbLine
 10
259.38559154642167
 20
60.268799999999999
 30
0.0
 11
149.99139154642171
 21
66.001920000000041
 31
0.0
  0
LINE
  5
216
100
AcDbEntity
  8
一般
370
               5
390
0
 62
               7
100
AcDbLine
 10
263.03499154642191
 20
43.863319999999987
 30
0.0
 11
164.99159154642174
 21
49.001599999999939
 31
0.0
  0
LINE
  5
217
100
AcDbEntity
  8
一般
370
               5
390
0
 62
               7
100
AcDbLine
 10
263.03499154642191
 20
-123.86340000000007
 30
0.0
 11
164.99159154642174
 21
-129.00167999999996
 31
0.0
  0
ARC
  5
218
100
AcDbEntity
  8
一般
370
               5
390
0
 62
               7
100
AcDbCircle
 10
-659.1232884535782
 20
-40.0
 30
0.0
 40
934.11697620702762
100
AcDbArc
 50
5.22667953543134
 51
5.4940065820397752
  0
ARC
  5
219
100
AcDbEntity
  8
一般
370
               5
390
0
 62
               7
100
AcDbCircle
 10
-659.1232884535782
 20
-40.0
 30
0.0
 40
934.11687397558524
100
AcDbArc
 50
354.45666283814148
 51
354.77331490751681
  0
ARC
  5
21A
100
AcDbEntity
  8
一般
370
               5
390
0
 62
               7
100
AcDbCircle
 10
258.68119154642181
 20
-129.07528000000002
 30
0.0
 40
12.0001637088167
100
AcDbArc
 50
272.99980855009244
 51
354.45646731817442
  0
ARC
  5
21B
100
AcDbEntity
  8
一般
370
               5
390
0
 62
               7
100
AcDbCircle
 10
262.7209915464216
 20
-117.87160000000006
 30
0.0
 40
6.0001018270025446
100
AcDbArc
 50
272.99979855547127
 51
355.18731851656446
  0
ARC
  5
21C
100
AcDbEntity
  8
一般
370
               5
390
0
 62
               7
100
AcDbCircle
 10
262.7209915464216
 20
37.871399999999994
 30
0.0
 40
6.0000746600690604
100
AcDbArc
 50
4.8127135298639265
 51
86.999800010835656
  0
ARC
  5
21D
100
AcDbEntity
  8
一般
370
               5
390
0
 62
               7
100
AcDbCircle
 10
258.7575115464216
 20
48.285000000000025
 30
0.0
 40
12.000325837510029
100
AcDbArc
 50
5.4939550641597705
 51
86.999849989954754
  0
LINE
  5
21E
100
AcDbEntity
  8
一般
370
               5
390
0
 62
               7
100
AcDbLine
 10
149.99151154642195
 20
66.001920000000041
 30
0.0
 11
146.79139154642172
 21
66.001920000000041
 31
0.0
  0
ARC
  5
21F
100
AcDbEntity
  8
一般
370
               5
390
0
 62
               7
100
AcDbCircle
 10
275.67811154642175
 20
8.6149199999999837
 30
0.0
 40
2.0000109599697629
100
AcDbArc
 50
183.03808312062384
 51
270.0
  0
ARC
  5
220
100
AcDbEntity
  8
一般
370
               5
390
0
 62
               7
100
AcDbCircle
 10
276.97691154642189
 20
-35.385880000000043
 30
0.0
 40
2.0
100
AcDbArc
 50
90.0
 51
180.34492332436946
  0
LINE
  5
221
100
AcDbEntity
  8
一般
370
               5
390
0
 62
               7
100
AcDbLine
 10
48.789711546421586
 20
-148.00199999999984
 30
0.0
 11
144.79139154642169
 21
-148.00199999999984
 31
0.0
  0
LINE
  5
222
100
AcDbEntity
  8
一般
370
               5
390
0
 62
               7
100
AcDbLine
 10
51.289711546421579
 20
-129.00167999999996
 30
0.0
 11
142.29139154642169
 21
-129.00167999999996
 31
0.0
  0
ARC
  5
223
100
AcDbEntity
  8
一般
370
               5
390
0
 62
               7
100
AcDbCircle
 10
142.29139154642169
 20
-131.50167999999996
 30
0.0
 40
2.5
100
AcDbArc
 50
0.0
 51
89.999083267525535
  0
ARC
  5
224
100
AcDbEntity
  8
一般
370
               5
390
0
 62
               7
100
AcDbCircle
 10
51.289711546421579
 20
-131.50167999999996
 30
0.0
 40
2.5
100
AcDbArc
 50
90.0
 51
180.0
  0
LINE
  5
225
100
AcDbEntity
  8
一般
370
               5
390
0
 62
               7
100
AcDbLine
 10
144.79139154642169
 20
-146.00199999999984
 30
0.0
 11
149.99151154642195
 21
-146.00199999999984
 31
0.0
  0
LINE
  5
226
100
AcDbEntity
  8
一般
370
               5
390
0
 62
               7
100
AcDbLine
 10
259.30919154642174
 20
-141.05900000000008
 30
0.0
 11
149.99139154642171
 21
-145.8362800000001
 31
0.0
  0
ARC
  5
227
100
AcDbEntity
  8
一般
370
               5
390
0
 62
               7
100
AcDbCircle
 10
163.49171154642198
 20
-143.74488000000008
 30
0.0
 40
1.5000298631693929
100
AcDbArc
 50
272.50189697366591
 51
0.0
  0
ARC
  5
228
100
AcDbEntity
  8
一般
370
               5
390
0
 62
               7
100
AcDbCircle
 10
163.49171154642198
 20
63.792200000000037
 30
0.0
 40
1.500079999999798
100
AcDbArc
 50
0.0
 51
87.001104211330869
  0
LINE
  5
229
100
AcDbEntity
  8
一般
370
               5
390
0
 62
               7
100
AcDbLine
 10
78.39371154642167
 20
74.002120000000104
 30
0.0
 11
89.194391546421954
 21
74.002120000000104
 31
0.0
  0
LINE
  5
22A
100
AcDbEntity
  8
一般
370
               5
390
0
 62
               7
100
AcDbLine
 10
27.789311546421864
 20
60.509919999999852
 30
0.0
 11
27.789311546421864
 21
-140.50987999999995
 31
0.0
  0
LINE
  5
22B
100
AcDbEntity
  8
一般
370
               5
390
0
 62
               7
100
AcDbLine
 10
146.79139154642172
 20
69.001999999999839
 30
0.0
 11
146.79139154642172
 21
-146.00199999999984
 31
0.0
  0
LINE
  5
22C
100
AcDbEntity
  8
一般
370
               5
390
0
 62
               7
100
AcDbLine
 10
149.99151154642195
 20
66.001920000000041
 30
0.0
 11
149.99151154642195
 21
-146.00199999999984
 31
0.0
  0
LINE
  5
22D
100
AcDbEntity
  8
一般
370
               5
390
0
 62
               7
100
AcDbLine
 10
76.790191546421823
 20
34.001319999999907
 30
0.0
 11
76.790191546421823
 21
69.001999999999839
 31
0.0
  0
LINE
  5
22E
100
AcDbEntity
  8
一般
370
               5
390
0
 62
               7
100
AcDbLine
 10
139.79131154642192
 20
27.00120000000004
 30
0.0
 11
83.790311546421705
 21
27.00120000000004
 31
0.0
  0
LINE
  5
22F
100
AcDbEntity
  8
一般
370
               5
390
0
 62
               7
100
AcDbLine
 10
146.79139154642172
 20
68.001920000000041
 30
0.0
 11
76.790191546421823
 21
68.001920000000041
 31
0.0
  0
LINE
  5
230
100
AcDbEntity
  8
一般
370
               5
390
0
 62
               7
100
AcDbLine
 10
32.614791546421742
 20
65.506800000000112
 30
0.0
 11
46.789591546421704
 21
66.001920000000041
 31
0.0
  0
ARC
  5
231
100
AcDbEntity
  8
一般
370
               5
390
0
 62
               7
100
AcDbCircle
 10
32.789391546421662
 20
60.509919999999852
 30
0.0
 40
5.0000494157559334
100
AcDbArc
 50
92.001155683126328
 51
180.00045836256794
  0
LINE
  5
232
100
AcDbEntity
  8
一般
370
               5
390
0
 62
               7
100
AcDbLine
 10
32.614791546421742
 20
-145.50687999999991
 30
0.0
 11
48.789711546421586
 21
-146.07179999999994
 31
0.0
  0
ARC
  5
233
100
AcDbEntity
  8
一般
370
               5
390
0
 62
               7
100
AcDbCircle
 10
32.789391546421662
 20
-140.50987999999995
 30
0.0
 40
5.000079999999798
100
AcDbArc
 50
180.0
 51
267.99931840120996
  0
CIRCLE
  5
234
100
AcDbEntity
  8
一般
370
               5
390
0
 62
               7
100
AcDbCircle
 10
111.79079154642196
 20
48.001599999999939
 30
0.0
 40
10.500200000000035
  0
LINE
  5
235
100
AcDbEntity
  8
一般
370
               5
390
0
 62
               7
100
AcDbLine
 10
76.790191546421823
 20
34.001319999999907
 30
0.0
 11
76.790191546421823
 21
32.001319999999907
 31
0.0
  0
LINE
  5
236
100
AcDbEntity
  8
一般
370
               5
390
0
 62
               7
100
AcDbLine
 10
25.28919154642162
 20
9.5011199999999008
 30
0.0
 11
23.78919154642162
 21
8.954219999999907
 31
0.0
  0
LINE
  5
237
100
AcDbEntity
  8
一般
370
               5
390
0
 62
               7
100
AcDbLine
 10
25.28919154642162
 20
-15.499480000000062
 30
0.0
 11
23.78919154642162
 21
-14.633380000000002
 31
0.0
  0
LINE
  5
238
100
AcDbEntity
  8
一般
370
               5
390
0
 62
               7
100
AcDbLine
 10
-29.211808453578215
 20
6.0009999999999764
 30
0.0
 11
-28.211808453578215
 21
7.0009999999999764
 31
0.0
  0
LINE
  5
239
100
AcDbEntity
  8
一般
370
               5
390
0
 62
               7
100
AcDbLine
 10
-29.211808453578215
 20
-11.999279999999999
 30
0.0
 11
-28.211808453578215
 21
-12.999400000000094
 31
0.0
  0
ARC
  5
23A
100
AcDbEntity
  8
一般
370
               5
390
0
 62
               7
100
AcDbCircle
 10
-662.1232884535782
 20
-40.0
 30
0.0
 40
934.11688000000004
100
AcDbArc
 50
0.0
 51
4.8129257402790699
  0
ARC
  5
23B
100
AcDbEntity
  8
一般
370
               5
390
0
 62
               7
100
AcDbCircle
 10
-662.1232884535782
 20
-40.0
 30
0.0
 40
934.11694679158893
100
AcDbArc
 50
355.1870671311064
 51
0.0
  0
ARC
  5
23C
100
AcDbEntity
  8
一般
370
               5
390
0
 62
               7
100
AcDbCircle
 10
-659.1232884535782
 20
-40.0
 30
0.0
 40
934.116983494735
100
AcDbArc
 50
354.77331557802449
 51
0.0
  0
ARC
  5
23D
100
AcDbEntity
  8
一般
370
               5
390
0
 62
               7
100
AcDbCircle
 10
-662.1232884535782
 20
-40.0
 30
0.0
 40
934.11694679158893
100
AcDbArc
 50
355.1870671311064
 51
0.0
  0
ARC
  5
23E
100
AcDbEntity
  8
一般
370
               5
390
0
 62
               7
100
AcDbCircle
 10
-662.1232884535782
 20
-40.0
 30
0.0
 40
934.11688000000004
100
AcDbArc
 50
0.0
 51
4.8129257402790699
  0
ARC
  5
23F
100
AcDbEntity
  8
一般
370
               5
390
0
 62
               7
100
AcDbCircle
 10
83.790311546421705
 20
34.001319999999907
 30
0.0
 40
7.0001199999998818
100
AcDbArc
 50
180.0
 51
270.0
  0
ARC
  5
240
100
AcDbEntity
  8
一般
370
               5
390
0
 62
               7
100
AcDbCircle
 10
139.79131154642192
 20
34.001319999999907
 30
0.0
 40
7.0001199999998676
100
AcDbArc
 50
270.0
 51
359.99967260115761
  0
LINE
  5
241
100
AcDbEntity
  8
一般
370
               5
390
0
  6
STYLE_09
 62
               7
100
AcDbLine
 10
135.16971154642187
 20
-40.0
 30
0.0
 11
278.74211154642171
 21
-40.0
 31
0.0
  0
LINE
  5
242
100
AcDbEntity
  8
一般
370
               5
390
0
  6
STYLE_13
 62
               7
100
AcDbLine
 10
262.26819154642169
 20
-13.385479999999916
 30
0.0
 11
328.68499154642188
 21
-13.385479999999916
 31
0.0
  0
LINE
  5
243
100
AcDbEntity
  8
一般
370
               5
390
0
  6
STYLE_13
 62
               7
100
AcDbLine
 10
26.415191546421823
 20
-40.0
 30
0.0
 11
53.320391546421796
 21
-40.0
 31
0.0
  0
LINE
  5
244
100
AcDbEntity
  8
一般
370
               5
390
0
  6
STYLE_06
 62
               7
100
AcDbLine
 10
-38.08428845357821
 20
-2.9992000000000303
 30
0.0
 11
66.118911546421714
 21
-2.9992000000000303
 31
0.0
  0
LINE
  5
245
100
AcDbEntity
  8
一般
370
               5
390
0
  6
STYLE_13
 62
               7
100
AcDbLine
 10
25.501191546421882
 20
56.001719999999978
 30
0.0
 11
51.504191546421765
 21
56.001719999999978
 31
0.0
  0
LINE
  5
246
100
AcDbEntity
  8
一般
370
               5
390
0
  6
STYLE_13
 62
               7
100
AcDbLine
 10
83.790311546421705
 20
80.04511999999994
 30
0.0
 11
83.790311546421705
 21
61.101200000000063
 31
0.0
  0
LINE
  5
247
100
AcDbEntity
  8
一般
370
               5
390
0
  6
STYLE_13
 62
               7
100
AcDbLine
 10
139.79131154642192
 20
80.784919999999829
 30
0.0
 11
139.79131154642192
 21
63.066399999999874
 31
0.0
  0
LINE
  5
248
100
AcDbEntity
  8
一般
370
               5
390
0
  6
STYLE_13
 62
               7
100
AcDbLine
 10
174.57779154642185
 20
56.001719999999978
 30
0.0
 11
134.15831154642174
 21
56.001719999999978
 31
0.0
  0
LINE
  5
249
100
AcDbEntity
  8
一般
370
               5
390
0
  6
STYLE_13
 62
               7
100
AcDbLine
 10
174.39551154642206
 20
-136.0018
 30
0.0
 11
131.15911154642191
 21
-136.0018
 31
0.0
  0
LINE
  5
24A
100
AcDbEntity
  8
一般
370
               5
390
0
  6
STYLE_13
 62
               7
100
AcDbLine
 10
26.430791546422093
 20
-136.0018
 30
0.0
 11
53.496711546421913
 21
-136.0018
 31
0.0
  0
LINE
  5
24B
100
AcDbEntity
  8
一般
370
               5
390
0
 62
               7
100
AcDbLine
 10
31.689311546421862
 20
-131.00167999999996
 30
0.0
 11
37.289391546421662
 21
-131.00167999999996
 31
0.0
  0
LINE
  5
24C
100
AcDbEntity
  8
一般
370
               5
390
0
 62
               7
100
AcDbLine
 10
37.289391546421662
 20
-129.90167999999994
 30
0.0
 11
37.289391546421662
 21
-142.10188000000005
 31
0.0
  0
LINE
  5
24D
100
AcDbEntity
  8
一般
370
               5
390
0
 62
               7
100
AcDbLine
 10
37.289391546421662
 20
-142.10188000000005
 30
0.0
 11
38.789511546421906
 21
-142.10188000000005
 31
0.0
  0
LINE
  5
24E
100
AcDbEntity
  8
一般
370
               5
390
0
 62
               7
100
AcDbLine
 10
31.689311546421862
 20
-141.00188000000003
 30
0.0
 11
37.289391546421662
 21
-141.00188000000003
 31
0.0
  0
LINE
  5
24F
100
AcDbEntity
  8
一般
370
               5
390
0
 62
               7
100
AcDbLine
 10
31.289311546421864
 20
-131.69460000000004
 30
0.0
 11
31.289311546421864
 21
-140.30900000000008
 31
0.0
  0
LINE
  5
250
100
AcDbEntity
  8
一般
370
               5
390
0
 62
               7
100
AcDbLine
 10
31.689311546421862
 20
-131.00167999999996
 30
0.0
 11
31.689311546421862
 21
-141.00188000000003
 31
0.0
  0
LINE
  5
251
100
AcDbEntity
  8
一般
370
               5
390
0
 62
               7
100
AcDbLine
 10
31.689311546421862
 20
-141.00188000000003
 30
0.0
 11
31.289311546421864
 21
-140.30907999999999
 31
0.0
  0
LINE
  5
252
100
AcDbEntity
  8
一般
370
               5
390
0
 62
               7
100
AcDbLine
 10
31.689311546421862
 20
-131.0018
 30
0.0
 11
31.289311546421864
 21
-131.69460000000004
 31
0.0
  0
LINE
  5
253
100
AcDbEntity
  8
一般
370
               5
390
0
 62
               7
100
AcDbLine
 10
37.289311546421864
 20
-129.90167999999994
 30
0.0
 11
38.459711546422014
 21
-129.90167999999994
 31
0.0
  0
LINE
  5
254
100
AcDbEntity
  8
一般
370
               5
390
0
 62
               7
100
AcDbLine
 10
31.689311546421862
 20
61.001800000000003
 30
0.0
 11
37.289391546421662
 21
61.001800000000003
 31
0.0
  0
LINE
  5
255
100
AcDbEntity
  8
一般
370
               5
390
0
 62
               7
100
AcDbLine
 10
31.289311546421864
 20
60.308920000000001
 30
0.0
 11
31.289311546421864
 21
51.694520000000011
 31
0.0
  0
LINE
  5
256
100
AcDbEntity
  8
一般
370
               5
390
0
 62
               7
100
AcDbLine
 10
31.689311546421862
 20
61.001800000000003
 30
0.0
 11
31.689311546421862
 21
51.001599999999939
 31
0.0
  0
LINE
  5
257
100
AcDbEntity
  8
一般
370
               5
390
0
 62
               7
100
AcDbLine
 10
31.689311546421862
 20
61.001719999999978
 30
0.0
 11
31.289311546421864
 21
60.308920000000001
 31
0.0
  0
LINE
  5
258
100
AcDbEntity
  8
一般
370
               5
390
0
 62
               7
100
AcDbLine
 10
31.689311546421862
 20
51.001599999999939
 30
0.0
 11
37.289391546421662
 21
51.001599999999939
 31
0.0
  0
LINE
  5
259
100
AcDbEntity
  8
一般
370
               5
390
0
 62
               7
100
AcDbLine
 10
31.689311546421862
 20
51.001599999999939
 30
0.0
 11
31.289311546421864
 21
51.694399999999916
 31
0.0
  0
LINE
  5
25A
100
AcDbEntity
  8
一般
370
               5
390
0
 62
               7
100
AcDbLine
 10
37.289391546421662
 20
62.101799999999969
 30
0.0
 11
38.789511546421906
 21
62.101799999999969
 31
0.0
  0
LINE
  5
25B
100
AcDbEntity
  8
一般
370
               5
390
0
 62
               7
100
AcDbLine
 10
37.289391546421662
 20
62.101799999999969
 30
0.0
 11
37.289391546421662
 21
49.901599999999917
 31
0.0
  0
LINE
  5
25C
100
AcDbEntity
  8
一般
370
               5
390
0
 62
               7
100
AcDbLine
 10
164.99179154642178
 20
62.192999999999984
 30
0.0
 11
166.39699154642176
 21
62.192999999999984
 31
0.0
  0
LINE
  5
25D
100
AcDbEntity
  8
一般
370
               5
390
0
 62
               7
100
AcDbLine
 10
166.39699154642176
 20
62.192999999999984
 30
0.0
 11
166.39699154642176
 21
49.992799999999988
 31
0.0
  0
LINE
  5
25E
100
AcDbEntity
  8
一般
370
               5
390
0
 62
               7
100
AcDbLine
 10
166.39699154642176
 20
61.093000000000018
 30
0.0
 11
171.99711154642165
 21
61.093000000000018
 31
0.0
  0
LINE
  5
25F
100
AcDbEntity
  8
一般
370
               5
390
0
 62
               7
100
AcDbLine
 10
171.99711154642165
 20
61.093000000000018
 30
0.0
 11
171.99711154642165
 21
51.092799999999954
 31
0.0
  0
LINE
  5
260
100
AcDbEntity
  8
一般
370
               5
390
0
 62
               7
100
AcDbLine
 10
172.39711154642166
 20
60.400120000000015
 30
0.0
 11
172.39711154642166
 21
51.785720000000026
 31
0.0
  0
LINE
  5
261
100
AcDbEntity
  8
一般
370
               5
390
0
 62
               7
100
AcDbLine
 10
171.99711154642165
 20
61.092799999999954
 30
0.0
 11
172.39711154642166
 21
60.400120000000015
 31
0.0
  0
LINE
  5
262
100
AcDbEntity
  8
一般
370
               5
390
0
 62
               7
100
AcDbLine
 10
171.99711154642165
 20
51.092799999999954
 30
0.0
 11
172.39711154642166
 21
51.785519999999963
 31
0.0
  0
LINE
  5
263
100
AcDbEntity
  8
一般
370
               5
390
0
 62
               7
100
AcDbLine
 10
166.39699154642176
 20
51.092799999999954
 30
0.0
 11
171.99711154642165
 21
51.092799999999954
 31
0.0
  0
LINE
  5
264
100
AcDbEntity
  8
一般
370
               5
390
0
 62
               7
100
AcDbLine
 10
164.89699154642176
 20
49.992799999999988
 30
0.0
 11
166.39699154642176
 21
49.992799999999988
 31
0.0
  0
LINE
  5
265
100
AcDbEntity
  8
一般
370
               5
390
0
 62
               7
100
AcDbLine
 10
166.49179154642178
 20
-131.00167999999996
 30
0.0
 11
172.09191154642204
 21
-131.00167999999996
 31
0.0
  0
LINE
  5
266
100
AcDbEntity
  8
一般
370
               5
390
0
 62
               7
100
AcDbLine
 10
172.49191154642205
 20
-131.69460000000004
 30
0.0
 11
172.49191154642205
 21
-140.30900000000008
 31
0.0
  0
LINE
  5
267
100
AcDbEntity
  8
一般
370
               5
390
0
 62
               7
100
AcDbLine
 10
172.09191154642204
 20
-131.00167999999996
 30
0.0
 11
172.09191154642204
 21
-141.00188000000003
 31
0.0
  0
LINE
  5
268
100
AcDbEntity
  8
一般
370
               5
390
0
 62
               7
100
AcDbLine
 10
166.49179154642178
 20
-129.90167999999994
 30
0.0
 11
166.49179154642178
 21
-142.10188000000005
 31
0.0
  0
LINE
  5
269
100
AcDbEntity
  8
一般
370
               5
390
0
 62
               7
100
AcDbLine
 10
164.99179154642178
 20
-129.90167999999994
 30
0.0
 11
166.49179154642178
 21
-129.90167999999994
 31
0.0
  0
LINE
  5
26A
100
AcDbEntity
  8
一般
370
               5
390
0
 62
               7
100
AcDbLine
 10
164.99179154642178
 20
-142.10188000000005
 30
0.0
 11
166.49179154642178
 21
-142.10188000000005
 31
0.0
  0
LINE
  5
26B
100
AcDbEntity
  8
一般
370
               5
390
0
 62
               7
100
AcDbLine
 10
166.49179154642178
 20
-141.00188000000003
 30
0.0
 11
172.09191154642204
 21
-141.00188000000003
 31
0.0
  0
LINE
  5
26C
100
AcDbEntity
  8
一般
370
               5
390
0
 62
               7
100
AcDbLine
 10
172.09191154642204
 20
-141.00188000000003
 30
0.0
 11
172.49191154642205
 21
-140.30907999999999
 31
0.0
  0
LINE
  5
26D
100
AcDbEntity
  8
一般
370
               5
390
0
 62
               7
100
AcDbLine
 10
172.09191154642204
 20
-131.0018
 30
0.0
 11
172.49191154642205
 21
-131.69460000000004
 31
0.0
  0
LINE
  5
26E
100
AcDbEntity
  8
一般
370
               5
390
0
 62
               7
100
AcDbLine
 10
164.99179154642178
 20
-136.0018
 30
0.0
 11
166.49179154642178
 21
-135.13580000000002
 31
0.0
  0
LINE
  5
26F
100
AcDbEntity
  8
一般
370
               5
390
0
 62
               7
100
AcDbLine
 10
164.99179154642178
 20
-136.5018
 30
0.0
 11
166.49179154642178
 21
-135.63580000000002
 31
0.0
  0
LINE
  5
270
100
AcDbEntity
  8
一般
370
               5
390
0
 62
               7
100
AcDbLine
 10
164.99179154642178
 20
56.147400000000005
 30
0.0
 11
166.39699154642176
 21
56.958920000000035
 31
0.0
  0
LINE
  5
271
100
AcDbEntity
  8
一般
370
               5
390
0
 62
               7
100
AcDbLine
 10
164.99179154642178
 20
63.792200000000037
 30
0.0
 11
164.99179154642178
 21
49.001599999999939
 31
0.0
  0
LINE
  5
272
100
AcDbEntity
  8
一般
370
               5
390
0
 62
               7
100
AcDbLine
 10
164.99179154642178
 20
55.647400000000005
 30
0.0
 11
166.39699154642176
 21
56.458920000000035
 31
0.0
  0
LINE
  5
273
100
AcDbEntity
  8
一般
370
               5
390
0
 62
               7
100
AcDbLine
 10
37.289391546421662
 20
56.001719999999978
 30
0.0
 11
38.795711546422076
 21
56.916320000000042
 31
0.0
  0
LINE
  5
274
100
AcDbEntity
  8
一般
370
               5
390
0
 62
               7
100
AcDbLine
 10
38.789511546421906
 20
56.362599999999986
 30
0.0
 11
37.289391546421662
 21
55.472719999999924
 31
0.0
  0
LINE
  5
275
100
AcDbEntity
  8
一般
370
               5
390
0
 62
               7
100
AcDbLine
 10
37.289391546421662
 20
-136.0018
 30
0.0
 11
38.795711546422076
 21
-135.08720000000017
 31
0.0
  0
LINE
  5
276
100
AcDbEntity
  8
一般
370
               5
390
0
 62
               7
100
AcDbLine
 10
38.789511546421906
 20
-135.64087999999992
 30
0.0
 11
37.289391546421662
 21
-136.53079999999989
 31
0.0
  0
LINE
  5
277
100
AcDbEntity
  8
一般
370
               5
390
0
 62
               7
100
AcDbLine
 10
80.290191546421823
 20
75.780999999999949
 30
0.0
 11
80.290191546421823
 21
74.802120000000059
 31
0.0
  0
ARC
  5
278
100
AcDbEntity
  8
一般
370
               5
390
0
 62
               7
100
AcDbCircle
 10
83.790311546421705
 20
68.401999999999816
 30
0.0
 40
9.0000974659613693
100
AcDbArc
 50
73.398293750245372
 51
106.60195027947344
  0
ARC
  5
279
100
AcDbEntity
  8
一般
370
               5
390
0
 62
               7
100
AcDbCircle
 10
81.590311546421702
 20
75.780999999999949
 30
0.0
 40
1.3000172115783601
100
AcDbArc
 50
106.60552829750458
 51
180.0
  0
LINE
  5
27A
100
AcDbEntity
  8
一般
370
               5
390
0
 62
               7
100
AcDbLine
 10
84.048111546421836
 20
76.870519999999829
 30
0.0
 11
83.445191546422123
 21
76.870519999999829
 31
0.0
  0
LINE
  5
27B
100
AcDbEntity
  8
一般
370
               5
390
0
 62
               7
100
AcDbLine
 10
83.532311546421525
 20
76.870519999999829
 30
0.0
 11
84.135191546421538
 21
76.870519999999829
 31
0.0
  0
LINE
  5
27C
100
AcDbEntity
  8
一般
370
               5
390
0
 62
               7
100
AcDbLine
 10
83.328511546421851
 20
77.180919999999958
 30
0.0
 11
83.532311546421525
 21
76.870519999999829
 31
0.0
  0
LINE
  5
27D
100
AcDbEntity
  8
一般
370
               5
390
0
 62
               7
100
AcDbLine
 10
81.740111546421673
 20
77.16560000000004
 30
0.0
 11
83.328511546421851
 21
77.180919999999958
 31
0.0
  0
LINE
  5
27E
100
AcDbEntity
  8
一般
370
               5
390
0
 62
               7
100
AcDbLine
 10
79.790191546421823
 20
74.802120000000059
 30
0.0
 11
79.790191546421823
 21
74.002120000000104
 31
0.0
  0
LINE
  5
27F
100
AcDbEntity
  8
一般
370
               5
390
0
 62
               7
100
AcDbLine
 10
79.790191546421823
 20
74.802120000000059
 30
0.0
 11
79.790191546421823
 21
74.002120000000104
 31
0.0
  0
LINE
  5
280
100
AcDbEntity
  8
一般
370
               5
390
0
 62
               7
100
AcDbLine
 10
79.790191546421823
 20
74.802120000000059
 30
0.0
 11
79.790191546421823
 21
74.002120000000104
 31
0.0
  0
LINE
  5
281
100
AcDbEntity
  8
一般
370
               5
390
0
 62
               7
100
AcDbLine
 10
79.790191546421823
 20
74.802120000000059
 30
0.0
 11
79.790191546421823
 21
74.013199999999927
 31
0.0
  0
LINE
  5
282
100
AcDbEntity
  8
一般
370
               5
390
0
 62
               7
100
AcDbLine
 10
79.790191546421823
 20
74.802120000000059
 30
0.0
 11
79.790191546421823
 21
74.022319999999809
 31
0.0
  0
LINE
  5
283
100
AcDbEntity
  8
一般
370
               5
390
0
 62
               7
100
AcDbLine
 10
79.790191546421823
 20
74.802120000000059
 30
0.0
 11
87.790391546421873
 21
74.802120000000059
 31
0.0
  0
LINE
  5
284
100
AcDbEntity
  8
一般
370
               5
390
0
 62
               7
100
AcDbLine
 10
87.290391546421873
 20
75.780999999999949
 30
0.0
 11
87.290391546421873
 21
74.802120000000059
 31
0.0
  0
ARC
  5
285
100
AcDbEntity
  8
一般
370
               5
390
0
 62
               7
100
AcDbCircle
 10
85.990311546421708
 20
75.780999999999949
 30
0.0
 40
1.2998800000001154
100
AcDbArc
 50
0.0
 51
73.398028884530504
  0
LINE
  5
286
100
AcDbEntity
  8
一般
370
               5
390
0
 62
               7
100
AcDbLine
 10
85.840311546421702
 20
77.150519999999915
 30
0.0
 11
84.251991546422047
 21
77.180919999999958
 31
0.0
  0
LINE
  5
287
100
AcDbEntity
  8
一般
370
               5
390
0
 62
               7
100
AcDbLine
 10
87.790391546421873
 20
74.802120000000059
 30
0.0
 11
87.790391546421873
 21
74.002120000000104
 31
0.0
  0
LINE
  5
288
100
AcDbEntity
  8
一般
370
               5
390
0
 62
               7
100
AcDbLine
 10
87.790391546421873
 20
74.802120000000059
 30
0.0
 11
87.790391546421873
 21
74.002120000000104
 31
0.0
  0
LINE
  5
289
100
AcDbEntity
  8
一般
370
               5
390
0
 62
               7
100
AcDbLine
 10
87.790391546421873
 20
74.802120000000059
 30
0.0
 11
87.790391546421873
 21
74.002120000000104
 31
0.0
  0
LINE
  5
28A
100
AcDbEntity
  8
一般
370
               5
390
0
 62
               7
100
AcDbLine
 10
87.790391546421873
 20
74.800799999999981
 30
0.0
 11
87.790391546421873
 21
74.08752000000004
 31
0.0
  0
LINE
  5
28B
100
AcDbEntity
  8
一般
370
               5
390
0
 62
               7
100
AcDbLine
 10
87.790391546421873
 20
74.807520000000068
 30
0.0
 11
87.790391546421873
 21
74.022319999999809
 31
0.0
  0
LINE
  5
28C
100
AcDbEntity
  8
一般
370
               5
390
0
 62
               7
100
AcDbLine
 10
84.251991546422047
 20
77.180919999999958
 30
0.0
 11
84.048111546421836
 21
76.870519999999829
 31
0.0
  0
ARC
  5
28D
100
AcDbEntity
  8
一般
370
               5
390
0
 62
               7
100
AcDbCircle
 10
137.59131154642191
 20
75.780999999999949
 30
0.0
 40
1.3000172115783601
100
AcDbArc
 50
106.60552829750458
 51
180.0
  0
LINE
  5
28E
100
AcDbEntity
  8
一般
370
               5
390
0
 62
               7
100
AcDbLine
 10
136.29119154642203
 20
75.780999999999949
 30
0.0
 11
136.29119154642203
 21
74.802120000000059
 31
0.0
  0
ARC
  5
28F
100
AcDbEntity
  8
一般
370
               5
390
0
 62
               7
100
AcDbCircle
 10
139.79131154642192
 20
68.401999999999816
 30
0.0
 40
9.0000974659612627
100
AcDbArc
 50
73.398293750247618
 51
106.60195027947377
  0
LINE
  5
290
100
AcDbEntity
  8
一般
370
               5
390
0
 62
               7
100
AcDbLine
 10
137.74111154642188
 20
77.16560000000004
 30
0.0
 11
139.32951154642168
 21
77.180919999999958
 31
0.0
  0
LINE
  5
291
100
AcDbEntity
  8
一般
370
               5
390
0
 62
               7
100
AcDbLine
 10
139.32951154642168
 20
77.180919999999958
 30
0.0
 11
139.53339154642191
 21
76.870519999999829
 31
0.0
  0
LINE
  5
292
100
AcDbEntity
  8
一般
370
               5
390
0
 62
               7
100
AcDbLine
 10
139.53339154642191
 20
76.870519999999829
 30
0.0
 11
140.13619154642174
 21
76.870519999999829
 31
0.0
  0
LINE
  5
293
100
AcDbEntity
  8
一般
370
               5
390
0
 62
               7
100
AcDbLine
 10
135.79119154642203
 20
74.802120000000059
 30
0.0
 11
143.79139154642169
 21
74.802120000000059
 31
0.0
  0
LINE
  5
294
100
AcDbEntity
  8
一般
370
               5
390
0
 62
               7
100
AcDbLine
 10
135.79119154642203
 20
74.802120000000059
 30
0.0
 11
135.79119154642203
 21
74.002120000000104
 31
0.0
  0
LINE
  5
295
100
AcDbEntity
  8
一般
370
               5
390
0
 62
               7
100
AcDbLine
 10
140.25299154642153
 20
77.180919999999958
 30
0.0
 11
140.04911154642204
 21
76.870519999999829
 31
0.0
  0
LINE
  5
296
100
AcDbEntity
  8
一般
370
               5
390
0
 62
               7
100
AcDbLine
 10
141.8413915464217
 20
77.150519999999915
 30
0.0
 11
140.25299154642153
 21
77.180919999999958
 31
0.0
  0
ARC
  5
297
100
AcDbEntity
  8
一般
370
               5
390
0
 62
               7
100
AcDbCircle
 10
141.99131154642191
 20
75.780999999999949
 30
0.0
 40
1.2998800000001154
100
AcDbArc
 50
0.0
 51
73.394649691378504
  0
LINE
  5
298
100
AcDbEntity
  8
一般
370
               5
390
0
 62
               7
100
AcDbLine
 10
143.29139154642169
 20
75.780999999999949
 30
0.0
 11
143.29139154642169
 21
74.802120000000059
 31
0.0
  0
LINE
  5
299
100
AcDbEntity
  8
一般
370
               5
390
0
 62
               7
100
AcDbLine
 10
143.79139154642169
 20
74.719720000000052
 30
0.0
 11
143.79139154642169
 21
73.934519999999964
 31
0.0
  0
LINE
  5
29A
100
AcDbEntity
  8
一般
370
               5
390
0
  6
STYLE_11
 62
               7
100
AcDbLine
 10
60.289911546421621
 20
-129.00167999999996
 30
0.0
 11
60.289911546421621
 21
-148.00199999999984
 31
0.0
  0
LINE
  5
29B
100
AcDbEntity
  8
一般
370
               5
390
0
  6
STYLE_11
 62
               7
100
AcDbLine
 10
73.290111546421656
 20
-129.00167999999996
 30
0.0
 11
73.290111546421656
 21
-148.00199999999984
 31
0.0
  0
LINE
  5
29C
100
AcDbEntity
  8
一般
370
               5
390
0
  6
STYLE_11
 62
               7
100
AcDbLine
 10
120.29099154642199
 20
-129.00167999999996
 30
0.0
 11
120.29099154642199
 21
-148.00199999999984
 31
0.0
  0
LINE
  5
29D
100
AcDbEntity
  8
一般
370
               5
390
0
  6
STYLE_11
 62
               7
100
AcDbLine
 10
133.29119154642203
 20
-129.00167999999996
 30
0.0
 11
133.29119154642203
 21
-148.00199999999984
 31
0.0
  0
LINE
  5
29E
100
AcDbEntity
  8
一般
370
               5
390
0
 62
               7
100
AcDbLine
 10
46.789591546421704
 20
66.001920000000041
 30
0.0
 11
46.789591546421704
 21
-146.00199999999984
 31
0.0
  0
ARC
  5
29F
100
AcDbEntity
  8
一般
370
               5
390
0
 62
               7
100
AcDbCircle
 10
29.289311546421864
 20
-48.500200000000063
 30
0.0
 40
1.5
100
AcDbArc
 50
90.0
 51
180.0
  0
LINE
  5
2A0
100
AcDbEntity
  8
一般
370
               5
390
0
 62
               7
100
AcDbLine
 10
31.689311546421862
 20
-34.999879999999962
 30
0.0
 11
37.289391546421662
 21
-34.999879999999962
 31
0.0
  0
LINE
  5
2A1
100
AcDbEntity
  8
一般
370
               5
390
0
 62
               7
100
AcDbLine
 10
37.289391546421662
 20
-33.899879999999939
 30
0.0
 11
37.289391546421662
 21
-46.100079999999991
 31
0.0
  0
LINE
  5
2A2
100
AcDbEntity
  8
一般
370
               5
390
0
 62
               7
100
AcDbLine
 10
37.289311546421864
 20
-33.899879999999939
 30
0.0
 11
38.459711546422014
 21
-33.899879999999939
 31
0.0
  0
LINE
  5
2A3
100
AcDbEntity
  8
一般
370
               5
390
0
 62
               7
100
AcDbLine
 10
31.689311546421862
 20
-35.000080000000025
 30
0.0
 11
31.289311546421864
 21
-35.692800000000034
 31
0.0
  0
LINE
  5
2A4
100
AcDbEntity
  8
一般
370
               5
390
0
 62
               7
100
AcDbLine
 10
31.689311546421862
 20
-34.999879999999962
 30
0.0
 11
31.689311546421862
 21
-45.000080000000025
 31
0.0
  0
LINE
  5
2A5
100
AcDbEntity
  8
一般
370
               5
390
0
 62
               7
100
AcDbLine
 10
31.289311546421864
 20
-35.692800000000034
 30
0.0
 11
31.289311546421864
 21
-44.307200000000023
 31
0.0
  0
LINE
  5
2A6
100
AcDbEntity
  8
一般
370
               5
390
0
 62
               7
100
AcDbLine
 10
31.689311546421862
 20
-45.000080000000025
 30
0.0
 11
31.289311546421864
 21
-44.307399999999916
 31
0.0
  0
LINE
  5
2A7
100
AcDbEntity
  8
一般
370
               5
390
0
 62
               7
100
AcDbLine
 10
31.689311546421862
 20
-45.000080000000025
 30
0.0
 11
37.289391546421662
 21
-45.000080000000025
 31
0.0
  0
LINE
  5
2A8
100
AcDbEntity
  8
一般
370
               5
390
0
 62
               7
100
AcDbLine
 10
37.289311546421864
 20
-46.100079999999991
 30
0.0
 11
38.459711546422014
 21
-46.100079999999991
 31
0.0
  0
ARC
  5
2A9
100
AcDbEntity
  8
一般
370
               5
390
0
 62
               7
100
AcDbCircle
 10
29.289311546421864
 20
-31.499879999999962
 30
0.0
 40
1.5
100
AcDbArc
 50
180.0
 51
270.0
  0
LINE
  5
2AA
100
AcDbEntity
  8
一般
370
               5
390
0
 62
               7
100
AcDbLine
 10
38.789511546421906
 20
50.932919999999967
 30
0.0
 11
38.789511546421906
 21
64.273919999999976
 31
0.0
  0
LINE
  5
2AB
100
AcDbEntity
  8
一般
370
               5
390
0
 62
               7
100
AcDbLine
 10
36.859191546422053
 20
48.934199999999862
 30
0.0
 11
30.684511546421977
 21
48.718599999999924
 31
0.0
  0
LINE
  5
2AC
100
AcDbEntity
  8
一般
370
               5
390
0
 62
               7
100
AcDbLine
 10
36.789391546421662
 20
-32.999879999999962
 30
0.0
 11
29.289311546421864
 21
-32.999879999999962
 31
0.0
  0
LINE
  5
2AD
100
AcDbEntity
  8
一般
370
               5
390
0
 62
               7
100
AcDbLine
 10
38.789511546421906
 20
-34.999879999999962
 30
0.0
 11
38.789511546421906
 21
-45.000080000000025
 31
0.0
  0
LINE
  5
2AE
100
AcDbEntity
  8
一般
370
               5
390
0
 62
               7
100
AcDbLine
 10
36.789391546421662
 20
-47.000200000000063
 30
0.0
 11
29.289311546421864
 21
-47.000200000000063
 31
0.0
  0
LINE
  5
2AF
100
AcDbEntity
  8
一般
370
               5
390
0
 62
               7
100
AcDbLine
 10
38.789511546421906
 20
-131.00167999999996
 30
0.0
 11
38.789511546421906
 21
-144.27408000000003
 31
0.0
  0
LINE
  5
2B0
100
AcDbEntity
  8
一般
370
               5
390
0
 62
               7
100
AcDbLine
 10
36.789391546421662
 20
-129.00167999999996
 30
0.0
 11
29.289311546421864
 21
-129.00167999999996
 31
0.0
  0
LINE
  5
2B1
100
AcDbEntity
  8
一般
370
               5
390
0
 62
               7
100
AcDbLine
 10
37.289391546421662
 20
49.901599999999917
 30
0.0
 11
38.502991546421882
 21
49.901599999999917
 31
0.0
  0
LINE
  5
2B2
100
AcDbEntity
  8
一般
370
               5
390
0
 62
               7
100
AcDbLine
 10
-315.05380845357809
 20
28.989599999999882
 30
0.0
 11
-315.05380845357809
 21
67.990319999999883
 31
0.0
  0
LINE
  5
2B3
100
AcDbEntity
  8
一般
370
               5
390
0
 62
               7
100
AcDbLine
 10
-165.05108845357802
 20
28.989599999999882
 30
0.0
 11
-165.05108845357802
 21
67.990319999999883
 31
0.0
  0
CIRCLE
  5
2B4
100
AcDbEntity
  8
一般
370
               5
390
0
 62
               7
100
AcDbCircle
 10
-240.0524084535781
 20
-3.0109999999999104
 30
0.0
 40
10.000119999999811
  0
LINE
  5
2B5
100
AcDbEntity
  8
一般
370
               5
390
0
 62
               7
100
AcDbLine
 10
-315.05380845357809
 20
66.990319999999883
 30
0.0
 11
-165.05108845357802
 21
66.990319999999883
 31
0.0
  0
LINE
  5
2B6
100
AcDbEntity
  8
一般
370
               5
390
0
 62
               7
100
AcDbLine
 10
-167.05108845357802
 20
26.989599999999882
 30
0.0
 11
-167.45708845357814
 21
26.989599999999882
 31
0.0
  0
LINE
  5
2B7
100
AcDbEntity
  8
一般
370
               5
390
0
 62
               7
100
AcDbLine
 10
-313.05380845357809
 20
26.989599999999882
 30
0.0
 11
-312.64780845357791
 21
26.989599999999882
 31
0.0
  0
LINE
  5
2B8
100
AcDbEntity
  8
一般
370
               5
390
0
 62
               7
100
AcDbLine
 10
-168.43708845357807
 20
81.990600000000086
 30
0.0
 11
-311.66780845357835
 21
81.990600000000086
 31
0.0
  0
LINE
  5
2B9
100
AcDbEntity
  8
一般
370
               5
390
0
 62
               7
100
AcDbLine
 10
-166.67420845357822
 20
72.990400000000022
 30
0.0
 11
-177.55128845357805
 21
72.990400000000022
 31
0.0
  0
LINE
  5
2BA
100
AcDbEntity
  8
一般
370
               5
390
0
 62
               7
100
AcDbLine
 10
-302.55360845357836
 20
72.990400000000022
 30
0.0
 11
-313.43068845357823
 21
72.990400000000022
 31
0.0
  0
LINE
  5
2BB
100
AcDbEntity
  8
一般
370
               5
390
0
 62
               7
100
AcDbLine
 10
-301.05360845357836
 20
74.490400000000022
 30
0.0
 11
-301.05360845357836
 21
78.99051999999989
 31
0.0
  0
LINE
  5
2BC
100
AcDbEntity
  8
一般
370
               5
390
0
 62
               7
100
AcDbLine
 10
-179.05128845357805
 20
74.490400000000022
 30
0.0
 11
-179.05128845357805
 21
78.99051999999989
 31
0.0
  0
LINE
  5
2BD
100
AcDbEntity
  8
一般
370
               5
390
0
 62
               7
100
AcDbLine
 10
-165.43888845357807
 20
79.09519999999992
 30
0.0
 11
-165.05108845357802
 21
67.990319999999883
 31
0.0
  0
LINE
  5
2BE
100
AcDbEntity
  8
一般
370
               5
390
0
 62
               7
100
AcDbLine
 10
-314.666008453578
 20
79.09519999999992
 30
0.0
 11
-315.05380845357809
 21
67.990319999999883
 31
0.0
  0
ARC
  5
2BF
100
AcDbEntity
  8
一般
370
               5
390
0
 62
               7
100
AcDbCircle
 10
-311.66780845357835
 20
78.99051999999989
 30
0.0
 40
3.0000800000001959
100
AcDbArc
 50
90.0
 51
178.00039791454176
  0
ARC
  5
2C0
100
AcDbEntity
  8
一般
370
               5
390
0
 62
               7
100
AcDbCircle
 10
-298.0534884535781
 20
78.99051999999989
 30
0.0
 40
3.0000800000001959
100
AcDbArc
 50
90.0
 51
180.0
  0
ARC
  5
2C1
100
AcDbEntity
  8
一般
370
               5
390
0
 62
               7
100
AcDbCircle
 10
-182.05140845357792
 20
78.99051999999989
 30
0.0
 40
3.0001199999998676
100
AcDbArc
 50
0.0
 51
89.999236086835381
  0
ARC
  5
2C2
100
AcDbEntity
  8
一般
370
               5
390
0
 62
               7
100
AcDbCircle
 10
-168.43708845357807
 20
78.99051999999989
 30
0.0
 40
3.000026856946449
100
AcDbArc
 50
1.9996287411672735
 51
90.0
  0
ARC
  5
2C3
100
AcDbEntity
  8
一般
370
               5
390
0
 62
               7
100
AcDbCircle
 10
-177.55128845357805
 20
74.490400000000022
 30
0.0
 40
1.5
100
AcDbArc
 50
180.0
 51
270.0
  0
ARC
  5
2C4
100
AcDbEntity
  8
一般
370
               5
390
0
 62
               7
100
AcDbCircle
 10
-166.67420845357822
 20
71.490400000000022
 30
0.0
 40
1.5000327185765299
100
AcDbArc
 50
1.9988386235689612
 51
89.998472153289725
  0
ARC
  5
2C5
100
AcDbEntity
  8
一般
370
               5
390
0
 62
               7
100
AcDbCircle
 10
-313.43068845357823
 20
71.490400000000022
 30
0.0
 40
1.5
100
AcDbArc
 50
90.0
 51
178.00263505116467
  0
ARC
  5
2C6
100
AcDbEntity
  8
一般
370
               5
390
0
 62
               7
100
AcDbCircle
 10
-302.55360845357836
 20
74.490400000000022
 30
0.0
 40
1.5
100
AcDbArc
 50
270.0
 51
0.0
  0
LINE
  5
2C7
100
AcDbEntity
  8
一般
370
               5
390
0
 62
               7
100
AcDbLine
 10
-187.05148845357809
 20
62.990199999999959
 30
0.0
 11
-187.05148845357809
 21
55.99011999999999
 31
0.0
  0
LINE
  5
2C8
100
AcDbEntity
  8
一般
370
               5
390
0
 62
               7
100
AcDbLine
 10
-172.03148845357839
 20
48.989999999999952
 30
0.0
 11
-180.05140845357792
 21
48.989999999999952
 31
0.0
  0
ARC
  5
2C9
100
AcDbEntity
  8
一般
370
               5
390
0
 62
               7
100
AcDbCircle
 10
-172.03128845357836
 20
45.989919999999984
 30
0.0
 40
3.0000228609798762
100
AcDbArc
 50
5.2993502813652285
 51
90.0
  0
ARC
  5
2CA
100
AcDbEntity
  8
一般
370
               5
390
0
 62
               7
100
AcDbCircle
 10
-190.05148845357809
 20
62.990199999999959
 30
0.0
 40
3.0
100
AcDbArc
 50
0.0
 51
90.0
  0
ARC
  5
2CB
100
AcDbEntity
  8
一般
370
               5
390
0
 62
               7
100
AcDbCircle
 10
-180.05140845357792
 20
55.99011999999999
 30
0.0
 40
7.0000800000001675
100
AcDbArc
 50
180.0
 51
226.18285684624908
  0
ARC
  5
2CC
100
AcDbEntity
  8
一般
370
               5
390
0
 62
               7
100
AcDbCircle
 10
-180.05140845357792
 20
55.99011999999999
 30
0.0
 40
7.0001499890218293
100
AcDbArc
 50
226.1821481423342
 51
270.0
  0
ARC
  5
2CD
100
AcDbEntity
  8
一般
370
               5
390
0
 62
               7
100
AcDbCircle
 10
-290.0534084535783
 20
62.990199999999959
 30
0.0
 40
3.0001199999999244
100
AcDbArc
 50
90.0
 51
180.0
  0
LINE
  5
2CE
100
AcDbEntity
  8
一般
370
               5
390
0
 62
               7
100
AcDbLine
 10
-293.0534084535783
 20
62.990199999999959
 30
0.0
 11
-293.0534084535783
 21
55.99011999999999
 31
0.0
  0
ARC
  5
2CF
100
AcDbEntity
  8
一般
370
               5
390
0
 62
               7
100
AcDbCircle
 10
-300.0534884535781
 20
55.99011999999999
 30
0.0
 40
7.0001499890215149
100
AcDbArc
 50
313.81785185766307
 51
0.0
  0
ARC
  5
2D0
100
AcDbEntity
  8
一般
370
               5
390
0
 62
               7
100
AcDbCircle
 10
-300.0534884535781
 20
55.99011999999999
 30
0.0
 40
7.0001200000000381
100
AcDbArc
 50
270.0
 51
313.8180785381179
  0
LINE
  5
2D1
100
AcDbEntity
  8
一般
370
               5
390
0
 62
               7
100
AcDbLine
 10
-308.07360845357812
 20
48.989999999999952
 30
0.0
 11
-300.05368845357816
 21
48.989999999999952
 31
0.0
  0
ARC
  5
2D2
100
AcDbEntity
  8
一般
370
               5
390
0
 62
               7
100
AcDbCircle
 10
-308.07360845357812
 20
45.989919999999984
 30
0.0
 40
3.0000799999999685
100
AcDbArc
 50
90.0
 51
174.70072027446568
  0
ARC
  5
2D3
100
AcDbEntity
  8
一般
370
               5
390
0
 62
               7
100
AcDbCircle
 10
-190.05148845357809
 20
-143.01347999999996
 30
0.0
 40
3.0001200000001518
100
AcDbArc
 50
270.0
 51
359.9977082604899
  0
LINE
  5
2D4
100
AcDbEntity
  8
一般
370
               5
390
0
 62
               7
100
AcDbLine
 10
-187.05148845357809
 20
-143.01347999999996
 30
0.0
 11
-187.05148845357809
 21
-136.01340000000005
 31
0.0
  0
ARC
  5
2D5
100
AcDbEntity
  8
一般
370
               5
390
0
 62
               7
100
AcDbCircle
 10
-180.05140845357792
 20
-136.01340000000005
 30
0.0
 40
7.0001499890218293
100
AcDbArc
 50
133.81785185766577
 51
180.0
  0
ARC
  5
2D6
100
AcDbEntity
  8
一般
370
               5
390
0
 62
               7
100
AcDbCircle
 10
-180.05140845357792
 20
-136.01340000000005
 30
0.0
 40
7.0001199999999244
100
AcDbArc
 50
90.0
 51
133.81854145149325
  0
LINE
  5
2D7
100
AcDbEntity
  8
一般
370
               5
390
0
 62
               7
100
AcDbLine
 10
-172.03148845357839
 20
-129.01328000000012
 30
0.0
 11
-180.05140845357792
 21
-129.01328000000012
 31
0.0
  0
ARC
  5
2D8
100
AcDbEntity
  8
一般
370
               5
390
0
 62
               7
100
AcDbCircle
 10
-172.03128845357836
 20
-126.01319999999998
 30
0.0
 40
3.0000800000001391
100
AcDbArc
 50
270.0
 51
354.69843829500928
  0
ARC
  5
2D9
100
AcDbEntity
  8
一般
370
               5
390
0
 62
               7
100
AcDbCircle
 10
-300.0534884535781
 20
-136.01340000000005
 30
0.0
 40
7.0001499890215149
100
AcDbArc
 50
46.182148142336921
 51
90.0
  0
ARC
  5
2DA
100
AcDbEntity
  8
一般
370
               5
390
0
 62
               7
100
AcDbCircle
 10
-300.0534884535781
 20
-136.01340000000005
 30
0.0
 40
7.000079999999798
100
AcDbArc
 50
0.0
 51
46.181231864241113
  0
LINE
  5
2DB
100
AcDbEntity
  8
一般
370
               5
390
0
 62
               7
100
AcDbLine
 10
-293.0534084535783
 20
-143.01347999999996
 30
0.0
 11
-293.0534084535783
 21
-136.01340000000005
 31
0.0
  0
ARC
  5
2DC
100
AcDbEntity
  8
一般
370
               5
390
0
 62
               7
100
AcDbCircle
 10
-290.0534084535783
 20
-143.01347999999996
 30
0.0
 40
3.0
100
AcDbArc
 50
180.0
 51
270.0
  0
LINE
  5
2DD
100
AcDbEntity
  8
一般
370
               5
390
0
 62
               7
100
AcDbLine
 10
-308.07360845357812
 20
-129.01328000000012
 30
0.0
 11
-300.05368845357816
 21
-129.01328000000012
 31
0.0
  0
ARC
  5
2DE
100
AcDbEntity
  8
一般
370
               5
390
0
 62
               7
100
AcDbCircle
 10
-308.07360845357812
 20
-126.01319999999998
 30
0.0
 40
3.0000339464748724
100
AcDbArc
 50
185.30163229085665
 51
270.0
  0
ARC
  5
2DF
100
AcDbEntity
  8
一般
370
               5
390
0
 62
               7
100
AcDbCircle
 10
-175.05128845357805
 20
-40.011680000000013
 30
0.0
 40
7.000199999999893
100
AcDbArc
 50
90.0
 51
270.0
  0
ARC
  5
2E0
100
AcDbEntity
  8
一般
370
               5
390
0
 62
               7
100
AcDbCircle
 10
-305.05360845357836
 20
-40.011680000000013
 30
0.0
 40
7.0001200000000381
100
AcDbArc
 50
270.0
 51
89.999672601154373
  0
LINE
  5
2E1
100
AcDbEntity
  8
一般
370
               5
390
0
 62
               7
100
AcDbLine
 10
-168.10488845357807
 20
-47.011800000000051
 30
0.0
 11
-175.05128845357805
 21
-47.011800000000051
 31
0.0
  0
LINE
  5
2E2
100
AcDbEntity
  8
一般
370
               5
390
0
 62
               7
100
AcDbLine
 10
-168.10488845357807
 20
-33.01148000000012
 30
0.0
 11
-175.05128845357805
 21
-33.01148000000012
 31
0.0
  0
LINE
  5
2E3
100
AcDbEntity
  8
一般
370
               5
390
0
 62
               7
100
AcDbLine
 10
-312.0000084535784
 20
-47.011800000000051
 30
0.0
 11
-305.05360845357836
 21
-47.011800000000051
 31
0.0
  0
LINE
  5
2E4
100
AcDbEntity
  8
一般
370
               5
390
0
 62
               7
100
AcDbLine
 10
-312.0000084535784
 20
-33.01148000000012
 30
0.0
 11
-305.05360845357836
 21
-33.01148000000012
 31
0.0
  0
ARC
  5
2E5
100
AcDbEntity
  8
一般
370
               5
390
0
 62
               7
100
AcDbCircle
 10
-168.10488845357807
 20
-50.011800000000051
 30
0.0
 40
3.0000536683200845
100
AcDbArc
 50
359.38349654494806
 51
90.0
  0
ARC
  5
2E6
100
AcDbEntity
  8
一般
370
               5
390
0
 62
               7
100
AcDbCircle
 10
-168.10488845357807
 20
-30.01148000000012
 30
0.0
 40
3.0
100
AcDbArc
 50
270.0
 51
0.6142199858556979
  0
ARC
  5
2E7
100
AcDbEntity
  8
一般
370
               5
390
0
 62
               7
100
AcDbCircle
 10
-312.0000884535782
 20
-50.011800000000051
 30
0.0
 40
3.0
100
AcDbArc
 50
90.0
 51
180.61651167490311
  0
ARC
  5
2E8
100
AcDbEntity
  8
一般
370
               5
390
0
 62
               7
100
AcDbCircle
 10
-312.0000884535782
 20
-30.01148000000012
 30
0.0
 40
3.0001728016899292
100
AcDbArc
 50
179.38504891420044
 51
270.0
  0
LINE
  5
2E9
100
AcDbEntity
  8
一般
370
               5
390
0
 62
               7
100
AcDbLine
 10
-135.05048845357788
 20
-131.51328000000012
 30
0.0
 11
-135.05048845357788
 21
-148.01360000000011
 31
0.0
  0
LINE
  5
2EA
100
AcDbEntity
  8
一般
370
               5
390
0
 62
               7
100
AcDbLine
 10
-345.05440845357816
 20
-148.01360000000011
 30
0.0
 11
-135.05048845357788
 21
-148.01360000000011
 31
0.0
  0
LINE
  5
2EB
100
AcDbEntity
  8
一般
370
               5
390
0
 62
               7
100
AcDbLine
 10
-318.4746884535781
 20
-129.01328000000012
 30
0.0
 11
-342.5542884535779
 21
-129.01328000000012
 31
0.0
  0
LINE
  5
2EC
100
AcDbEntity
  8
一般
370
               5
390
0
 62
               7
100
AcDbLine
 10
-161.63020845357798
 20
-129.01328000000012
 30
0.0
 11
-137.55060845357812
 21
-129.01328000000012
 31
0.0
  0
ARC
  5
2ED
100
AcDbEntity
  8
一般
370
               5
390
0
 62
               7
100
AcDbCircle
 10
-137.55060845357812
 20
-131.51328000000012
 30
0.0
 40
2.500120000000237
100
AcDbArc
 50
0.0
 51
89.999083311527215
  0
ARC
  5
2EE
100
AcDbEntity
  8
一般
370
               5
390
0
 62
               7
100
AcDbCircle
 10
-342.5542884535779
 20
-131.51328000000012
 30
0.0
 40
2.5
100
AcDbArc
 50
90.0
 51
180.0
  0
ARC
  5
2EF
100
AcDbEntity
  8
一般
370
               5
390
0
 62
               7
100
AcDbCircle
 10
-318.4746884535781
 20
-122.01319999999998
 30
0.0
 40
7.0000800000001391
100
AcDbArc
 50
270.0
 51
4.9982025218928934
  0
ARC
  5
2F0
100
AcDbEntity
  8
一般
370
               5
390
0
 62
               7
100
AcDbCircle
 10
-161.63020845357798
 20
-122.01319999999998
 30
0.0
 40
7.0001018361737302
100
AcDbArc
 50
175.00147132337398
 51
270.00032739884051
  0
CIRCLE
  5
2F1
100
AcDbEntity
  8
一般
370
               5
390
0
 62
               7
100
AcDbCircle
 10
-240.0524084535781
 20
-3.0109999999999104
 30
0.0
 40
28.000519999999938
  0
LINE
  5
2F2
100
AcDbEntity
  8
一般
370
               5
390
0
 62
               7
100
AcDbLine
 10
-225.9100884535784
 20
11.131319999999846
 30
0.0
 11
-222.90488845357805
 21
14.136599999999987
 31
0.0
  0
LINE
  5
2F3
100
AcDbEntity
  8
一般
370
               5
390
0
 62
               7
100
AcDbLine
 10
-228.29660845357841
 20
13.169720000000041
 30
0.0
 11
-225.79840845357808
 21
16.607919999999979
 31
0.0
  0
LINE
  5
2F4
100
AcDbEntity
  8
一般
370
               5
390
0
 62
               7
100
AcDbLine
 10
-230.97240845357817
 20
14.809519999999964
 30
0.0
 11
-229.04300845357841
 21
18.596319999999992
 31
0.0
  0
LINE
  5
2F5
100
AcDbEntity
  8
一般
370
               5
390
0
 62
               7
100
AcDbLine
 10
-233.87200845357813
 20
16.010519999999985
 30
0.0
 11
-232.5586884535781
 21
20.052399999999921
 31
0.0
  0
LINE
  5
2F6
100
AcDbEntity
  8
一般
370
               5
390
0
 62
               7
100
AcDbLine
 10
-236.92380845357809
 20
16.74312000000009
 30
0.0
 11
-236.25888845357815
 21
20.940920000000006
 31
0.0
  0
LINE
  5
2F7
100
AcDbEntity
  8
一般
370
               5
390
0
 62
               7
100
AcDbLine
 10
-240.0524084535781
 20
16.989399999999989
 30
0.0
 11
-240.0524084535781
 21
21.239320000000021
 31
0.0
  0
LINE
  5
2F8
100
AcDbEntity
  8
一般
370
               5
390
0
 62
               7
100
AcDbLine
 10
-243.18120845357817
 20
16.74312000000009
 30
0.0
 11
-243.84620845357836
 21
20.940920000000006
 31
0.0
  0
LINE
  5
2F9
100
AcDbEntity
  8
一般
370
               5
390
0
 62
               7
100
AcDbLine
 10
-246.23300845357824
 20
16.010519999999985
 30
0.0
 11
-247.54620845357829
 21
20.052399999999921
 31
0.0
  0
LINE
  5
2FA
100
AcDbEntity
  8
一般
370
               5
390
0
 62
               7
100
AcDbLine
 10
-249.13248845357828
 20
14.809519999999964
 30
0.0
 11
-251.06188845357804
 21
18.596319999999992
 31
0.0
  0
LINE
  5
2FB
100
AcDbEntity
  8
一般
370
               5
390
0
 62
               7
100
AcDbLine
 10
-251.80840845357795
 20
13.169720000000041
 30
0.0
 11
-254.30660845357829
 21
16.607919999999979
 31
0.0
  0
LINE
  5
2FC
100
AcDbEntity
  8
一般
370
               5
390
0
 62
               7
100
AcDbLine
 10
-254.19480845357805
 20
11.131319999999846
 30
0.0
 11
-257.20000845357833
 21
14.136599999999987
 31
0.0
  0
ARC
  5
2FD
100
AcDbEntity
  8
一般
370
               5
390
0
 62
               7
100
AcDbCircle
 10
-167.93948845357821
 20
-42.484399999999937
 30
0.0
 40
4.0001868534360332
100
AcDbArc
 50
312.02221788437424
 51
315.92169985155959
  0
ARC
  5
2FE
100
AcDbEntity
  8
一般
370
               5
390
0
 62
               7
100
AcDbCircle
 10
619.06311154642185
 20
-40.011680000000013
 30
0.0
 40
934.11691759766279
100
AcDbArc
 50
174.0370779357163
 51
180.0000024534736
  0
ARC
  5
2FF
100
AcDbEntity
  8
一般
370
               5
390
0
 62
               7
100
AcDbCircle
 10
-1099.1680884535785
 20
-40.011680000000013
 30
0.0
 40
934.1167982469434
100
AcDbArc
 50
354.03707717107994
 51
0.0
  0
ARC
  5
300
100
AcDbEntity
  8
一般
370
               5
390
0
 62
               7
100
AcDbCircle
 10
619.06311154642185
 20
-40.011680000000013
 30
0.0
 40
934.11691999999994
100
AcDbArc
 50
180.0
 51
185.96292450448232
  0
ARC
  5
301
100
AcDbEntity
  8
一般
370
               5
390
0
 62
               7
100
AcDbCircle
 10
-180.05140845357792
 20
55.99011999999999
 30
0.0
 40
10.000220422290491
100
AcDbArc
 50
5.9625105096886877
 51
89.999312467147902
  0
ARC
  5
302
100
AcDbEntity
  8
一般
370
               5
390
0
 62
               7
100
AcDbCircle
 10
-300.0534884535781
 20
55.99011999999999
 30
0.0
 40
10.000199999999893
100
AcDbArc
 50
90.0
 51
174.03748949031132
  0
ARC
  5
303
100
AcDbEntity
  8
一般
370
               5
390
0
 62
               7
100
AcDbCircle
 10
-180.05140845357792
 20
-136.01340000000005
 30
0.0
 40
10.000200000000063
100
AcDbArc
 50
270.0
 51
354.0370098058483
  0
ARC
  5
304
100
AcDbEntity
  8
一般
370
               5
390
0
 62
               7
100
AcDbCircle
 10
-300.0534884535781
 20
-136.01340000000005
 30
0.0
 40
10.000228732824249
100
AcDbArc
 50
185.96296638577095
 51
270.0
  0
ARC
  5
305
100
AcDbEntity
  8
一般
370
               5
390
0
 62
               7
100
AcDbCircle
 10
-313.05380845357809
 20
28.989599999999882
 30
0.0
 40
2.0
100
AcDbArc
 50
180.0
 51
270.0
  0
ARC
  5
306
100
AcDbEntity
  8
一般
370
               5
390
0
 62
               7
100
AcDbCircle
 10
-167.05108845357802
 20
28.989599999999882
 30
0.0
 40
2.0
100
AcDbArc
 50
270.0
 51
0.0
  0
ARC
  5
307
100
AcDbEntity
  8
一般
370
               5
390
0
 62
               7
100
AcDbCircle
 10
-1099.1680884535785
 20
-40.011680000000013
 30
0.0
 40
934.11688000000072
100
AcDbArc
 50
0.0
 51
0.0180673803653235
  0
ARC
  5
308
100
AcDbEntity
  8
一般
370
               5
390
0
 62
               7
100
AcDbCircle
 10
-1099.1680884535785
 20
-40.011680000000013
 30
0.0
 40
934.1169264551927
100
AcDbArc
 50
0.0180698330651397
 51
5.9629196240850391
  0
LINE
  5
309
100
AcDbEntity
  8
一般
370
               5
390
0
  6
STYLE_13
 62
               7
100
AcDbLine
 10
-308.05368845357816
 20
83.97100000000006
 30
0.0
 11
-308.05368845357816
 21
61.5003999999999
 31
0.0
  0
LINE
  5
30A
100
AcDbEntity
  8
一般
370
               5
390
0
  6
STYLE_13
 62
               7
100
AcDbLine
 10
-300.0534884535781
 20
65.990319999999883
 30
0.0
 11
-300.0534884535781
 21
48.989999999999952
 31
0.0
  0
LINE
  5
30B
100
AcDbEntity
  8
一般
370
               5
390
0
  6
STYLE_13
 62
               7
100
AcDbLine
 10
-310.05368845357816
 20
55.99011999999999
 30
0.0
 11
-293.0534084535783
 21
55.99011999999999
 31
0.0
  0
LINE
  5
30C
100
AcDbEntity
  8
一般
370
               5
390
0
  6
STYLE_13
 62
               7
100
AcDbLine
 10
-324.10848845357805
 20
46.989919999999984
 30
0.0
 11
-288.65540845357805
 21
46.989919999999984
 31
0.0
  0
LINE
  5
30D
100
AcDbEntity
  8
一般
370
               5
390
0
  6
STYLE_13
 62
               7
100
AcDbLine
 10
-180.05140845357792
 20
65.990319999999883
 30
0.0
 11
-180.05140845357792
 21
48.989999999999952
 31
0.0
  0
LINE
  5
30E
100
AcDbEntity
  8
一般
370
               5
390
0
  6
STYLE_13
 62
               7
100
AcDbLine
 10
-180.05140845357792
 20
65.990319999999883
 30
0.0
 11
-180.05140845357792
 21
66.990319999999883
 31
0.0
  0
LINE
  5
30F
100
AcDbEntity
  8
一般
370
               5
390
0
  6
STYLE_13
 62
               7
100
AcDbLine
 10
-172.05120845357789
 20
84.547199999999975
 30
0.0
 11
-172.05120845357789
 21
64.634919999999852
 31
0.0
  0
LINE
  5
310
100
AcDbEntity
  8
一般
370
               5
390
0
  6
STYLE_13
 62
               7
100
AcDbLine
 10
-186.35540845357801
 20
55.99011999999999
 30
0.0
 11
-170.98880845357829
 21
55.99011999999999
 31
0.0
  0
LINE
  5
311
100
AcDbEntity
  8
一般
370
               5
390
0
  6
STYLE_13
 62
               7
100
AcDbLine
 10
-148.16608845357817
 20
46.989919999999984
 30
0.0
 11
-186.68728845357811
 21
46.989919999999984
 31
0.0
  0
LINE
  5
312
100
AcDbEntity
  8
一般
370
               5
390
0
  6
STYLE_13
 62
               7
100
AcDbLine
 10
-175.05128845357805
 20
-33.01148000000012
 30
0.0
 11
-175.05128845357805
 21
-47.011800000000051
 31
0.0
  0
LINE
  5
313
100
AcDbEntity
  8
一般
370
               5
390
0
  6
STYLE_13
 62
               7
100
AcDbLine
 10
-186.13220845357839
 20
-40.011680000000013
 30
0.0
 11
-165.05108845357802
 21
-40.011680000000013
 31
0.0
  0
LINE
  5
314
100
AcDbEntity
  8
一般
370
               5
390
0
  6
STYLE_13
 62
               7
100
AcDbLine
 10
-180.05140845357792
 20
-129.36428000000001
 30
0.0
 11
-180.05140845357792
 21
-144.14980000000003
 31
0.0
  0
LINE
  5
315
100
AcDbEntity
  8
一般
370
               5
390
0
  6
STYLE_13
 62
               7
100
AcDbLine
 10
-187.05148845357809
 20
-136.01340000000005
 30
0.0
 11
-170.44988845357813
 21
-136.01340000000005
 31
0.0
  0
LINE
  5
316
100
AcDbEntity
  8
一般
370
               5
390
0
  6
STYLE_13
 62
               7
100
AcDbLine
 10
-310.10748845357818
 20
-136.01340000000005
 30
0.0
 11
-293.0534084535783
 21
-136.01340000000005
 31
0.0
  0
LINE
  5
317
100
AcDbEntity
  8
一般
370
               5
390
0
  6
STYLE_13
 62
               7
100
AcDbLine
 10
-300.0534884535781
 20
-129.01328000000012
 30
0.0
 11
-300.0534884535781
 21
-146.01360000000011
 31
0.0
  0
LINE
  5
318
100
AcDbEntity
  8
一般
370
               5
390
0
  6
STYLE_13
 62
               7
100
AcDbLine
 10
-305.05360845357836
 20
-33.01148000000012
 30
0.0
 11
-305.05360845357836
 21
-47.011800000000051
 31
0.0
  0
LINE
  5
319
100
AcDbEntity
  8
一般
370
               5
390
0
  6
STYLE_13
 62
               7
100
AcDbLine
 10
-315.05380845357809
 20
-40.011680000000013
 30
0.0
 11
-298.0534884535781
 21
-40.011680000000013
 31
0.0
  0
CIRCLE
  5
31A
100
AcDbEntity
  8
一般
370
               5
390
0
 62
               7
100
AcDbCircle
 10
-300.0534884535781
 20
55.99011999999999
 30
0.0
 40
5.0
  0
CIRCLE
  5
31B
100
AcDbEntity
  8
一般
370
               5
390
0
 62
               7
100
AcDbCircle
 10
-299.99980845357834
 20
55.99011999999999
 30
0.0
 40
4.6001200000002882
  0
CIRCLE
  5
31C
100
AcDbEntity
  8
一般
370
               5
390
0
 62
               7
100
AcDbCircle
 10
-180.05140845357792
 20
55.99011999999999
 30
0.0
 40
5.0001199999998676
  0
CIRCLE
  5
31D
100
AcDbEntity
  8
一般
370
               5
390
0
 62
               7
100
AcDbCircle
 10
-180.05140845357792
 20
55.99011999999999
 30
0.0
 40
4.6001199999998619
  0
CIRCLE
  5
31E
100
AcDbEntity
  8
一般
370
               5
390
0
 62
               7
100
AcDbCircle
 10
-175.05128845357805
 20
-40.011680000000013
 30
0.0
 40
5.0000800000001675
  0
CIRCLE
  5
31F
100
AcDbEntity
  8
一般
370
               5
390
0
 62
               7
100
AcDbCircle
 10
-175.05128845357805
 20
-40.011680000000013
 30
0.0
 40
4.6000800000001618
  0
CIRCLE
  5
320
100
AcDbEntity
  8
一般
370
               5
390
0
 62
               7
100
AcDbCircle
 10
-180.05140845357792
 20
-136.01340000000005
 30
0.0
 40
5.0001199999998676
  0
CIRCLE
  5
321
100
AcDbEntity
  8
一般
370
               5
390
0
 62
               7
100
AcDbCircle
 10
-180.05140845357792
 20
-136.01340000000005
 30
0.0
 40
4.6001199999998619
  0
CIRCLE
  5
322
100
AcDbEntity
  8
一般
370
               5
390
0
 62
               7
100
AcDbCircle
 10
-300.0534884535781
 20
-136.01340000000005
 30
0.0
 40
5.0
  0
CIRCLE
  5
323
100
AcDbEntity
  8
一般
370
               5
390
0
 62
               7
100
AcDbCircle
 10
-300.0534884535781
 20
-136.01340000000005
 30
0.0
 40
4.5999999999999091
  0
CIRCLE
  5
324
100
AcDbEntity
  8
一般
370
               5
390
0
 62
               7
100
AcDbCircle
 10
-305.05360845357836
 20
-40.011680000000013
 30
0.0
 40
4.6000000000000227
  0
CIRCLE
  5
325
100
AcDbEntity
  8
一般
370
               5
390
0
 62
               7
100
AcDbCircle
 10
-305.05360845357836
 20
-40.011680000000013
 30
0.0
 40
5.0001200000002655
  0
LINE
  5
326
100
AcDbEntity
  8
一般
370
               5
390
0
 62
               7
100
AcDbLine
 10
-297.49968845357807
 20
54.54672000000005
 30
0.0
 11
-299.99980845357834
 21
53.10331999999994
 31
0.0
  0
LINE
  5
327
100
AcDbEntity
  8
一般
370
               5
390
0
 62
               7
100
AcDbLine
 10
-297.49968845357807
 20
57.43351999999993
 30
0.0
 11
-297.49968845357807
 21
54.54672000000005
 31
0.0
  0
LINE
  5
328
100
AcDbEntity
  8
一般
370
               5
390
0
 62
               7
100
AcDbLine
 10
-299.99980845357834
 20
58.876920000000041
 30
0.0
 11
-297.49968845357807
 21
57.43351999999993
 31
0.0
  0
LINE
  5
329
100
AcDbEntity
  8
一般
370
               5
390
0
 62
               7
100
AcDbLine
 10
-302.49980845357834
 20
57.43351999999993
 30
0.0
 11
-299.99980845357834
 21
58.876920000000041
 31
0.0
  0
LINE
  5
32A
100
AcDbEntity
  8
一般
370
               5
390
0
 62
               7
100
AcDbLine
 10
-302.49980845357834
 20
54.54672000000005
 30
0.0
 11
-302.49980845357834
 21
57.43351999999993
 31
0.0
  0
LINE
  5
32B
100
AcDbEntity
  8
一般
370
               5
390
0
 62
               7
100
AcDbLine
 10
-299.99980845357834
 20
53.10331999999994
 30
0.0
 11
-302.49980845357834
 21
54.54672000000005
 31
0.0
  0
ARC
  5
32C
100
AcDbEntity
  8
一般
370
               5
390
0
 62
               7
100
AcDbCircle
 10
-310.25368845357821
 20
74.769399999999905
 30
0.0
 40
1.2999405481790898
100
AcDbArc
 50
106.60653597653982
 51
180.0
  0
LINE
  5
32D
100
AcDbEntity
  8
一般
370
               5
390
0
 62
               7
100
AcDbLine
 10
-311.55380845357809
 20
74.769399999999905
 30
0.0
 11
-311.55380845357809
 21
73.790400000000034
 31
0.0
  0
LINE
  5
32E
100
AcDbEntity
  8
一般
370
               5
390
0
 62
               7
100
AcDbLine
 10
-312.05380845357809
 20
73.790400000000034
 30
0.0
 11
-312.05380845357809
 21
72.990400000000022
 31
0.0
  0
LINE
  5
32F
100
AcDbEntity
  8
一般
370
               5
390
0
 62
               7
100
AcDbLine
 10
-310.10388845357818
 20
76.153920000000085
 30
0.0
 11
-308.51548845357809
 21
76.169319999999971
 31
0.0
  0
LINE
  5
330
100
AcDbEntity
  8
一般
370
               5
390
0
 62
               7
100
AcDbLine
 10
-306.00368845357821
 20
76.138919999999928
 30
0.0
 11
-307.59200845357816
 21
76.169319999999971
 31
0.0
  0
ARC
  5
331
100
AcDbEntity
  8
一般
370
               5
390
0
 62
               7
100
AcDbCircle
 10
-308.05368845357816
 20
67.390319999999861
 30
0.0
 40
9.0001741311153864
100
AcDbArc
 50
73.398439261857504
 51
106.60180476597012
  0
ARC
  5
332
100
AcDbEntity
  8
一般
370
               5
390
0
 62
               7
100
AcDbCircle
 10
-305.85368845357823
 20
74.769399999999905
 30
0.0
 40
1.2998800000001438
100
AcDbArc
 50
0.0
 51
73.394649691377992
  0
LINE
  5
333
100
AcDbEntity
  8
一般
370
               5
390
0
 62
               7
100
AcDbLine
 10
-304.55360845357836
 20
74.769399999999905
 30
0.0
 11
-304.55360845357836
 21
73.790400000000034
 31
0.0
  0
LINE
  5
334
100
AcDbEntity
  8
一般
370
               5
390
0
 62
               7
100
AcDbLine
 10
-312.05380845357809
 20
73.790400000000034
 30
0.0
 11
-304.05360845357836
 21
73.790400000000034
 31
0.0
  0
LINE
  5
335
100
AcDbEntity
  8
一般
370
               5
390
0
 62
               7
100
AcDbLine
 10
-304.05360845357836
 20
73.793399999999906
 30
0.0
 11
-304.05360845357836
 21
72.990319999999883
 31
0.0
  0
LINE
  5
336
100
AcDbEntity
  8
一般
370
               5
390
0
 62
               7
100
AcDbLine
 10
-308.51548845357809
 20
76.169319999999971
 30
0.0
 11
-308.31160845357817
 21
75.858920000000012
 31
0.0
  0
LINE
  5
337
100
AcDbEntity
  8
一般
370
               5
390
0
 62
               7
100
AcDbLine
 10
-308.31160845357817
 20
75.858920000000012
 30
0.0
 11
-307.70880845357794
 21
75.858920000000012
 31
0.0
  0
LINE
  5
338
100
AcDbEntity
  8
一般
370
               5
390
0
 62
               7
100
AcDbLine
 10
-307.59188845357835
 20
76.169319999999971
 30
0.0
 11
-307.79580845357827
 21
75.858920000000012
 31
0.0
  0
LINE
  5
339
100
AcDbEntity
  8
一般
370
               5
390
0
 62
               7
100
AcDbLine
 10
-177.55128845357805
 20
57.43351999999993
 30
0.0
 11
-177.55128845357805
 21
54.54672000000005
 31
0.0
  0
LINE
  5
33A
100
AcDbEntity
  8
一般
370
               5
390
0
 62
               7
100
AcDbLine
 10
-180.05140845357792
 20
58.876920000000041
 30
0.0
 11
-177.55128845357805
 21
57.43351999999993
 31
0.0
  0
LINE
  5
33B
100
AcDbEntity
  8
一般
370
               5
390
0
 62
               7
100
AcDbLine
 10
-182.55140845357792
 20
57.43351999999993
 30
0.0
 11
-180.05140845357792
 21
58.876920000000041
 31
0.0
  0
LINE
  5
33C
100
AcDbEntity
  8
一般
370
               5
390
0
 62
               7
100
AcDbLine
 10
-182.55140845357792
 20
54.54672000000005
 30
0.0
 11
-182.55140845357792
 21
57.43351999999993
 31
0.0
  0
LINE
  5
33D
100
AcDbEntity
  8
一般
370
               5
390
0
 62
               7
100
AcDbLine
 10
-180.05140845357792
 20
53.10331999999994
 30
0.0
 11
-182.55140845357792
 21
54.54672000000005
 31
0.0
  0
LINE
  5
33E
100
AcDbEntity
  8
一般
370
               5
390
0
 62
               7
100
AcDbLine
 10
-177.55128845357805
 20
54.54672000000005
 30
0.0
 11
-180.05140845357792
 21
53.10331999999994
 31
0.0
  0
ARC
  5
33F
100
AcDbEntity
  8
一般
370
               5
390
0
 62
               7
100
AcDbCircle
 10
-174.25128845357804
 20
74.769399999999905
 30
0.0
 40
1.2999062575433249
100
AcDbArc
 50
106.60146736753953
 51
180.0
  0
ARC
  5
340
100
AcDbEntity
  8
一般
370
               5
390
0
 62
               7
100
AcDbCircle
 10
-172.05120845357789
 20
67.390319999999861
 30
0.0
 40
9.0001855597759413
100
AcDbArc
 50
73.398195234029956
 51
106.60156073814736
  0
LINE
  5
341
100
AcDbEntity
  8
一般
370
               5
390
0
 62
               7
100
AcDbLine
 10
-174.10140845357793
 20
76.153920000000085
 30
0.0
 11
-172.51300845357812
 21
76.169319999999971
 31
0.0
  0
LINE
  5
342
100
AcDbEntity
  8
一般
370
               5
390
0
 62
               7
100
AcDbLine
 10
-172.51300845357812
 20
76.169319999999971
 30
0.0
 11
-172.3090884535782
 21
75.858920000000012
 31
0.0
  0
LINE
  5
343
100
AcDbEntity
  8
一般
370
               5
390
0
 62
               7
100
AcDbLine
 10
-176.05128845357805
 20
73.790400000000034
 30
0.0
 11
-168.05108845357802
 21
73.790400000000034
 31
0.0
  0
LINE
  5
344
100
AcDbEntity
  8
一般
370
               5
390
0
 62
               7
100
AcDbLine
 10
-176.05128845357805
 20
73.790400000000034
 30
0.0
 11
-176.05128845357805
 21
72.990400000000022
 31
0.0
  0
LINE
  5
345
100
AcDbEntity
  8
一般
370
               5
390
0
 62
               7
100
AcDbLine
 10
-175.55128845357805
 20
74.769399999999905
 30
0.0
 11
-175.55128845357805
 21
73.790400000000034
 31
0.0
  0
LINE
  5
346
100
AcDbEntity
  8
一般
370
               5
390
0
 62
               7
100
AcDbLine
 10
-171.58940845357839
 20
76.169319999999971
 30
0.0
 11
-171.79328845357824
 21
75.858920000000012
 31
0.0
  0
LINE
  5
347
100
AcDbEntity
  8
一般
370
               5
390
0
 62
               7
100
AcDbLine
 10
-170.0012084535779
 20
76.138919999999928
 30
0.0
 11
-171.58948845357818
 21
76.169319999999971
 31
0.0
  0
ARC
  5
348
100
AcDbEntity
  8
一般
370
               5
390
0
 62
               7
100
AcDbCircle
 10
-169.8512084535779
 20
74.769399999999905
 30
0.0
 40
1.2999199999998439
100
AcDbArc
 50
0.0
 51
73.392960139379738
  0
LINE
  5
349
100
AcDbEntity
  8
一般
370
               5
390
0
 62
               7
100
AcDbLine
 10
-168.55108845357802
 20
74.769399999999905
 30
0.0
 11
-168.55108845357802
 21
73.790400000000034
 31
0.0
  0
LINE
  5
34A
100
AcDbEntity
  8
一般
370
               5
390
0
 62
               7
100
AcDbLine
 10
-168.05108845357802
 20
73.800519999999949
 30
0.0
 11
-168.05108845357802
 21
72.990400000000022
 31
0.0
  0
LINE
  5
34B
100
AcDbEntity
  8
一般
370
               5
390
0
 62
               7
100
AcDbLine
 10
-172.3090884535782
 20
75.858920000000012
 30
0.0
 11
-171.70628845357834
 21
75.858920000000012
 31
0.0
  0
LINE
  5
34C
100
AcDbEntity
  8
一般
370
               5
390
0
 62
               7
100
AcDbLine
 10
-177.55128845357805
 20
-41.455079999999953
 30
0.0
 11
-177.55128845357805
 21
-38.568280000000073
 31
0.0
  0
LINE
  5
34D
100
AcDbEntity
  8
一般
370
               5
390
0
 62
               7
100
AcDbLine
 10
-175.05128845357805
 20
-42.898480000000063
 30
0.0
 11
-177.55128845357805
 21
-41.455079999999953
 31
0.0
  0
LINE
  5
34E
100
AcDbEntity
  8
一般
370
               5
390
0
 62
               7
100
AcDbLine
 10
-177.55128845357805
 20
-38.568280000000073
 30
0.0
 11
-175.05128845357805
 21
-37.124879999999962
 31
0.0
  0
LINE
  5
34F
100
AcDbEntity
  8
一般
370
               5
390
0
 62
               7
100
AcDbLine
 10
-175.05128845357805
 20
-37.124879999999962
 30
0.0
 11
-172.55120845357789
 21
-38.568280000000073
 31
0.0
  0
LINE
  5
350
100
AcDbEntity
  8
一般
370
               5
390
0
 62
               7
100
AcDbLine
 10
-172.55120845357789
 20
-38.568280000000073
 30
0.0
 11
-172.55120845357789
 21
-41.455079999999953
 31
0.0
  0
LINE
  5
351
100
AcDbEntity
  8
一般
370
               5
390
0
 62
               7
100
AcDbLine
 10
-172.55120845357789
 20
-41.455079999999953
 30
0.0
 11
-175.05128845357805
 21
-42.898480000000063
 31
0.0
  0
ARC
  5
352
100
AcDbEntity
  8
一般
370
               5
390
0
 62
               7
100
AcDbCircle
 10
-167.93948845357821
 20
-42.484399999999937
 30
0.0
 40
4.000110616270633
100
AcDbArc
 50
315.92090272800289
 51
59.999425771761409
  0
LINE
  5
353
100
AcDbEntity
  8
一般
370
               5
390
0
 62
               7
100
AcDbLine
 10
-177.55128845357805
 20
-137.45680000000016
 30
0.0
 11
-180.05140845357792
 21
-138.90020000000004
 31
0.0
  0
LINE
  5
354
100
AcDbEntity
  8
一般
370
               5
390
0
 62
               7
100
AcDbLine
 10
-177.55128845357805
 20
-134.56999999999994
 30
0.0
 11
-177.55128845357805
 21
-137.45680000000016
 31
0.0
  0
LINE
  5
355
100
AcDbEntity
  8
一般
370
               5
390
0
 62
               7
100
AcDbLine
 10
-180.05140845357792
 20
-133.12659999999994
 30
0.0
 11
-177.55128845357805
 21
-134.56999999999994
 31
0.0
  0
LINE
  5
356
100
AcDbEntity
  8
一般
370
               5
390
0
 62
               7
100
AcDbLine
 10
-182.55140845357792
 20
-134.56999999999994
 30
0.0
 11
-180.05140845357792
 21
-133.12659999999994
 31
0.0
  0
LINE
  5
357
100
AcDbEntity
  8
一般
370
               5
390
0
 62
               7
100
AcDbLine
 10
-182.55140845357792
 20
-137.45680000000016
 30
0.0
 11
-182.55140845357792
 21
-134.56999999999994
 31
0.0
  0
LINE
  5
358
100
AcDbEntity
  8
一般
370
               5
390
0
 62
               7
100
AcDbLine
 10
-180.05140845357792
 20
-138.90020000000004
 30
0.0
 11
-182.55140845357792
 21
-137.45680000000016
 31
0.0
  0
LINE
  5
359
100
AcDbEntity
  8
一般
370
               5
390
0
 62
               7
100
AcDbLine
 10
-302.55360845357836
 20
-137.45680000000016
 30
0.0
 11
-302.55360845357836
 21
-134.56999999999994
 31
0.0
  0
LINE
  5
35A
100
AcDbEntity
  8
一般
370
               5
390
0
 62
               7
100
AcDbLine
 10
-300.0534884535781
 20
-138.90020000000004
 30
0.0
 11
-302.55360845357836
 21
-137.45680000000016
 31
0.0
  0
LINE
  5
35B
100
AcDbEntity
  8
一般
370
               5
390
0
 62
               7
100
AcDbLine
 10
-297.5534884535781
 20
-137.45680000000016
 30
0.0
 11
-300.0534884535781
 21
-138.90020000000004
 31
0.0
  0
LINE
  5
35C
100
AcDbEntity
  8
一般
370
               5
390
0
 62
               7
100
AcDbLine
 10
-297.5534884535781
 20
-134.56999999999994
 30
0.0
 11
-297.5534884535781
 21
-137.45680000000016
 31
0.0
  0
LINE
  5
35D
100
AcDbEntity
  8
一般
370
               5
390
0
 62
               7
100
AcDbLine
 10
-300.0534884535781
 20
-133.12659999999994
 30
0.0
 11
-297.5534884535781
 21
-134.56999999999994
 31
0.0
  0
LINE
  5
35E
100
AcDbEntity
  8
一般
370
               5
390
0
 62
               7
100
AcDbLine
 10
-302.55360845357836
 20
-134.56999999999994
 30
0.0
 11
-300.0534884535781
 21
-133.12659999999994
 31
0.0
  0
LINE
  5
35F
100
AcDbEntity
  8
一般
370
               5
390
0
 62
               7
100
AcDbLine
 10
-302.55360845357836
 20
-38.568280000000073
 30
0.0
 11
-302.55360845357836
 21
-41.455079999999953
 31
0.0
  0
LINE
  5
360
100
AcDbEntity
  8
一般
370
               5
390
0
 62
               7
100
AcDbLine
 10
-302.55360845357836
 20
-41.455079999999953
 30
0.0
 11
-305.05360845357836
 21
-42.898480000000063
 31
0.0
  0
LINE
  5
361
100
AcDbEntity
  8
一般
370
               5
390
0
 62
               7
100
AcDbLine
 10
-305.05360845357836
 20
-42.898480000000063
 30
0.0
 11
-307.55368845357816
 21
-41.455079999999953
 31
0.0
  0
LINE
  5
362
100
AcDbEntity
  8
一般
370
               5
390
0
 62
               7
100
AcDbLine
 10
-307.55368845357816
 20
-41.455079999999953
 30
0.0
 11
-307.55368845357816
 21
-38.568280000000073
 31
0.0
  0
LINE
  5
363
100
AcDbEntity
  8
一般
370
               5
390
0
 62
               7
100
AcDbLine
 10
-307.55368845357816
 20
-38.568280000000073
 30
0.0
 11
-305.05360845357836
 21
-37.124879999999962
 31
0.0
  0
LINE
  5
364
100
AcDbEntity
  8
一般
370
               5
390
0
 62
               7
100
AcDbLine
 10
-305.05360845357836
 20
-37.124879999999962
 30
0.0
 11
-302.55360845357836
 21
-38.568280000000073
 31
0.0
  0
LINE
  5
365
100
AcDbEntity
  8
一般
370
               5
390
0
  6
STYLE_13
 62
               7
100
AcDbLine
 10
-215.10508845357811
 20
-12.39708000000013
 30
0.0
 11
-213.51260845357803
 21
-12.39708000000013
 31
0.0
  0
CIRCLE
  5
366
100
AcDbEntity
  8
一般
370
               5
390
0
 62
               7
100
AcDbCircle
 10
-240.0524084535781
 20
-3.0109999999999104
 30
0.0
 40
26.500400000000013
  0
ARC
  5
367
100
AcDbEntity
  8
一般
370
               5
390
0
 62
               7
100
AcDbCircle
 10
-240.0524084535781
 20
-3.0109999999999104
 30
0.0
 40
20.000444508060472
100
AcDbArc
 50
287.54911895553522
 51
84.491131938415663
  0
ARC
  5
368
100
AcDbEntity
  8
一般
370
               5
390
0
 62
               7
100
AcDbCircle
 10
-240.0524084535781
 20
-3.0109999999999104
 30
0.0
 40
20.000389648724052
100
AcDbArc
 50
95.445688037279751
 51
252.63379393253504
  0
LINE
  5
369
100
AcDbEntity
  8
一般
370
               5
390
0
 62
               7
100
AcDbLine
 10
23.78919154642162
 20
20.00120000000004
 30
0.0
 11
23.78919154642162
 21
-19.999480000000062
 31
0.0
  0
LINE
  5
36A
100
AcDbEntity
  8
一般
370
               5
390
0
 62
               7
100
AcDbLine
 10
15.788991546421578
 20
-17.675280000000043
 30
0.0
 11
15.788991546421578
 21
11.676920000000052
 31
0.0
  0
LINE
  5
36B
100
AcDbEntity
  8
一般
370
               5
390
0
 62
               7
100
AcDbLine
 10
25.28919154642162
 20
9.5011199999999008
 30
0.0
 11
25.28919154642162
 21
-15.499400000000094
 31
0.0
  0
LINE
  5
36C
100
AcDbEntity
  8
一般
370
               5
390
0
 62
               7
100
AcDbLine
 10
25.78919154642162
 20
9.5011199999999008
 30
0.0
 11
25.78919154642162
 21
23.501319999999907
 31
0.0
  0
LINE
  5
36D
100
AcDbEntity
  8
一般
370
               5
390
0
 62
               7
100
AcDbLine
 10
25.78919154642162
 20
-15.499400000000094
 30
0.0
 11
25.78919154642162
 21
-29.499679999999898
 31
0.0
  0
LINE
  5
36E
100
AcDbEntity
  8
一般
370
               5
390
0
 62
               7
100
AcDbLine
 10
25.78919154642162
 20
-15.499400000000094
 30
0.0
 11
25.78919154642162
 21
9.5011199999999008
 31
0.0
  0
LINE
  5
36F
100
AcDbEntity
  8
一般
370
               5
390
0
 62
               7
100
AcDbLine
 10
-28.211808453578215
 20
7.0009999999999764
 30
0.0
 11
-28.211808453578215
 21
-12.999400000000094
 31
0.0
  0
LINE
  5
370
100
AcDbEntity
  8
一般
370
               5
390
0
  6
STYLE_13
 62
               7
100
AcDbLine
 10
66.789991546421788
 20
-115.72728000000006
 30
0.0
 11
66.789991546421788
 21
-150.67127999999991
 31
0.0
  0
LINE
  5
371
100
AcDbEntity
  8
一般
370
               5
390
0
  6
STYLE_13
 62
               7
100
AcDbLine
 10
126.79111154642187
 20
-116.02260000000012
 30
0.0
 11
126.79111154642187
 21
-151.04920000000004
 31
0.0
  0
LINE
  5
372
100
AcDbEntity
  8
一般
370
               5
390
0
  6
STYLE_13
 62
               7
100
AcDbLine
 10
-150.05080845357818
 20
-121.77067999999997
 30
0.0
 11
-150.05080845357818
 21
-151.24940000000004
 31
0.0
  0
LINE
  5
373
100
AcDbEntity
  8
一般
370
               5
390
0
  6
STYLE_13
 62
               7
100
AcDbLine
 10
-330.05408845357795
 20
-121.77067999999997
 30
0.0
 11
-330.05408845357795
 21
-150.05948000000012
 31
0.0
  0
LINE
  5
374
100
AcDbEntity
  8
一般
370
               5
390
0
  6
STYLE_06
 62
               7
100
AcDbLine
 10
-240.0524084535781
 20
92.789320000000032
 30
0.0
 11
-239.98308845357803
 21
-162.21068000000002
 31
0.0
  0
LINE
  5
375
100
AcDbEntity
  8
一般
370
               5
390
0
  6
STYLE_06
 62
               7
100
AcDbLine
 10
-275.04660845357841
 20
-3.0109999999999104
 30
0.0
 11
-211.12700845357801
 21
-3.0109999999999104
 31
0.0
  0
LINE
  5
376
100
AcDbEntity
  8
一般
370
               5
390
0
 62
               7
100
AcDbLine
 10
-190.05148845357809
 20
65.990319999999883
 30
0.0
 11
-203.01048845357812
 21
65.990319999999883
 31
0.0
  0
LINE
  5
377
100
AcDbEntity
  8
一般
370
               5
390
0
 62
               7
100
AcDbLine
 10
-190.05148845357809
 20
65.990319999999883
 30
0.0
 11
-180.05140845357792
 21
65.990319999999883
 31
0.0
  0
LINE
  5
378
100
AcDbEntity
  8
一般
370
               5
390
0
 62
               7
100
AcDbLine
 10
-190.05148845357809
 20
65.990319999999883
 30
0.0
 11
-290.0534084535783
 21
65.990319999999883
 31
0.0
  0
LINE
  5
379
100
AcDbEntity
  8
一般
370
               5
390
0
 62
               7
100
AcDbLine
 10
-190.05148845357809
 20
-146.01360000000011
 30
0.0
 11
-180.05140845357792
 21
-146.01360000000011
 31
0.0
  0
LINE
  5
37A
100
AcDbEntity
  8
一般
370
               5
390
0
 62
               7
100
AcDbLine
 10
-290.0534084535783
 20
-146.01360000000011
 30
0.0
 11
-180.05140845357792
 21
-146.01360000000011
 31
0.0
  0
LINE
  5
37B
100
AcDbEntity
  8
一般
370
               5
390
0
 62
               7
100
AcDbLine
 10
-290.0534084535783
 20
-146.01360000000011
 30
0.0
 11
-300.0534884535781
 21
-146.01360000000011
 31
0.0
  0
LINE
  5
37C
100
AcDbEntity
  8
一般
370
               5
390
0
 62
               7
100
AcDbLine
 10
-290.0534084535783
 20
65.990319999999883
 30
0.0
 11
-300.0534884535781
 21
65.990319999999883
 31
0.0
  0
LINE
  5
37D
100
AcDbEntity
  8
一般
370
               5
390
0
 62
               7
100
AcDbLine
 10
-190.05148845357809
 20
65.990319999999883
 30
0.0
 11
-180.05140845357792
 21
65.990319999999883
 31
0.0
  0
ARC
  5
37E
100
AcDbEntity
  8
一般
370
               5
390
0
 62
               7
100
AcDbCircle
 10
-659.1232884535782
 20
-40.0
 30
0.0
 40
934.11700810134744
100
AcDbArc
 50
3.038143921776209
 51
5.226679311929006
  0
ARC
  5
37F
100
AcDbEntity
  8
一般
370
               5
390
0
 62
               7
100
AcDbCircle
 10
-659.1232884535782
 20
-40.0
 30
0.0
 40
934.11688000000004
100
AcDbArc
 50
0.0
 51
0.3436110495111961
  0
LINE
  5
380
100
AcDbEntity
  8
一般
370
               5
390
0
 62
               7
100
AcDbLine
 10
-345.0542884535779
 20
-131.51328000000012
 30
0.0
 11
-345.05440845357816
 21
-148.01360000000011
 31
0.0
  0
LINE
  5
381
100
AcDbEntity
  8
一般
370
               5
390
0
  6
STYLE_11
 62
               7
100
AcDbLine
 10
-336.5542084535781
 20
-129.01328000000012
 30
0.0
 11
-336.5542084535781
 21
-148.01360000000011
 31
0.0
  0
LINE
  5
382
100
AcDbEntity
  8
一般
370
               5
390
0
  6
STYLE_11
 62
               7
100
AcDbLine
 10
-323.55400845357815
 20
-129.01328000000012
 30
0.0
 11
-323.55400845357815
 21
-148.01360000000011
 31
0.0
  0
LINE
  5
383
100
AcDbEntity
  8
一般
370
               5
390
0
  6
STYLE_11
 62
               7
100
AcDbLine
 10
-156.55088845357798
 20
-129.01328000000012
 30
0.0
 11
-156.55088845357798
 21
-148.01360000000011
 31
0.0
  0
LINE
  5
384
100
AcDbEntity
  8
一般
370
               5
390
0
  6
STYLE_11
 62
               7
100
AcDbLine
 10
-143.55068845357792
 20
-129.01328000000012
 30
0.0
 11
-143.55068845357792
 21
-148.01360000000011
 31
0.0
  0
LINE
  5
385
100
AcDbEntity
  8
一般
370
               5
390
0
 62
               7
100
AcDbLine
 10
48.789711546421586
 20
-131.50167999999996
 30
0.0
 11
48.789711546421586
 21
-148.00199999999984
 31
0.0
  0
LINE
  5
386
100
AcDbEntity
  8
一般
370
               5
390
0
 62
               7
100
AcDbLine
 10
144.79139154642169
 20
-131.50167999999996
 30
0.0
 11
144.79139154642169
 21
-148.00199999999984
 31
0.0
  0
ARC
  5
387
100
AcDbEntity
  8
一般
370
               5
390
0
 62
               7
100
AcDbCircle
 10
-659.1232884535782
 20
-41.0
 30
0.0
 40
934.11699804898115
100
AcDbArc
 50
0.3436110053699307
 51
3.038143921776213
  0
DIMENSION
  5
388
100
AcDbEntity
  8
一般
370
               5
390
0
  6
Continuous
 62
               7
100
AcDbDimension
  2
*D5
 10
-330.05408845357795
 20
-175.85440000000003
 30
0.0
 11
-240.05244845357805
 21
-175.85440000000003
 31
0.0
 71
               5
 72
               1
 41
1.0
 42
0.0
  3
中谷
100
AcDbAlignedDimension
 13
-150.05080845357818
 23
-149.52300000000002
 33
0.0
 14
-330.05408845357795
 24
-149.52300000000002
 34
0.0
100
AcDbRotatedDimension
1001
ACAD
1000
DSTYLE
1002
{
1070
             279
1070
               2
1070
             340
1005
42
1070
              73
1070
               1
1070
              74
1070
               1
1070
             147
1040
0.11272
1002
}
  0
DIMENSION
  5
389
100
AcDbEntity
  8
一般
370
               5
390
0
  6
Continuous
 62
               7
100
AcDbDimension
  2
*D6
 10
-345.0542884535779
 20
-195.85440000000006
 30
0.0
 11
-240.05238845357789
 21
-195.85440000000006
 31
0.0
 71
               5
 72
               1
 41
1.0
 42
0.0
  3
中谷
100
AcDbAlignedDimension
 13
-135.05048845357788
 23
-147.59868000000006
 33
0.0
 14
-345.0542884535779
 24
-147.59868000000006
 34
0.0
100
AcDbRotatedDimension
1001
ACAD
1000
DSTYLE
1002
{
1070
             279
1070
               2
1070
             340
1005
42
1070
              73
1070
               1
1070
              74
1070
               1
1070
             147
1040
0.11272
1002
}
  0
DIMENSION
  5
38A
100
AcDbEntity
  8
一般
370
               5
390
0
  6
Continuous
 62
               7
100
AcDbDimension
  2
*D7
 10
-315.05380845357809
 20
105.0
 30
0.0
 11
-240.05244845357805
 21
105.0
 31
0.0
 71
               5
 72
               1
 41
1.0
 42
0.0
  3
中谷
100
AcDbAlignedDimension
 13
-165.05108845357802
 23
67.990319999999883
 33
0.0
 14
-315.05380845357809
 24
67.990319999999883
 34
0.0
100
AcDbRotatedDimension
1001
ACAD
1000
DSTYLE
1002
{
1070
             279
1070
               2
1070
             340
1005
42
1070
              73
1070
               1
1070
              74
1070
               1
1070
             147
1040
0.05
1002
}
  0
DIMENSION
  5
38B
100
AcDbEntity
  8
一般
370
               5
390
0
  6
Continuous
 62
               7
100
AcDbDimension
  2
*D8
 10
-240.02708904371178
 20
93.308267425906166
 30
0.0
 11
-240.02708904401814
 21
93.358267425906163
 31
0.0
 70
             133
 71
               5
 72
               1
 41
1.0
 42
0.0
  1
90deg 
  3
中谷
100
AcDb3PointAngularDimension
 13
-337.10348845357817
 23
94.065319999999872
 33
0.0
 14
-139.9752884535782
 24
97.040719999999965
 34
0.0
 15
-240.02708845357824
 25
-3.0109999999999104
 35
0.0
1001
ACAD
1000
DSTYLE
1002
{
1070
             279
1070
               2
1070
             342
1005
62
1070
             340
1005
42
1070
              73
1070
               1
1070
              74
1070
               1
1070
             147
1040
0.05
1002
}
  0
DIMENSION
  5
38C
100
AcDbEntity
  8
一般
370
               5
390
0
  6
Continuous
 62
               7
100
AcDbDimension
  2
*D9
 10
-96.370088453577878
 20
81.990600000000086
 30
0.0
 11
-96.370088453577878
 21
-33.011500000000012
 31
0.0
 71
               5
 72
               1
 41
1.0
 42
0.0
  3
中谷
100
AcDbAlignedDimension
 13
-135.05048845357788
 23
-148.01360000000011
 33
0.0
 14
-172.05120845357789
 24
81.990600000000086
 34
0.0
 50
90.0
100
AcDbRotatedDimension
1001
ACAD
1000
DSTYLE
1002
{
1070
             279
1070
               2
1070
             340
1005
42
1070
             147
1040
0.05
1002
}
  0
DIMENSION
  5
38D
100
AcDbEntity
  8
一般
370
               5
390
0
  6
Continuous
 62
               7
100
AcDbDimension
  2
*D10
 10
-126.37008845357809
 20
-129.01316000031989
 30
0.0
 11
-126.32008845357809
 21
-112.64836000031988
 31
0.0
 70
             128
 71
               5
 72
               1
 41
1.0
 42
0.0
  3
中谷
100
AcDbAlignedDimension
 13
-135.05048845357788
 23
-148.01360000000011
 33
0.0
 14
-137.55056845357805
 24
-129.01316000031989
 34
0.0
 50
90.0
100
AcDbRotatedDimension
1001
ACAD
1000
DSTYLE
1002
{
1070
             279
1070
               2
1070
             340
1005
42
1070
             174
1070
               0
1070
             147
1040
0.05
1002
}
  0
DIMENSION
  5
38E
100
AcDbEntity
  8
一般
370
               5
390
0
  6
Continuous
 62
               7
100
AcDbDimension
  2
*D11
 10
-114.37008845357789
 20
-148.01360000000011
 30
0.0
 11
-114.3200884535779
 21
-72.998827197265626
 31
0.0
 70
             128
 71
               5
 72
               1
 41
1.0
 42
0.0
  3
中谷
100
AcDbAlignedDimension
 13
-213.55200845357808
 23
-3.0109999999999104
 33
0.0
 14
-135.05048845357788
 24
-148.01360000000011
 34
0.0
 50
90.0
100
AcDbRotatedDimension
1001
ACAD
1000
DSTYLE
1002
{
1070
             279
1070
               2
1070
             340
1005
42
1070
             147
1040
0.05
1002
}
  0
DIMENSION
  5
38F
100
AcDbEntity
  8
一般
370
               5
390
0
  6
Continuous
 62
               7
100
AcDbDimension
  2
*D12
 10
-150.79728845357798
 20
-146.56747999999993
 30
0.0
 11
-123.25045118045318
 21
-173.24363058320688
 31
0.0
 70
               3
 71
               5
 72
               1
 41
1.0
 42
0.0
  1
4-φ13取付穴
  3
中谷
100
AcDbDiametricDimension
 15
-149.54940845357825
 25
-147.98120000000006
 35
0.0
 40
33.696199999999997
1001
ACAD
1000
DSTYLE
1002
{
1070
             172
1070
               0
1070
             289
1070
               0
1070
             342
1005
62
1070
             340
1005
42
1070
              73
1070
               1
1070
              74
1070
               1
1070
              75
1070
               1
1070
              76
1070
               1
1070
             174
1070
               0
1070
             147
1040
0.05
1002
}
  0
DIMENSION
  5
390
100
AcDbEntity
  8
一般
370
               5
390
0
  6
Continuous
 62
               7
100
AcDbDimension
  2
*D13
 10
48.789711546421586
 20
-175.85439999999997
 30
0.0
 11
57.789851546421687
 21
-175.80439999999996
 31
0.0
 70
             128
 71
               5
 72
               1
 41
1.0
 42
0.0
  3
中谷
100
AcDbAlignedDimension
 13
66.789991546421788
 23
-149.85440000000006
 33
0.0
 14
48.789711546421586
 24
-148.00199999999984
 34
0.0
100
AcDbRotatedDimension
1001
ACAD
1000
DSTYLE
1002
{
1070
             279
1070
               2
1070
             340
1005
42
1070
              73
1070
               1
1070
              74
1070
               1
1070
             147
1040
0.05
1002
}
  0
DIMENSION
  5
391
100
AcDbEntity
  8
一般
370
               5
390
0
  6
Continuous
 62
               7
100
AcDbDimension
  2
*D14
 10
66.789991546421788
 20
-175.85439999999983
 30
0.0
 11
96.790551546421824
 21
-175.85439999999983
 31
0.0
 71
               5
 72
               1
 41
1.0
 42
0.0
  3
中谷
100
AcDbAlignedDimension
 13
126.79111154642187
 23
-148.00199999999984
 33
0.0
 14
66.789991546421788
 24
-148.00199999999984
 34
0.0
100
AcDbRotatedDimension
1001
ACAD
1000
DSTYLE
1002
{
1070
             279
1070
               2
1070
             340
1005
42
1070
              73
1070
               1
1070
              74
1070
               1
1070
             147
1040
0.05
1002
}
  0
DIMENSION
  5
392
100
AcDbEntity
  8
一般
370
               5
390
0
  6
Continuous
 62
               7
100
AcDbDimension
  2
*D15
 10
126.79111154642187
 20
-175.85439999999983
 30
0.0
 11
135.11228590677337
 21
-175.80439999999982
 31
0.0
 70
             128
 71
               5
 72
               1
 41
1.0
 42
0.0
  3
中谷
100
AcDbAlignedDimension
 13
144.79139154642169
 23
-148.00199999999984
 33
0.0
 14
126.79111154642187
 24
-148.00199999999984
 34
0.0
100
AcDbRotatedDimension
1001
ACAD
1000
DSTYLE
1002
{
1070
             279
1070
               2
1070
             340
1005
42
1070
              73
1070
               1
1070
              74
1070
               1
1070
             147
1040
0.05
1002
}
  0
DIMENSION
  5
393
100
AcDbEntity
  8
一般
370
               5
390
0
  6
Continuous
 62
               7
100
AcDbDimension
  2
*D16
 10
82.629911546422051
 20
48.001599999999939
 30
0.0
 11
82.579911546422053
 21
-55.841188629150338
 31
0.0
 70
             128
 71
               5
 72
               1
 41
1.0
 42
0.0
  3
中谷
100
AcDbAlignedDimension
 13
105.97007156132267
 23
-148.00199999999984
 33
0.0
 14
96.790791546421957
 24
48.001599999999939
 34
0.0
 50
90.0
100
AcDbRotatedDimension
1001
ACAD
1000
DSTYLE
1002
{
1070
             279
1070
               2
1070
             340
1005
42
1070
             147
1040
0.05
1002
}
  0
DIMENSION
  5
394
100
AcDbEntity
  8
一般
370
               5
390
0
  6
Continuous
 62
               7
100
AcDbDimension
  2
*D17
 10
-40.370128453578218
 20
7.0009999999999764
 30
0.0
 11
-40.420128453578215
 21
9.8985199999999764
 31
0.0
 70
             128
 71
               5
 72
               1
 41
1.0
 42
0.0
  3
中谷
100
AcDbAlignedDimension
 13
-28.211808453578215
 23
-12.999400000000094
 33
0.0
 14
-28.211808453578215
 24
7.0009999999999764
 34
0.0
 50
90.0
100
AcDbRotatedDimension
1001
ACAD
1000
DSTYLE
1002
{
1070
             279
1070
               2
1070
             340
1005
42
1070
             174
1070
               0
1070
             147
1040
0.05
1002
}
  0
DIMENSION
  5
395
100
AcDbEntity
  8
一般
370
               5
390
0
  6
Continuous
 62
               7
100
AcDbDimension
  2
*D18
 10
-22.497088453577916
 20
-50.854359999999929
 30
0.0
 11
-33.887688453577915
 21
-50.804359999999932
 31
0.0
 70
             128
 71
               5
 72
               1
 41
1.0
 42
0.0
  3
中谷
100
AcDbAlignedDimension
 13
-16.497008453578118
 23
-70.057079999999928
 33
0.0
 14
-22.497088453577916
 24
-70.057079999999928
 34
0.0
100
AcDbRotatedDimension
1001
ACAD
1000
DSTYLE
1002
{
1070
             279
1070
               2
1070
             340
1005
42
1070
              73
1070
               1
1070
              74
1070
               1
1070
             174
1070
               0
1070
             147
1040
0.05
1002
}
  0
DIMENSION
  5
396
100
AcDbEntity
  8
一般
370
               5
390
0
  6
Continuous
 62
               7
100
AcDbDimension
  2
*D19
 10
-43.887688453577915
 20
-70.057079999999928
 30
0.0
 11
-43.937688453577913
 21
-79.850799999999978
 31
0.0
 70
             128
 71
               5
 72
               1
 41
1.0
 42
0.0
  3
中谷
100
AcDbAlignedDimension
 13
-22.497088453577916
 23
-73.556879999999978
 33
0.0
 14
-22.497088453577916
 24
-70.057079999999928
 34
0.0
 50
90.0
100
AcDbRotatedDimension
1001
ACAD
1000
DSTYLE
1002
{
1070
             279
1070
               2
1070
             340
1005
42
1070
             174
1070
               0
1070
             147
1040
0.05
1002
}
  0
DIMENSION
  5
397
100
AcDbEntity
  8
一般
370
               5
390
0
  6
Continuous
 62
               7
100
AcDbDimension
  2
*D20
 10
-29.211808453578215
 20
104.1456
 30
0.0
 11
-6.7113840135351772
 21
104.1456
 31
0.0
 71
               5
 72
               1
 41
1.0
 42
0.0
  3
中谷
100
AcDbAlignedDimension
 13
15.78904042650786
 23
11.676920000000052
 33
0.0
 14
-29.211808453578215
 24
6.0009999999999764
 34
0.0
100
AcDbRotatedDimension
1001
ACAD
1000
DSTYLE
1002
{
1070
             279
1070
               2
1070
             340
1005
42
1070
              73
1070
               1
1070
              74
1070
               1
1070
             147
1040
0.05
1002
}
  0
DIMENSION
  5
398
100
AcDbEntity
  8
一般
370
               5
390
0
  6
Continuous
 62
               7
100
AcDbDimension
  2
*D21
 10
-29.211808453578215
 20
124.14563999999983
 30
0.0
 11
-0.7112484535781753
 21
124.14563999999983
 31
0.0
 71
               5
 72
               1
 41
1.0
 42
0.0
  3
中谷
100
AcDbAlignedDimension
 13
27.789311546421864
 23
60.487520000000018
 33
0.0
 14
-29.211808453578215
 24
6.0009999999999764
 34
0.0
100
AcDbRotatedDimension
1001
ACAD
1000
DSTYLE
1002
{
1070
             279
1070
               2
1070
             340
1005
42
1070
              73
1070
               1
1070
              74
1070
               1
1070
             147
1040
0.05
1002
}
  0
DIMENSION
  5
399
100
AcDbEntity
  8
一般
370
               5
390
0
  6
Continuous
 62
               7
100
AcDbDimension
  2
*D22
 10
27.789311546421864
 20
104.14564000000001
 30
0.0
 11
69.790051546421921
 21
104.14564000000001
 31
0.0
 71
               5
 72
               1
 41
1.0
 42
0.0
  3
中谷
100
AcDbAlignedDimension
 13
111.79079154642196
 23
64.145600000000002
 33
0.0
 14
27.789311546421864
 24
60.487520000000018
 34
0.0
100
AcDbRotatedDimension
1001
ACAD
1000
DSTYLE
1002
{
1070
             279
1070
               2
1070
             340
1005
42
1070
              73
1070
               1
1070
              74
1070
               1
1070
             147
1040
0.05
1002
}
  0
DIMENSION
  5
39A
100
AcDbEntity
  8
一般
370
               5
390
0
  6
Continuous
 62
               7
100
AcDbDimension
  2
*D23
 10
27.793311546421585
 20
124.14563999999999
 30
0.0
 11
154.89361154642165
 21
124.14563999999999
 31
0.0
 71
               5
 72
               1
 41
1.0
 42
0.0
  3
中谷
100
AcDbAlignedDimension
 13
281.99391154642171
 23
6.6149199999999837
 33
0.0
 14
27.793311546421585
 24
60.308920000000001
 34
0.0
100
AcDbRotatedDimension
1001
ACAD
1000
DSTYLE
1002
{
1070
             271
1070
               0
1070
             279
1070
               2
1070
             340
1005
42
1070
              73
1070
               1
1070
              74
1070
               1
1070
             147
1040
0.05
1002
}
  0
DIMENSION
  5
39B
100
AcDbEntity
  8
一般
370
               5
390
0
  6
Continuous
 62
               7
100
AcDbDimension
  2
*D24
 10
281.99391154642171
 20
124.14563999999999
 30
0.0
 11
302.48845154642174
 21
124.14563999999999
 31
0.0
 71
               5
 72
               1
 41
1.0
 42
0.0
  3
中谷
100
AcDbAlignedDimension
 13
322.98299154642177
 23
40.145600000000002
 33
0.0
 14
281.99391154642171
 24
6.6149199999999837
 34
0.0
100
AcDbRotatedDimension
1001
ACAD
1000
DSTYLE
1002
{
1070
             271
1070
               1
1070
             279
1070
               2
1070
             340
1005
42
1070
              73
1070
               1
1070
              74
1070
               1
1070
             147
1040
0.05
1002
}
  0
DIMENSION
  5
39C
100
AcDbEntity
  8
一般
370
               5
390
0
  6
Continuous
 62
               7
100
AcDbDimension
  2
*D25
 10
322.94181380719471
 20
124.1455999999999
 30
0.0
 11
327.94187414238263
 21
124.1455999999999
 31
0.0
 71
               5
 72
               1
 41
1.0
 42
0.0
  3
中谷
100
AcDbAlignedDimension
 13
332.94193447757056
 23
40.61551999999989
 33
0.0
 14
322.94181380719471
 24
40.61551999999989
 34
0.0
100
AcDbRotatedDimension
1001
ACAD
1000
DSTYLE
1002
{
1070
             279
1070
               2
1070
             340
1005
42
1070
              73
1070
               1
1070
              74
1070
               1
1070
             147
1040
0.05
1002
}
  0
DIMENSION
  5
39D
100
AcDbEntity
  8
一般
370
               5
390
0
  6
Continuous
 62
               7
100
AcDbDimension
  2
*D26
 10
353.94871154642169
 20
49.115600000000086
 30
0.0
 11
353.9987115464217
 21
-9.7820780792235951
 31
0.0
 70
             128
 71
               5
 72
               1
 41
1.0
 42
0.0
  3
中谷
100
AcDbAlignedDimension
 13
324.37111154642184
 23
-75.885800000000017
 33
0.0
 14
324.50471154642173
 24
49.115600000000086
 34
0.0
 50
90.0
100
AcDbRotatedDimension
1001
ACAD
1000
DSTYLE
1002
{
1070
             279
1070
               2
1070
             340
1005
42
1070
             147
1040
0.05
1002
}
  0
DIMENSION
  5
39E
100
AcDbEntity
  8
一般
370
               5
390
0
  6
Continuous
 62
               7
100
AcDbDimension
  2
*D27
 10
371.9487115464218
 20
-13.385479999999916
 30
0.0
 11
371.99871154642182
 21
-87.64887209106432
 31
0.0
 70
             128
 71
               5
 72
               1
 41
1.0
 42
0.0
  3
中谷
100
AcDbAlignedDimension
 13
144.79139154642169
 23
-148.00199999999984
 33
0.0
 14
322.99451154642179
 24
-13.385479999999916
 34
0.0
 50
90.0
100
AcDbRotatedDimension
1001
ACAD
1000
DSTYLE
1002
{
1070
             271
1070
               0
1070
             279
1070
               2
1070
             340
1005
42
1070
             147
1040
0.05
1002
}
  0
MTEXT
  5
39F
100
AcDbEntity
  8
一般
390
0
 62
               7
100
AcDbMText
 10
326.82111154642178
 20
-99.135630000000148
 30
0.0
 40
8.7312499999999993
 41
0.0
 71
               1
 72
               1
  1
手\P動
  7
ＭＳ Ｐゴシック
 73
               1
 44
0.8762322015334064
  0
CIRCLE
  5
3A0
100
AcDbEntity
  8
一般
370
               5
390
0
 62
               7
100
AcDbCircle
 10
-340.62368845357821
 20
96.883919999999989
 30
0.0
 40
10.000201415091661
  0
MTEXT
  5
3A1
100
AcDbEntity
  8
一般
390
0
 62
               7
100
AcDbMText
 10
-346.04944225166651
 20
98.943448770388699
 30
0.0
 40
8.7312499999999993
 41
0.0
 71
               1
 72
               1
  1
O
  7
ＭＳ Ｐゴシック
 11
0.9999998591712255
 21
0.000530714169039
 31
0.0
 73
               1
 44
0.8762322015334064
  0
MTEXT
  5
3A2
100
AcDbEntity
  8
一般
390
0
 62
               7
100
AcDbMText
 10
-365.37008845357821
 20
163.08276999999993
 30
0.0
 40
8.7312499999999993
 41
0.0
 71
               1
 72
               1
  1
ＣＭＣ-１００シリーズ　外形図
  7
ＭＳ Ｐゴシック (bold)
 73
               1
 44
0.8762322015334064
  0
INSERT
  5
3A3
100
AcDbEntity
  8
一般
390
0
 62
               7
100
AcDbBlockReference
  2
グループ-1
 10
0.0
 20
0.0
 30
0.0
  0
INSERT
  5
3A4
100
AcDbEntity
  8
一般
390
0
 62
               7
100
AcDbBlockReference
  2
グループ-2
 10
0.0
 20
0.0
 30
0.0
  0
POLYLINE
  5
3A5
100
AcDbEntity
  8
一般
370
               5
390
0
  6
STYLE_01
 62
               7
100
AcDb2dPolyline
 66
               1
 10
0.0
 20
0.0
 30
0.0
 70
               1
 75
               5
  0
VERTEX
  5
3A6
100
AcDbEntity
  8
一般
370
               5
390
0
  6
STYLE_01
 62
               7
100
AcDbVertex
100
AcDb2dVertex
 10
-307.05244845357822
 20
137.99060000000009
 30
0.0
  0
VERTEX
  5
3A7
100
AcDbEntity
  8
一般
370
               5
390
0
  6
STYLE_01
 62
               7
100
AcDbVertex
100
AcDb2dVertex
 10
-173.05244845357822
 20
137.99060000000009
 30
0.0
  0
VERTEX
  5
3A8
100
AcDbEntity
  8
一般
370
               5
390
0
  6
STYLE_01
 62
               7
100
AcDbVertex
100
AcDb2dVertex
 10
-173.05244845357822
 20
127.99060000000009
 30
0.0
  0
VERTEX
  5
3A9
100
AcDbEntity
  8
一般
370
               5
390
0
  6
STYLE_01
 62
               7
100
AcDbVertex
100
AcDb2dVertex
 10
-307.05244845357822
 20
127.99060000000009
 30
0.0
  0
SEQEND
  5
3AA
100
AcDbEntity
  8
一般
370
               5
390
0
  6
STYLE_01
 62
               7
  0
LINE
  5
3AB
100
AcDbEntity
  8
一般
370
               5
390
0
  6
STYLE_01
 62
               7
100
AcDbLine
 10
-305.08578845357817
 20
127.99060000000009
 30
0.0
 11
-305.08578845357817
 21
81.990600000000086
 31
0.0
  0
LINE
  5
3AC
100
AcDbEntity
  8
一般
370
               5
390
0
  6
STYLE_01
 62
               7
100
AcDbLine
 10
-175.01918845357807
 20
127.99060000000009
 30
0.0
 11
-175.01918845357807
 21
81.990600000000086
 31
0.0
  0
MTEXT
  5
3AD
100
AcDbEntity
  8
一般
390
0
 62
               7
100
AcDbMText
 10
-240.05244845357822
 20
136.28668333333343
 30
0.0
 40
6.790972222222222
 41
0.0
 71
               2
 72
               1
  1
電々ポジショナ付
  7
ＭＳ Ｐゴシック
 73
               1
 44
0.8762322015334064
  0
POLYLINE
  5
3AE
100
AcDbEntity
  8
一般
370
               5
390
0
  6
STYLE_01
 62
               7
100
AcDb2dPolyline
 66
               1
 10
0.0
 20
0.0
 30
0.0
 70
               1
 75
               5
  0
VERTEX
  5
3AF
100
AcDbEntity
  8
一般
370
               5
390
0
  6
STYLE_01
 62
               7
100
AcDbVertex
100
AcDb2dVertex
 10
74.756931546421669
 20
137.99060000000009
 30
0.0
  0
VERTEX
  5
3B0
100
AcDbEntity
  8
一般
370
               5
390
0
  6
STYLE_01
 62
               7
100
AcDbVertex
100
AcDb2dVertex
 10
238.75693154642164
 20
137.99060000000009
 30
0.0
  0
VERTEX
  5
3B1
100
AcDbEntity
  8
一般
370
               5
390
0
  6
STYLE_01
 62
               7
100
AcDbVertex
100
AcDb2dVertex
 10
238.75693154642164
 20
127.99060000000009
 30
0.0
  0
VERTEX
  5
3B2
100
AcDbEntity
  8
一般
370
               5
390
0
  6
STYLE_01
 62
               7
100
AcDbVertex
100
AcDb2dVertex
 10
74.756931546421669
 20
127.99060000000009
 30
0.0
  0
SEQEND
  5
3B3
100
AcDbEntity
  8
一般
370
               5
390
0
  6
STYLE_01
 62
               7
  0
LINE
  5
3B4
100
AcDbEntity
  8
一般
370
               5
390
0
  6
STYLE_01
 62
               7
100
AcDbLine
 10
236.7901915464218
 20
127.99060000000009
 30
0.0
 11
236.7901915464218
 21
72.990600000000086
 31
0.0
  0
LINE
  5
3B5
100
AcDbEntity
  8
一般
370
               5
390
0
  6
STYLE_01
 62
               7
100
AcDbLine
 10
76.790191546421823
 20
127.99060000000009
 30
0.0
 11
76.790191546421823
 21
73.990600000000086
 31
0.0
  0
LINE
  5
3B6
100
AcDbEntity
  8
一般
370
               5
390
0
  6
STYLE_01
 62
               7
100
AcDbLine
 10
146.61718047733447
 20
72.990600000000086
 30
0.0
 11
236.7901915464218
 21
72.990600000000086
 31
0.0
  0
DIMENSION
  5
3B7
100
AcDbEntity
  8
寸法
370
               5
390
0
  6
Continuous
 62
               7
100
AcDbDimension
  2
*D30
 10
-96.370088453577878
 20
81.990480000000161
 30
0.0
 11
-96.340088453577877
 21
110.67584420288098
 31
0.0
 70
             128
 71
               5
 72
               1
 41
1.0
 42
0.0
  3
中谷
100
AcDbAlignedDimension
 13
-173.05244845357822
 23
137.99060000000009
 33
0.0
 14
-176.21978845357819
 24
81.990480000000161
 34
0.0
 50
90.0
100
AcDbRotatedDimension
1001
ACAD
1000
DSTYLE
1002
{
1070
             271
1070
               0
1070
             279
1070
               2
1070
             340
1005
42
1070
             147
1040
0.03
1002
}
  0
ENDSEC
  0
SECTION
  2
OBJECTS
  0
DICTIONARY
  5
19
100
AcDbDictionary
280
               0
281
               1
  3
ACAD_GROUP
350
1A
  3
ACAD_MLINESTYLE
350
1B
  3
ACAD_LAYOUT
350
1E
  3
ACAD_PLOTSETTINGS
350
22
  3
ACAD_PLOTSTYLENAME
350
1F
  3
ACAD_WIPEOUT_VARS
350
23
  0
DICTIONARY
  5
1A
102
{ACAD_REACTORS
330
19
102
}
100
AcDbDictionary
280
               0
281
               1
  0
DICTIONARY
  5
1B
102
{ACAD_REACTORS
330
19
102
}
100
AcDbDictionary
280
               0
281
               1
  3
Standard
350
1C
  0
MLINESTYLE
  5
1C
102
{ACAD_REACTORS
330
1B
102
}
100
AcDbMlineStyle
  2
Standard
 70
               0
  3

 62
               0
 51
90.0
 52
90.0
 71
               2
 49
0.5
 62
             256
  6
ByLayer
 49
-0.5
 62
             256
  6
ByLayer
  0
ACDBDICTIONARYWDFLT
  5
1F
102
{ACAD_REACTORS
330
19
102
}
100
AcDbDictionary
281
               1
  3
Normal
350
1D
100
AcDbDictionaryWithDefault
340
1D
  0
ACDBPLACEHOLDER
  5
1D
102
{ACAD_REACTORS
330
1F
102
}
  0
LAYOUT
  5
20
102
{ACAD_REACTORS
330
1E
102
}
100
AcDbPlotSettings
  1

  2

  4

  6

 40
0.0
 41
0.0
 42
0.0
 43
0.0
 44
0.0
 45
0.0
 46
0.0
 47
0.0
 48
0.0
 49
0.0
140
0.0
141
0.0
142
1.0
143
1.0
 70
            1024
 72
               0
 73
               0
 74
               0
  7

 75
               0
147
1.0
148
0.0
149
0.0
100
AcDbLayout
  1
Model
 70
               0
 71
               0
 10
0.0
 20
0.0
 11
0.0
 21
0.0
 12
0.0
 22
0.0
 32
0.0
 14
0.0
 24
0.0
 34
0.0
 15
0.0
 25
0.0
 35
0.0
146
0.0
 13
0.0
 23
0.0
 33
0.0
 16
0.0
 26
0.0
 36
0.0
 17
0.0
 27
0.0
 37
0.0
 76
               0
330
A
331
0
345
0
346
0
  0
LAYOUT
  5
21
102
{ACAD_REACTORS
330
1E
102
}
100
AcDbPlotSettings
  1

  2

  4

  6

 40
0.0
 41
0.0
 42
0.0
 43
0.0
 44
0.0
 45
0.0
 46
0.0
 47
0.0
 48
0.0
 49
0.0
140
0.0
141
0.0
142
1.0
143
1.0
 70
               0
 72
               0
 73
               0
 74
               0
  7

 75
               0
147
1.0
148
0.0
149
0.0
100
AcDbLayout
  1
Layout1
 70
               0
 71
               0
 10
0.0
 20
0.0
 11
0.0
 21
0.0
 12
0.0
 22
0.0
 32
0.0
 14
0.0
 24
0.0
 34
0.0
 15
0.0
 25
0.0
 35
0.0
146
0.0
 13
0.0
 23
0.0
 33
0.0
 16
0.0
 26
0.0
 36
0.0
 17
0.0
 27
0.0
 37
0.0
 76
               0
330
B
331
0
345
0
346
0
  0
DICTIONARY
  5
1E
102
{ACAD_REACTORS
330
19
102
}
100
AcDbDictionary
280
               0
281
               1
  3
Layout1
350
21
  3
Model
350
20
  0
DICTIONARY
  5
22
102
{ACAD_REACTORS
330
19
102
}
100
AcDbDictionary
280
               0
281
               1
  0
WIPEOUTVARIABLES
  5
23
100
AcDbWipeoutVariables
 70
               0
  0
ENDSEC
  0
EOF
