  0
SECTION
  2
HEADER
  9
$ACADVER
  1
AC1015
  9
$ACADMAINTVER
 70
               6
  9
$DWGCODEPAGE
  3
ANSI_932
  9
$INSBASE
 10
0.0
 20
0.0
 30
0.0
  9
$EXTMIN
 10
-404.80491999999992
 20
-199.33888000000002
 30
0.0
  9
$EXTMAX
 10
344.19508000000008
 20
240.58312000000001
 30
0.0
  9
$LIMMIN
 10
0.0
 20
0.0
  9
$LIMMAX
 10
0.0
 20
0.0
  9
$ORTHOMODE
 70
               0
  9
$REGENMODE
 70
               1
  9
$FILLMODE
 70
               1
  9
$QTEXTMODE
 70
               0
  9
$MIRRTEXT
 70
               1
  9
$LTSCALE
 40
50.799999999999997
  9
$ATTMODE
 70
               1
  9
$TEXTSIZE
 40
0.2
  9
$TRACEWID
 40
1.0
  9
$TEXTSTYLE
  7
Standard
  9
$CLAYER
  8
一般
  9
$CELTYPE
  6
Continuous
  9
$CECOLOR
 62
             256
  9
$CELTSCALE
 40
1.0
  9
$DISPSILH
 70
               0
  9
$DIMSCALE
 40
1.0
  9
$DIMASZ
 40
6.0027343749999993
  9
$DIMEXO
 40
3.9999999999999996
  9
$DIMDLI
 40
7.0
  9
$DIMRND
 40
0.0
  9
$DIMDLE
 40
0.0
  9
$DIMEXE
 40
3.9999999999999996
  9
$DIMTP
 40
0.0
  9
$DIMTM
 40
0.0
  9
$DIMTXT
 40
8.7312499999999993
  9
$DIMCEN
 40
0.0
  9
$DIMTSZ
 40
0.0
  9
$DIMTOL
 70
               0
  9
$DIMLIM
 70
               0
  9
$DIMTIH
 70
               0
  9
$DIMTOH
 70
               0
  9
$DIMSE1
 70
               0
  9
$DIMSE2
 70
               0
  9
$DIMTAD
 70
               1
  9
$DIMZIN
 70
              11
  9
$DIMBLK
  1
VW_FILLEDARROW
  9
$DIMASO
 70
               1
  9
$DIMSHO
 70
               1
  9
$DIMPOST
  1
<>
  9
$DIMAPOST
  1
[]
  9
$DIMALT
 70
               0
  9
$DIMALTD
 70
               2
  9
$DIMALTF
 40
1.0
  9
$DIMLFAC
 40
1.0
  9
$DIMTOFL
 70
               1
  9
$DIMTVP
 40
0.0
  9
$DIMTIX
 70
               1
  9
$DIMSOXD
 70
               0
  9
$DIMSAH
 70
               0
  9
$DIMBLK1
  1

  9
$DIMBLK2
  1

  9
$DIMSTYLE
  2
中谷
  9
$DIMCLRD
 70
               0
  9
$DIMCLRE
 70
               0
  9
$DIMCLRT
 70
               0
  9
$DIMTFAC
 40
1.0
  9
$DIMGAP
 40
0.0099999999627471
  9
$DIMJUST
 70
               0
  9
$DIMSD1
 70
               0
  9
$DIMSD2
 70
               0
  9
$DIMTOLJ
 70
               1
  9
$DIMTZIN
 70
              11
  9
$DIMALTZ
 70
              11
  9
$DIMALTTZ
 70
              11
  9
$DIMUPT
 70
               0
  9
$DIMDEC
 70
               2
  9
$DIMTDEC
 70
               2
  9
$DIMALTU
 70
               2
  9
$DIMALTTD
 70
               2
  9
$DIMTXSTY
  7
ＭＳ Ｐゴシック
  9
$DIMAUNIT
 70
               0
  9
$DIMADEC
 70
               0
  9
$DIMALTRND
 40
0.0
  9
$DIMAZIN
 70
               0
  9
$DIMDSEP
 70
              46
  9
$DIMATFIT
 70
               0
  9
$DIMFRAC
 70
               2
  9
$DIMLDRBLK
  1

  9
$DIMLUNIT
 70
               2
  9
$DIMLWD
 70
              -2
  9
$DIMLWE
 70
              -2
  9
$DIMTMOVE
 70
               0
  9
$LUNITS
 70
               2
  9
$LUPREC
 70
               4
  9
$SKETCHINC
 40
0.1
  9
$FILLETRAD
 40
0.0
  9
$AUNITS
 70
               0
  9
$AUPREC
 70
               0
  9
$MENU
  1
acad
  9
$ELEVATION
 40
0.0
  9
$PELEVATION
 40
0.0
  9
$THICKNESS
 40
0.0
  9
$LIMCHECK
 70
               0
  9
$CHAMFERA
 40
0.0
  9
$CHAMFERB
 40
0.0
  9
$CHAMFERC
 40
0.0
  9
$CHAMFERD
 40
0.0
  9
$SKPOLY
 70
               0
  9
$TDCREATE
 40
2454365.682453704
  9
$TDUCREATE
 40
0.000000000
  9
$TDUPDATE
 40
2454365.682453704
  9
$TDUUPDATE
 40
0.000000000
  9
$TDINDWG
 40
0.0000000000
  9
$TDUSRTIMER
 40
0.0000000000
  9
$USRTIMER
 70
               1
  9
$ANGBASE
 50
0.0
  9
$ANGDIR
 70
               0
  9
$PDMODE
 70
               1
  9
$PDSIZE
 40
-2.0
  9
$PLINEWID
 40
0.0
  9
$SPLFRAME
 70
               0
  9
$SPLINETYPE
 70
               6
  9
$SPLINESEGS
 70
               8
  9
$HANDSEED
  5
393
  9
$SURFTAB1
 70
               6
  9
$SURFTAB2
 70
               6
  9
$SURFTYPE
 70
               6
  9
$SURFU
 70
               6
  9
$SURFV
 70
               6
  9
$UCSBASE
  2

  9
$UCSNAME
  2

  9
$UCSORG
 10
0.0
 20
0.0
 30
0.0
  9
$UCSXDIR
 10
1.0
 20
0.0
 30
0.0
  9
$UCSYDIR
 10
0.0
 20
1.0
 30
0.0
  9
$UCSORTHOREF
  2

  9
$UCSORTHOVIEW
 70
               0
  9
$UCSORGTOP
 10
0.0
 20
0.0
 30
0.0
  9
$UCSORGBOTTOM
 10
0.0
 20
0.0
 30
0.0
  9
$UCSORGLEFT
 10
0.0
 20
0.0
 30
0.0
  9
$UCSORGRIGHT
 10
0.0
 20
0.0
 30
0.0
  9
$UCSORGFRONT
 10
0.0
 20
0.0
 30
0.0
  9
$UCSORGBACK
 10
0.0
 20
0.0
 30
0.0
  9
$PUCSBASE
  2

  9
$PUCSNAME
  2

  9
$PUCSORG
 10
0.0
 20
0.0
 30
0.0
  9
$PUCSXDIR
 10
1.0
 20
0.0
 30
0.0
  9
$PUCSYDIR
 10
0.0
 20
1.0
 30
0.0
  9
$PUCSORTHOREF
  2

  9
$PUCSORTHOVIEW
 70
               0
  9
$PUCSORGTOP
 10
0.0
 20
0.0
 30
0.0
  9
$PUCSORGBOTTOM
 10
0.0
 20
0.0
 30
0.0
  9
$PUCSORGLEFT
 10
0.0
 20
0.0
 30
0.0
  9
$PUCSORGRIGHT
 10
0.0
 20
0.0
 30
0.0
  9
$PUCSORGFRONT
 10
0.0
 20
0.0
 30
0.0
  9
$PUCSORGBACK
 10
0.0
 20
0.0
 30
0.0
  9
$USERI1
 70
               0
  9
$USERI2
 70
               0
  9
$USERI3
 70
               0
  9
$USERI4
 70
               0
  9
$USERI5
 70
               0
  9
$USERR1
 40
0.0
  9
$USERR2
 40
0.0
  9
$USERR3
 40
0.0
  9
$USERR4
 40
0.0
  9
$USERR5
 40
0.0
  9
$WORLDVIEW
 70
               1
  9
$SHADEDGE
 70
               3
  9
$SHADEDIF
 70
              70
  9
$TILEMODE
 70
               1
  9
$MAXACTVP
 70
              64
  9
$PINSBASE
 10
0.0
 20
0.0
 30
0.0
  9
$PLIMCHECK
 70
               0
  9
$PEXTMIN
 10
1.0000000000000000E+20
 20
1.0000000000000000E+20
 30
1.0000000000000000E+20
  9
$PEXTMAX
 10
-1.0000000000000000E+20
 20
-1.0000000000000000E+20
 30
-1.0000000000000000E+20
  9
$PLIMMIN
 10
0.0
 20
0.0
  9
$PLIMMAX
 10
12.0
 20
9.0
  9
$UNITMODE
 70
               0
  9
$VISRETAIN
 70
               0
  9
$PLINEGEN
 70
               1
  9
$PSLTSCALE
 70
               0
  9
$TREEDEPTH
 70
            3020
  9
$CMLSTYLE
  2
Standard
  9
$CMLJUST
 70
               0
  9
$CMLSCALE
 40
1.0
  9
$PROXYGRAPHICS
 70
               0
  9
$MEASUREMENT
 70
               1
  9
$CELWEIGHT
370
               0
  9
$ENDCAPS
280
               0
  9
$JOINSTYLE
280
               0
  9
$LWDISPLAY
290
               1
  9
$INSUNITS
 70
               4
  9
$HYPERLINKBASE
  1

  9
$STYLESHEET
  1

  9
$XEDIT
290
               1
  9
$CEPSNTYPE
380
               0
  9
$PSTYLEMODE
290
               1
  9
$FINGERPRINTGUID
  2

  9
$VERSIONGUID
  2

  9
$EXTNAMES
290
               1
  9
$PSVPSCALE
 40
0.0
  0
ENDSEC
  0
SECTION
  2
CLASSES
  0
CLASS
  1
LWPOLYLINE
  2
AcDbPolyline
  3
AutoCAD 2000
 90
        0
280
               0
281
               1
  0
CLASS
  1
IMAGE
  2
AcDbRasterImage
  3
ISM
 90
      127
280
               0
281
               1
  0
CLASS
  1
OLE2FRAME
  2
AcDbOle2Frame
  3
AutoCAD 2000
 90
        0
280
               0
281
               1
  0
CLASS
  1
HATCH
  2
AcDbHatch
  3
AutoCAD 2000
 90
        0
280
               0
281
               1
  0
CLASS
  1
DICTIONARYVAR
  2
AcDbDictionaryVar
  3
AutoCAD 2000
 90
        0
280
               0
281
               0
  0
CLASS
  1
RASTERVARIABLES
  2
AcDbRasterVariables
  3
ISM
 90
        0
280
               0
281
               0
  0
CLASS
  1
IMAGEDEF
  2
AcDbRasterImageDef
  3
ISM
 90
        0
280
               0
281
               0
  0
CLASS
  1
IMAGEDEF_REACTOR
  2
AcDbRasterImageDefReactor
  3
ISM
 90
        1
280
               0
281
               0
  0
CLASS
  1
IDBUFFER
  2
AcDbIdBuffer
  3
AutoCAD 2000
 90
        0
280
               0
281
               0
  0
CLASS
  1
SPATIAL_FILTER
  2
AcDbSpatialFilter
  3
AutoCAD 2000
 90
        0
280
               0
281
               0
  0
CLASS
  1
XRECORD
  2
AcDbXrecord
  3
AutoCAD 2000
 90
        0
280
               0
281
               0
  0
CLASS
  1
SORTENTSTABLE
  2
AcDbSortentsTable
  3
AutoCAD 2000
 90
        0
280
               0
281
               0
  0
CLASS
  1
LAYER_INDEX
  2
AcDbLayerIndex
  3
AutoCAD 2000
 90
        0
280
               0
281
               0
  0
CLASS
  1
SPATIAL_INDEX
  2
AcDbSpatialIndex
  3
AutoCAD 2000
 90
        0
280
               0
281
               0
  0
CLASS
  1
OBJECT_PTR
  2
CAseDLPNTableRecord
  3
"ASE-LPNTableRecord"
 90
        1
280
               0
281
               0
  0
CLASS
  1
LAYOUT
  2
AcDbLayout
  3
AutoCAD 2000
 90
        0
280
               0
281
               0
  0
CLASS
  1
PLOTSETTINGS
  2
AcDbPlotSettings
  3
AutoCAD 2000
 90
        0
280
               0
281
               0
  0
CLASS
  1
ACDBDICTIONARYWDFLT
  2
AcDbDictionaryWithDefault
  3
AutoCAD 2000
 90
        0
280
               0
281
               0
  0
CLASS
  1
ACDBPLACEHOLDER
  2
AcDbPlaceHolder
  3
AutoCAD 2000
 90
        0
280
               0
281
               0
  0
CLASS
  1
VBA_PROJECT
  2
AcDbVbaProject
  3
acadvba
 90
        0
280
               0
281
               0
  0
CLASS
  1
WIPEOUT
  2
AcDbWipeout
  3
WipeOut|AutoCAD Express Tool|expresstools@autodesk.com
 90
      127
280
               0
281
               1
  0
CLASS
  1
WIPEOUTVARIABLES
  2
AcDbWipeoutVariables
  3
WipeOut|AutoCAD Express Tool|expresstools@autodesk.com
 90
        0
280
               0
281
               0
  0
CLASS
  1
RTEXT
  2
RText
  3
RText|AutoCAD Express Tool|expresstools@autodesk.com
 90
        0
280
               0
281
               1
  0
CLASS
  1
ARCALIGNEDTEXT
  2
AcDbArcAlignedText
  3
ATEXT|AutoCAD Express Tool|expresstools@autodesk.com
 90
        0
280
               0
281
               1
  0
ENDSEC
  0
SECTION
  2
TABLES
  0
TABLE
  2
VPORT
  5
7
100
AcDbSymbolTable
 70
               1
  0
VPORT
  5
15
100
AcDbSymbolTableRecord
100
AcDbViewportTableRecord
  2
*ACTIVE
 70
               0
 10
0.0
 20
0.0
 11
1.0
 21
1.0
 12
-30.304919999999925
 22
20.622119999999995
 13
0.0
 23
0.0
 14
1.0
 24
1.0
 15
0.0
 25
0.0
 16
0.0
 26
0.0
 36
1.0
 17
0.0
 27
0.0
 37
0.0
 40
439.92200000000003
 41
0.688564
 42
50.0
 43
0.0
 44
0.0
 50
0.0
 51
0.0
 71
               0
 72
            2000
 73
               1
 74
               1
 75
               0
 76
               0
 77
               0
 78
               0
281
               0
 65
               0
110
0.0
120
0.0
130
0.0
111
1.0
121
0.0
131
0.0
112
0.0
122
1.0
132
0.0
345
0
346
0
 79
               0
146
0.0
  0
ENDTAB
  0
TABLE
  2
LTYPE
  5
4
100
AcDbSymbolTable
 70
              27
  0
LTYPE
  5
11
100
AcDbSymbolTableRecord
100
AcDbLinetypeTableRecord
  2
ByBlock
 70
              64
  3

 72
              65
 73
               0
 40
0.0
  0
LTYPE
  5
12
100
AcDbSymbolTableRecord
100
AcDbLinetypeTableRecord
  2
ByLayer
 70
              64
  3

 72
              65
 73
               0
 40
0.0
  0
LTYPE
  5
13
100
AcDbSymbolTableRecord
100
AcDbLinetypeTableRecord
  2
Continuous
 70
              64
  3
Solid line
 72
              65
 73
               0
 40
0.0
  0
LTYPE
  5
3C
100
AcDbSymbolTableRecord
100
AcDbLinetypeTableRecord
  2
STYLE_01
 70
               0
  3

 72
              65
 73
               2
 40
0.166656494140625
 49
0.08331298828125
 74
               0
 49
-0.083343505859375
 74
               0
  0
LTYPE
  5
3D
100
AcDbSymbolTableRecord
100
AcDbLinetypeTableRecord
  2
STYLE_02
 70
               0
  3

 72
              65
 73
               2
 40
0.27777099609375
 49
0.194427490234375
 74
               0
 49
-0.083343505859375
 74
               0
  0
LTYPE
  5
3E
100
AcDbSymbolTableRecord
100
AcDbLinetypeTableRecord
  2
STYLE_03
 70
               0
  3

 72
              65
 73
               2
 40
0.5
 49
0.416656494140625
 74
               0
 49
-0.083343505859375
 74
               0
  0
LTYPE
  5
3F
100
AcDbSymbolTableRecord
100
AcDbLinetypeTableRecord
  2
STYLE_04
 70
               0
  3

 72
              65
 73
               2
 40
0.611083984375
 49
0.52777099609375
 74
               0
 49
-0.08331298828125
 74
               0
  0
LTYPE
  5
40
100
AcDbSymbolTableRecord
100
AcDbLinetypeTableRecord
  2
STYLE_05
 70
               0
  3

 72
              65
 73
               2
 40
0.08331298828125
 49
0.02777099609375
 74
               0
 49
-0.0555419921875
 74
               0
  0
LTYPE
  5
41
100
AcDbSymbolTableRecord
100
AcDbLinetypeTableRecord
  2
STYLE_06
 70
               0
  3

 72
              65
 73
               4
 40
0.3055419921875
 49
0.166656494140625
 74
               0
 49
-0.055572509765625
 74
               0
 49
0.02777099609375
 74
               0
 49
-0.0555419921875
 74
               0
  0
LTYPE
  5
42
100
AcDbSymbolTableRecord
100
AcDbLinetypeTableRecord
  2
STYLE_07
 70
               0
  3

 72
              65
 73
               6
 40
0.75
 49
0.25
 74
               0
 49
-0.08331298828125
 74
               0
 49
0.25
 74
               0
 49
-0.083343505859375
 74
               0
 49
0.02777099609375
 74
               0
 49
-0.055572509765625
 74
               0
  0
LTYPE
  5
43
100
AcDbSymbolTableRecord
100
AcDbLinetypeTableRecord
  2
STYLE_08
 70
               0
  3

 72
              65
 73
               6
 40
0.5
 49
0.25
 74
               0
 49
-0.08331298828125
 74
               0
 49
0.02777099609375
 74
               0
 49
-0.055572509765625
 74
               0
 49
0.02777099609375
 74
               0
 49
-0.055572509765625
 74
               0
  0
LTYPE
  5
44
100
AcDbSymbolTableRecord
100
AcDbLinetypeTableRecord
  2
STYLE_09
 70
               0
  3

 72
              65
 73
               4
 40
0.3055419921875
 49
0.138885498046875
 74
               0
 49
-0.055572509765625
 74
               0
 49
0.0555419921875
 74
               0
 49
-0.0555419921875
 74
               0
  0
LTYPE
  5
45
100
AcDbSymbolTableRecord
100
AcDbLinetypeTableRecord
  2
STYLE_10
 70
               0
  3

 72
              65
 73
               6
 40
2.375
 49
1.5
 74
               0
 49
-0.111114501953125
 74
               0
 49
0.27777099609375
 74
               0
 49
-0.111114501953125
 74
               0
 49
0.25
 74
               0
 49
-0.125
 74
               0
  0
LTYPE
  5
46
100
AcDbSymbolTableRecord
100
AcDbLinetypeTableRecord
  2
STYLE_11
 70
               0
  3

 72
              65
 73
               2
 40
0.403472900390625
 49
0.26898193359375
 74
               0
 49
-0.134490966796875
 74
               0
  0
LTYPE
  5
47
100
AcDbSymbolTableRecord
100
AcDbLinetypeTableRecord
  2
STYLE_12
 70
               0
  3

 72
              65
 73
               2
 40
0.20172119140625
 49
0.134490966796875
 74
               0
 49
-0.067230224609375
 74
               0
  0
LTYPE
  5
48
100
AcDbSymbolTableRecord
100
AcDbLinetypeTableRecord
  2
STYLE_13
 70
               0
  3

 72
              65
 73
               4
 40
1.075927734375
 49
0.672454833984375
 74
               0
 49
-0.134490966796875
 74
               0
 49
0.134490966796875
 74
               0
 49
-0.134490966796875
 74
               0
  0
LTYPE
  5
49
100
AcDbSymbolTableRecord
100
AcDbLinetypeTableRecord
  2
STYLE_14
 70
               0
  3

 72
              65
 73
               6
 40
1.34490966796875
 49
0.672454833984375
 74
               0
 49
-0.134490966796875
 74
               0
 49
0.134490966796875
 74
               0
 49
-0.134490966796875
 74
               0
 49
0.134490966796875
 74
               0
 49
-0.134490966796875
 74
               0
  0
LTYPE
  5
4A
100
AcDbSymbolTableRecord
100
AcDbLinetypeTableRecord
  2
STYLE_15
 70
               0
  3

 72
              65
 73
               4
 40
0.5
 49
0.25
 74
               0
 49
-0.083343505859375
 74
               0
 49
0.08331298828125
 74
               0
 49
-0.083343505859375
 74
               0
  0
LTYPE
  5
4B
100
AcDbSymbolTableRecord
100
AcDbLinetypeTableRecord
  2
STYLE_16
 70
               0
  3

 72
              65
 73
               6
 40
0.52777099609375
 49
0.22222900390625
 74
               0
 49
-0.08331298828125
 74
               0
 49
0.0555419921875
 74
               0
 49
-0.055572509765625
 74
               0
 49
0.055572509765625
 74
               0
 49
-0.0555419921875
 74
               0
  0
LTYPE
  5
4C
100
AcDbSymbolTableRecord
100
AcDbLinetypeTableRecord
  2
STYLE_17
 70
               0
  3

 72
              65
 73
               2
 40
0.40191650390625
 49
0.2679443359375
 74
               0
 49
-0.13397216796875
 74
               0
  0
LTYPE
  5
4D
100
AcDbSymbolTableRecord
100
AcDbLinetypeTableRecord
  2
STYLE_18
 70
               0
  3

 72
              65
 73
               4
 40
2.14361572265625
 49
1.33978271484375
 74
               0
 49
-0.2679443359375
 74
               0
 49
0.2679443359375
 74
               0
 49
-0.2679443359375
 74
               0
  0
LTYPE
  5
4E
100
AcDbSymbolTableRecord
100
AcDbLinetypeTableRecord
  2
STYLE_19
 70
               0
  3

 72
              65
 73
               2
 40
0.803863525390625
 49
0.535919189453125
 74
               0
 49
-0.2679443359375
 74
               0
  0
LTYPE
  5
4F
100
AcDbSymbolTableRecord
100
AcDbLinetypeTableRecord
  2
STYLE_20
 70
               0
  3

 72
              65
 73
               4
 40
2.0
 49
1.5
 74
               0
 49
-0.111114501953125
 74
               0
 49
0.27777099609375
 74
               0
 49
-0.111114501953125
 74
               0
  0
LTYPE
  5
50
100
AcDbSymbolTableRecord
100
AcDbLinetypeTableRecord
  2
STYLE_21
 70
               0
  3

 72
              65
 73
               4
 40
0.52777099609375
 49
0.27777099609375
 74
               0
 49
-0.083343505859375
 74
               0
 49
0.083343505859375
 74
               0
 49
-0.08331298828125
 74
               0
  0
LTYPE
  5
51
100
AcDbSymbolTableRecord
100
AcDbLinetypeTableRecord
  2
STYLE_22
 70
               0
  3

 72
              65
 73
               4
 40
1.27984619140625
 49
0.7999267578125
 74
               0
 49
-0.15997314453125
 74
               0
 49
0.15997314453125
 74
               0
 49
-0.15997314453125
 74
               0
  0
LTYPE
  5
52
100
AcDbSymbolTableRecord
100
AcDbLinetypeTableRecord
  2
STYLE_23
 70
               0
  3

 72
              65
 73
               6
 40
1.59979248046875
 49
0.7999267578125
 74
               0
 49
-0.15997314453125
 74
               0
 49
0.15997314453125
 74
               0
 49
-0.15997314453125
 74
               0
 49
0.15997314453125
 74
               0
 49
-0.15997314453125
 74
               0
  0
LTYPE
  5
53
100
AcDbSymbolTableRecord
100
AcDbLinetypeTableRecord
  2
STYLE_24
 70
               0
  3

 72
              65
 73
               2
 40
0.479949951171875
 49
0.319976806640625
 74
               0
 49
-0.15997314453125
 74
               0
  0
ENDTAB
  0
TABLE
  2
LAYER
  5
2
100
AcDbSymbolTable
 70
               7
  0
LAYER
  5
14
100
AcDbSymbolTableRecord
100
AcDbLayerTableRecord
  2
0
 70
               0
 62
               7
  6
Continuous
290
               1
370
              15
390
1D
  0
LAYER
  5
54
100
AcDbSymbolTableRecord
100
AcDbLayerTableRecord
  2
Defpoints
 70
               0
 62
               7
  6
Continuous
290
               0
370
              -3
390
1D
  0
LAYER
  5
55
100
AcDbSymbolTableRecord
100
AcDbLayerTableRecord
  2
一般
 70
               0
 62
               7
  6
Continuous
290
               1
370
               5
390
1D
  0
LAYER
  5
56
100
AcDbSymbolTableRecord
100
AcDbLayerTableRecord
  2
寸法
 70
               0
 62
               7
  6
Continuous
290
               1
370
               5
390
1D
  0
LAYER
  5
57
100
AcDbSymbolTableRecord
100
AcDbLayerTableRecord
  2
001
 70
               0
 62
               7
  6
Continuous
290
               1
370
              15
390
1D
  0
LAYER
  5
58
100
AcDbSymbolTableRecord
100
AcDbLayerTableRecord
  2
255
 70
               0
 62
               7
  6
Continuous
290
               1
370
              15
390
1D
  0
LAYER
  5
59
100
AcDbSymbolTableRecord
100
AcDbLayerTableRecord
  2
003
 70
               0
 62
               7
  6
Continuous
290
               1
370
              15
390
1D
  0
ENDTAB
  0
TABLE
  2
STYLE
  5
3
100
AcDbSymbolTable
 70
               4
  0
STYLE
  5
17
100
AcDbSymbolTableRecord
100
AcDbTextStyleTableRecord
  2
Standard
 70
               0
 40
0.0
 41
1.0
 50
0.0
 71
               0
 42
0.0
  3
txt
  4
BIGFONT.SHX
  0
STYLE
  5
39
100
AcDbSymbolTableRecord
100
AcDbTextStyleTableRecord
  2
HG創英角ｺﾞｼｯｸUB
 70
               0
 40
0.0
 41
1.0
 50
0.0
 71
               0
 42
0.0
  3

  4
HG創英角ｺﾞｼｯｸUB
1001
ACAD
1000
HG創英角ｺﾞｼｯｸUB
1071
        0
  0
STYLE
  5
3A
100
AcDbSymbolTableRecord
100
AcDbTextStyleTableRecord
  2
ＭＳ Ｐゴシック
 70
               0
 40
0.0
 41
1.0
 50
0.0
 71
               0
 42
0.0
  3

  4
ＭＳ Ｐゴシック
1001
ACAD
1000
ＭＳ Ｐゴシック
1071
        0
  0
STYLE
  5
3B
100
AcDbSymbolTableRecord
100
AcDbTextStyleTableRecord
  2
ＭＳ Ｐゴシック (bold)
 70
               0
 40
0.0
 41
1.0
 50
0.0
 71
               0
 42
0.0
  3

  4
ＭＳ Ｐゴシック
1001
ACAD
1000
ＭＳ Ｐゴシック
1071
 33554432
  0
ENDTAB
  0
TABLE
  2
VIEW
  5
5
100
AcDbSymbolTable
 70
               0
  0
ENDTAB
  0
TABLE
  2
UCS
  5
6
100
AcDbSymbolTable
 70
               0
  0
ENDTAB
  0
TABLE
  2
APPID
  5
8
100
AcDbSymbolTable
 70
               1
  0
APPID
  5
16
100
AcDbSymbolTableRecord
100
AcDbRegAppTableRecord
  2
ACAD
 70
               0
  0
ENDTAB
  0
TABLE
  2
DIMSTYLE
  5
9
100
AcDbSymbolTable
 70
               2
100
AcDbDimStyleTable
 71
               0
  0
DIMSTYLE
105
18
100
AcDbSymbolTableRecord
100
AcDbDimStyleTableRecord
  2
Standard
 70
               0
  3

  4

 40
1.0
 41
0.18
 42
0.0625
 43
0.38
 44
0.18
 45
0.0
 46
0.0
 47
0.0
 48
0.0
 71
               0
 72
               0
 73
               1
 74
               1
 75
               0
 76
               0
 77
               0
 78
               0
 79
               0
140
0.18
141
0.09
142
0.0
143
25.399999999999999
144
1.0
145
0.0
146
1.0
147
0.09
148
0.0
170
               0
171
               2
172
               0
173
               0
174
               0
175
               0
176
               0
177
               0
178
               0
179
               0
271
               4
272
               4
273
               2
274
               2
275
               0
276
               0
277
               2
278
              46
279
               0
280
               0
281
               0
282
               0
283
               1
284
               0
285
               0
286
               0
288
               0
289
               3
340
17
341
0
342
0
343
0
344
0
371
              -2
372
              -2
  0
DIMSTYLE
105
5E
100
AcDbSymbolTableRecord
100
AcDbDimStyleTableRecord
  2
中谷
 70
               0
  3
<>
  4
[]
 40
1.0
 41
6.0027343749999993
 42
3.9999999999999996
 43
7.0
 44
3.9999999999999996
 45
0.0
 46
0.0
 47
0.0
 48
0.0
 71
               0
 72
               0
 73
               0
 74
               0
 75
               0
 76
               0
 77
               1
 78
              11
 79
               0
140
8.7312499999999993
141
0.0
142
0.0
143
1.0
144
1.0
145
0.0
146
1.0
147
0.0099999999627471
148
0.0
170
               0
171
               2
172
               1
173
               0
174
               1
175
               0
176
               0
177
               0
178
               0
179
               0
271
               2
272
               2
273
               2
274
               2
275
               0
276
               2
277
               2
278
              46
279
               0
280
               0
281
               0
282
               0
283
               1
284
              11
285
              11
286
              11
288
               0
289
               0
340
3A
341
5A
342
5A
343
0
344
0
371
              -2
372
              -2
  0
ENDTAB
  0
TABLE
  2
BLOCK_RECORD
  5
1
100
AcDbSymbolTable
 70
              22
  0
BLOCK_RECORD
  5
A
100
AcDbSymbolTableRecord
100
AcDbBlockTableRecord
  2
*MODEL_SPACE
340
20
  0
BLOCK_RECORD
  5
B
100
AcDbSymbolTableRecord
100
AcDbBlockTableRecord
  2
*PAPER_SPACE
340
21
  0
BLOCK_RECORD
  5
5A
100
AcDbSymbolTableRecord
100
AcDbBlockTableRecord
  2
VW_FILLEDARROW
340
0
  0
BLOCK_RECORD
  5
24
100
AcDbSymbolTableRecord
100
AcDbBlockTableRecord
  2
*D1
340
0
  0
BLOCK_RECORD
  5
25
100
AcDbSymbolTableRecord
100
AcDbBlockTableRecord
  2
*D2
340
0
  0
BLOCK_RECORD
  5
26
100
AcDbSymbolTableRecord
100
AcDbBlockTableRecord
  2
*D3
340
0
  0
BLOCK_RECORD
  5
27
100
AcDbSymbolTableRecord
100
AcDbBlockTableRecord
  2
*D4
340
0
  0
BLOCK_RECORD
  5
28
100
AcDbSymbolTableRecord
100
AcDbBlockTableRecord
  2
*D5
340
0
  0
BLOCK_RECORD
  5
29
100
AcDbSymbolTableRecord
100
AcDbBlockTableRecord
  2
*D6
340
0
  0
BLOCK_RECORD
  5
2A
100
AcDbSymbolTableRecord
100
AcDbBlockTableRecord
  2
*D7
340
0
  0
BLOCK_RECORD
  5
2B
100
AcDbSymbolTableRecord
100
AcDbBlockTableRecord
  2
*D8
340
0
  0
BLOCK_RECORD
  5
2C
100
AcDbSymbolTableRecord
100
AcDbBlockTableRecord
  2
*D9
340
0
  0
BLOCK_RECORD
  5
2D
100
AcDbSymbolTableRecord
100
AcDbBlockTableRecord
  2
*D10
340
0
  0
BLOCK_RECORD
  5
2E
100
AcDbSymbolTableRecord
100
AcDbBlockTableRecord
  2
*D11
340
0
  0
BLOCK_RECORD
  5
2F
100
AcDbSymbolTableRecord
100
AcDbBlockTableRecord
  2
*D12
340
0
  0
BLOCK_RECORD
  5
30
100
AcDbSymbolTableRecord
100
AcDbBlockTableRecord
  2
*D13
340
0
  0
BLOCK_RECORD
  5
31
100
AcDbSymbolTableRecord
100
AcDbBlockTableRecord
  2
*D14
340
0
  0
BLOCK_RECORD
  5
32
100
AcDbSymbolTableRecord
100
AcDbBlockTableRecord
  2
*D15
340
0
  0
BLOCK_RECORD
  5
33
100
AcDbSymbolTableRecord
100
AcDbBlockTableRecord
  2
*D16
340
0
  0
BLOCK_RECORD
  5
34
100
AcDbSymbolTableRecord
100
AcDbBlockTableRecord
  2
*D17
340
0
  0
BLOCK_RECORD
  5
35
100
AcDbSymbolTableRecord
100
AcDbBlockTableRecord
  2
*D18
340
0
  0
BLOCK_RECORD
  5
36
100
AcDbSymbolTableRecord
100
AcDbBlockTableRecord
  2
*D19
340
0
  0
BLOCK_RECORD
  5
37
100
AcDbSymbolTableRecord
100
AcDbBlockTableRecord
  2
*D20
340
0
  0
BLOCK_RECORD
  5
38
100
AcDbSymbolTableRecord
100
AcDbBlockTableRecord
  2
*D21
340
0
  0
ENDTAB
  0
ENDSEC
  0
SECTION
  2
BLOCKS
  0
BLOCK
  5
D
100
AcDbEntity
  8
0
390
0
100
AcDbBlockBegin
  2
*MODEL_SPACE
 70
               0
 10
0.0
 20
0.0
 30
0.0
  3
*MODEL_SPACE
  1

  0
ENDBLK
  5
E
100
AcDbEntity
  8
0
390
0
100
AcDbBlockEnd
  0
BLOCK
  5
F
100
AcDbEntity
 67
               1
  8
0
390
0
100
AcDbBlockBegin
  2
*PAPER_SPACE
 70
               0
 10
0.0
 20
0.0
 30
0.0
  3
*PAPER_SPACE
  1

  0
ENDBLK
  5
10
100
AcDbEntity
 67
               1
  8
0
390
0
100
AcDbBlockEnd
  0
BLOCK
  5
5B
100
AcDbEntity
  8
0
370
              -2
390
0
  6
ByBlock
 62
               0
100
AcDbBlockBegin
  2
VW_FILLEDARROW
 70
               0
 10
0.0
 20
0.0
 30
0.0
  3
VW_FILLEDARROW
  1

  0
SOLID
  5
5C
100
AcDbEntity
  8
0
370
              -2
390
0
 62
               0
100
AcDbTrace
 10
0.0
 20
0.0
 30
0.0
 11
-0.998388671875
 21
-0.2122140633040501
 31
0.0
 12
-0.998388671875
 22
0.2122140633040499
 32
0.0
 13
-0.998388671875
 23
0.2122140633040499
 33
0.0
  0
ENDBLK
  5
5D
100
AcDbEntity
  8
0
390
0
100
AcDbBlockEnd
  0
BLOCK
  5
5F
100
AcDbEntity
  8
寸法
390
0
100
AcDbBlockBegin
  2
*D1
 70
               1
 10
0.0
 20
0.0
 30
0.0
  3
*D1
  1

  0
LINE
  5
60
100
AcDbEntity
  8
寸法
370
              -2
390
0
  6
Continuous
 62
               0
100
AcDbLine
 10
-355.99331999999993
 20
144.66111999999993
 30
0.0
 11
-355.99331999999993
 21
162.66111999999993
 31
0.0
  0
LINE
  5
61
100
AcDbEntity
  8
寸法
370
              -2
390
0
  6
Continuous
 62
               0
100
AcDbLine
 10
-250.99331999999995
 20
114.0
 30
0.0
 11
-250.99331999999995
 21
162.66111999999993
 31
0.0
  0
LINE
  5
62
100
AcDbEntity
  8
寸法
370
              -2
390
0
  6
Continuous
 62
               0
100
AcDbLine
 10
-355.99331999999993
 20
158.66111999999993
 30
0.0
 11
-250.99331999999995
 21
158.66111999999993
 31
0.0
  0
SOLID
  5
63
100
AcDbEntity
  8
寸法
370
              -2
390
0
 62
               0
100
AcDbTrace
 10
-355.99331999999993
 20
158.66111999999993
 30
0.0
 11
-349.99058562499994
 21
159.93704057936839
 31
0.0
 12
-349.99058562499994
 22
157.38519942063147
 32
0.0
 13
-349.99058562499994
 23
157.38519942063147
 33
0.0
  0
SOLID
  5
64
100
AcDbEntity
  8
寸法
370
              -2
390
0
 62
               0
100
AcDbTrace
 10
-250.99331999999995
 20
158.66111999999993
 30
0.0
 11
-256.99605437499997
 21
157.38519942063147
 31
0.0
 12
-256.99605437499997
 22
159.93704057936839
 32
0.0
 13
-256.99605437499997
 23
159.93704057936839
 33
0.0
  0
MTEXT
  5
65
100
AcDbEntity
  8
寸法
390
0
 62
               0
100
AcDbMText
 10
-313.01832067287012
 20
169.20036999999991
 30
0.0
 40
8.7312499999999993
 41
0.0
 71
               1
 72
               1
  1
105
  7
ＭＳ Ｐゴシック
 73
               1
 44
0.8762322015334064
  0
POINT
  5
66
100
AcDbEntity
  8
Defpoints
370
               0
390
0
 62
               0
100
AcDbPoint
 10
-250.99331999999995
 20
110.0
 30
0.0
  0
POINT
  5
67
100
AcDbEntity
  8
Defpoints
370
               0
390
0
 62
               0
100
AcDbPoint
 10
-355.99331999999993
 20
140.66111999999993
 30
0.0
  0
POINT
  5
68
100
AcDbEntity
  8
Defpoints
370
               0
390
0
 62
               0
100
AcDbPoint
 10
-355.99331999999993
 20
158.66111999999993
 30
0.0
  0
ENDBLK
  5
69
100
AcDbEntity
  8
寸法
390
0
100
AcDbBlockEnd
  0
BLOCK
  5
6A
100
AcDbEntity
  8
寸法
390
0
100
AcDbBlockBegin
  2
*D2
 70
               1
 10
0.0
 20
0.0
 30
0.0
  3
*D2
  1

  0
LINE
  5
6B
100
AcDbEntity
  8
寸法
370
              -2
390
0
  6
Continuous
 62
               0
100
AcDbLine
 10
-355.99331999999993
 20
142.66111999999993
 30
0.0
 11
-355.99331999999993
 21
182.66111999999993
 31
0.0
  0
LINE
  5
6C
100
AcDbEntity
  8
寸法
370
              -2
390
0
  6
Continuous
 62
               0
100
AcDbLine
 10
-155.99331999999995
 20
129.0
 30
0.0
 11
-155.99331999999995
 21
182.66111999999993
 31
0.0
  0
LINE
  5
6D
100
AcDbEntity
  8
寸法
370
              -2
390
0
  6
Continuous
 62
               0
100
AcDbLine
 10
-355.99331999999993
 20
178.66111999999993
 30
0.0
 11
-155.99331999999995
 21
178.66111999999993
 31
0.0
  0
SOLID
  5
6E
100
AcDbEntity
  8
寸法
370
              -2
390
0
 62
               0
100
AcDbTrace
 10
-355.99331999999993
 20
178.66111999999993
 30
0.0
 11
-349.99058562499994
 21
179.93704057936839
 31
0.0
 12
-349.99058562499994
 22
177.38519942063147
 32
0.0
 13
-349.99058562499994
 23
177.38519942063147
 33
0.0
  0
SOLID
  5
6F
100
AcDbEntity
  8
寸法
370
              -2
390
0
 62
               0
100
AcDbTrace
 10
-155.99331999999995
 20
178.66111999999993
 30
0.0
 11
-161.99605437499994
 21
177.38519942063147
 31
0.0
 12
-161.99605437499994
 22
179.93704057936839
 32
0.0
 13
-161.99605437499994
 23
179.93704057936839
 33
0.0
  0
MTEXT
  5
70
100
AcDbEntity
  8
寸法
390
0
 62
               0
100
AcDbMText
 10
-265.51832067287012
 20
189.20036999999991
 30
0.0
 40
8.7312499999999993
 41
0.0
 71
               1
 72
               1
  1
200
  7
ＭＳ Ｐゴシック
 73
               1
 44
0.8762322015334064
  0
POINT
  5
71
100
AcDbEntity
  8
Defpoints
370
               0
390
0
 62
               0
100
AcDbPoint
 10
-155.99331999999995
 20
125.0
 30
0.0
  0
POINT
  5
72
100
AcDbEntity
  8
Defpoints
370
               0
390
0
 62
               0
100
AcDbPoint
 10
-355.99331999999993
 20
138.66111999999993
 30
0.0
  0
POINT
  5
73
100
AcDbEntity
  8
Defpoints
370
               0
390
0
 62
               0
100
AcDbPoint
 10
-355.99331999999993
 20
178.66111999999993
 30
0.0
  0
ENDBLK
  5
74
100
AcDbEntity
  8
寸法
390
0
100
AcDbBlockEnd
  0
BLOCK
  5
75
100
AcDbEntity
  8
寸法
390
0
100
AcDbBlockBegin
  2
*D3
 70
               1
 10
0.0
 20
0.0
 30
0.0
  3
*D3
  1

  0
LINE
  5
76
100
AcDbEntity
  8
寸法
370
              -2
390
0
  6
Continuous
 62
               0
100
AcDbLine
 10
-359.99331999999993
 20
125.0
 30
0.0
 11
-374.80491999999992
 21
125.0
 31
0.0
  0
LINE
  5
77
100
AcDbEntity
  8
寸法
370
              -2
390
0
  6
Continuous
 62
               0
100
AcDbLine
 10
-359.99331999999993
 20
140.0
 30
0.0
 11
-374.80491999999992
 21
140.0
 31
0.0
  0
LINE
  5
78
100
AcDbEntity
  8
寸法
370
              -2
390
0
  6
Continuous
 62
               0
100
AcDbLine
 10
-370.80491999999992
 20
140.0
 30
0.0
 11
-370.80491999999992
 21
125.0
 31
0.0
  0
LINE
  5
79
100
AcDbEntity
  8
寸法
370
              -2
390
0
  6
Continuous
 62
               0
100
AcDbLine
 10
-370.80491999999992
 20
125.0
 30
0.0
 11
-370.80491999999992
 21
117.0
 31
0.0
  0
SOLID
  5
7A
100
AcDbEntity
  8
寸法
370
              -2
390
0
 62
               0
100
AcDbTrace
 10
-370.80491999999992
 20
125.0
 30
0.0
 11
-369.52899942063146
 21
118.997265625
 31
0.0
 12
-372.08084057936838
 22
118.997265625
 32
0.0
 13
-372.08084057936838
 23
118.997265625
 33
0.0
  0
LINE
  5
7B
100
AcDbEntity
  8
寸法
370
              -2
390
0
  6
Continuous
 62
               0
100
AcDbLine
 10
-370.80491999999992
 20
140.0
 30
0.0
 11
-370.80491999999992
 21
160.34999999999999
 31
0.0
  0
SOLID
  5
7C
100
AcDbEntity
  8
寸法
370
              -2
390
0
 62
               0
100
AcDbTrace
 10
-370.80491999999992
 20
140.0
 30
0.0
 11
-372.08084057936838
 21
146.00273437499999
 31
0.0
 12
-369.52899942063146
 22
146.00273437499999
 32
0.0
 13
-369.52899942063146
 23
146.00273437499999
 33
0.0
  0
MTEXT
  5
7D
100
AcDbEntity
  8
寸法
390
0
 62
               0
100
AcDbMText
 10
-381.34416999999996
 20
147.65000000000001
 30
0.0
 40
8.7312499999999993
 41
0.0
 71
               1
 72
               1
  1
15
  7
ＭＳ Ｐゴシック
 11
0.0
 21
1.0
 31
0.0
 73
               1
 44
0.8762322015334064
  0
POINT
  5
7E
100
AcDbEntity
  8
Defpoints
370
               0
390
0
 62
               0
100
AcDbPoint
 10
-355.99331999999993
 20
140.0
 30
0.0
  0
POINT
  5
7F
100
AcDbEntity
  8
Defpoints
370
               0
390
0
 62
               0
100
AcDbPoint
 10
-355.99331999999993
 20
125.0
 30
0.0
  0
POINT
  5
80
100
AcDbEntity
  8
Defpoints
370
               0
390
0
 62
               0
100
AcDbPoint
 10
-370.80491999999992
 20
125.0
 30
0.0
  0
ENDBLK
  5
81
100
AcDbEntity
  8
寸法
390
0
100
AcDbBlockEnd
  0
BLOCK
  5
82
100
AcDbEntity
  8
寸法
390
0
100
AcDbBlockBegin
  2
*D4
 70
               1
 10
0.0
 20
0.0
 30
0.0
  3
*D4
  1

  0
LINE
  5
83
100
AcDbEntity
  8
寸法
370
              -2
390
0
  6
Continuous
 62
               0
100
AcDbLine
 10
-359.99331999999993
 20
125.0
 30
0.0
 11
-374.80491999999992
 21
125.0
 31
0.0
  0
LINE
  5
84
100
AcDbEntity
  8
寸法
370
              -2
390
0
  6
Continuous
 62
               0
100
AcDbLine
 10
-359.99331999999993
 20
40.0
 30
0.0
 11
-374.80491999999992
 21
40.0
 31
0.0
  0
LINE
  5
85
100
AcDbEntity
  8
寸法
370
              -2
390
0
  6
Continuous
 62
               0
100
AcDbLine
 10
-370.80491999999992
 20
125.0
 30
0.0
 11
-370.80491999999992
 21
40.0
 31
0.0
  0
SOLID
  5
86
100
AcDbEntity
  8
寸法
370
              -2
390
0
 62
               0
100
AcDbTrace
 10
-370.80491999999992
 20
125.0
 30
0.0
 11
-369.52899942063146
 21
118.997265625
 31
0.0
 12
-372.08084057936838
 22
118.997265625
 32
0.0
 13
-372.08084057936838
 23
118.997265625
 33
0.0
  0
SOLID
  5
87
100
AcDbEntity
  8
寸法
370
              -2
390
0
 62
               0
100
AcDbTrace
 10
-370.80491999999992
 20
40.0
 30
0.0
 11
-372.08084057936838
 21
46.002734375000003
 31
0.0
 12
-369.52899942063146
 22
46.002734375000003
 32
0.0
 13
-369.52899942063146
 23
46.002734375000003
 33
0.0
  0
MTEXT
  5
88
100
AcDbEntity
  8
寸法
390
0
 62
               0
100
AcDbMText
 10
-381.34416999999996
 20
76.150000000000006
 30
0.0
 40
8.7312499999999993
 41
0.0
 71
               1
 72
               1
  1
85
  7
ＭＳ Ｐゴシック
 11
0.0
 21
1.0
 31
0.0
 73
               1
 44
0.8762322015334064
  0
POINT
  5
89
100
AcDbEntity
  8
Defpoints
370
               0
390
0
 62
               0
100
AcDbPoint
 10
-355.99331999999993
 20
40.0
 30
0.0
  0
POINT
  5
8A
100
AcDbEntity
  8
Defpoints
370
               0
390
0
 62
               0
100
AcDbPoint
 10
-355.99331999999993
 20
125.0
 30
0.0
  0
POINT
  5
8B
100
AcDbEntity
  8
Defpoints
370
               0
390
0
 62
               0
100
AcDbPoint
 10
-370.80491999999992
 20
125.0
 30
0.0
  0
ENDBLK
  5
8C
100
AcDbEntity
  8
寸法
390
0
100
AcDbBlockEnd
  0
BLOCK
  5
8D
100
AcDbEntity
  8
寸法
390
0
100
AcDbBlockBegin
  2
*D5
 70
               1
 10
0.0
 20
0.0
 30
0.0
  3
*D5
  1

  0
LINE
  5
8E
100
AcDbEntity
  8
寸法
370
              -2
390
0
  6
Continuous
 62
               0
100
AcDbLine
 10
-359.99331999999993
 20
140.0
 30
0.0
 11
-394.80491999999992
 21
140.0
 31
0.0
  0
LINE
  5
8F
100
AcDbEntity
  8
寸法
370
              -2
390
0
  6
Continuous
 62
               0
100
AcDbLine
 10
-359.99331999999993
 20
-180.0
 30
0.0
 11
-394.80491999999992
 21
-180.0
 31
0.0
  0
LINE
  5
90
100
AcDbEntity
  8
寸法
370
              -2
390
0
  6
Continuous
 62
               0
100
AcDbLine
 10
-390.80491999999992
 20
140.0
 30
0.0
 11
-390.80491999999992
 21
-180.0
 31
0.0
  0
SOLID
  5
91
100
AcDbEntity
  8
寸法
370
              -2
390
0
 62
               0
100
AcDbTrace
 10
-390.80491999999992
 20
140.0
 30
0.0
 11
-389.52899942063146
 21
133.99726562500001
 31
0.0
 12
-392.08084057936838
 22
133.99726562500001
 32
0.0
 13
-392.08084057936838
 23
133.99726562500001
 33
0.0
  0
SOLID
  5
92
100
AcDbEntity
  8
寸法
370
              -2
390
0
 62
               0
100
AcDbTrace
 10
-390.80491999999992
 20
-180.0
 30
0.0
 11
-392.08084057936838
 21
-173.99726562500001
 31
0.0
 12
-389.52899942063146
 22
-173.99726562500001
 32
0.0
 13
-389.52899942063146
 23
-173.99726562500001
 33
0.0
  0
MTEXT
  5
93
100
AcDbEntity
  8
寸法
390
0
 62
               0
100
AcDbMText
 10
-401.34416999999991
 20
-29.525000672870213
 30
0.0
 40
8.7312499999999993
 41
0.0
 71
               1
 72
               1
  1
320
  7
ＭＳ Ｐゴシック
 11
0.0
 21
1.0
 31
0.0
 73
               1
 44
0.8762322015334064
  0
POINT
  5
94
100
AcDbEntity
  8
Defpoints
370
               0
390
0
 62
               0
100
AcDbPoint
 10
-355.99331999999993
 20
-180.0
 30
0.0
  0
POINT
  5
95
100
AcDbEntity
  8
Defpoints
370
               0
390
0
 62
               0
100
AcDbPoint
 10
-355.99331999999993
 20
140.0
 30
0.0
  0
POINT
  5
96
100
AcDbEntity
  8
Defpoints
370
               0
390
0
 62
               0
100
AcDbPoint
 10
-390.80491999999992
 20
140.0
 30
0.0
  0
ENDBLK
  5
97
100
AcDbEntity
  8
寸法
390
0
100
AcDbBlockEnd
  0
BLOCK
  5
98
100
AcDbEntity
  8
寸法
390
0
100
AcDbBlockBegin
  2
*D6
 70
               1
 10
0.0
 20
0.0
 30
0.0
  3
*D6
  1

  0
LINE
  5
99
100
AcDbEntity
  8
寸法
370
              -2
390
0
  6
Continuous
 62
               0
100
AcDbLine
 10
-362.80491999999992
 20
40.0
 30
0.0
 11
-374.80491999999992
 21
40.0
 31
0.0
  0
LINE
  5
9A
100
AcDbEntity
  8
寸法
370
              -2
390
0
  6
Continuous
 62
               0
100
AcDbLine
 10
-359.99331999999993
 20
-165.0
 30
0.0
 11
-374.80491999999992
 21
-165.0
 31
0.0
  0
LINE
  5
9B
100
AcDbEntity
  8
寸法
370
              -2
390
0
  6
Continuous
 62
               0
100
AcDbLine
 10
-370.80491999999992
 20
40.0
 30
0.0
 11
-370.80491999999992
 21
-165.0
 31
0.0
  0
SOLID
  5
9C
100
AcDbEntity
  8
寸法
370
              -2
390
0
 62
               0
100
AcDbTrace
 10
-370.80491999999992
 20
40.0
 30
0.0
 11
-369.52899942063146
 21
33.997265624999997
 31
0.0
 12
-372.08084057936838
 22
33.997265625000004
 32
0.0
 13
-372.08084057936838
 23
33.997265625000004
 33
0.0
  0
SOLID
  5
9D
100
AcDbEntity
  8
寸法
370
              -2
390
0
 62
               0
100
AcDbTrace
 10
-370.80491999999992
 20
-165.0
 30
0.0
 11
-372.08084057936838
 21
-158.99726562500001
 31
0.0
 12
-369.52899942063146
 22
-158.99726562500001
 32
0.0
 13
-369.52899942063146
 23
-158.99726562500001
 33
0.0
  0
MTEXT
  5
9E
100
AcDbEntity
  8
寸法
390
0
 62
               0
100
AcDbMText
 10
-381.34416999999991
 20
-72.025000672870206
 30
0.0
 40
8.7312499999999993
 41
0.0
 71
               1
 72
               1
  1
205
  7
ＭＳ Ｐゴシック
 11
0.0
 21
1.0
 31
0.0
 73
               1
 44
0.8762322015334064
  0
POINT
  5
9F
100
AcDbEntity
  8
Defpoints
370
               0
390
0
 62
               0
100
AcDbPoint
 10
-355.99331999999993
 20
-165.0
 30
0.0
  0
POINT
  5
A0
100
AcDbEntity
  8
Defpoints
370
               0
390
0
 62
               0
100
AcDbPoint
 10
-358.80491999999992
 20
40.0
 30
0.0
  0
POINT
  5
A1
100
AcDbEntity
  8
Defpoints
370
               0
390
0
 62
               0
100
AcDbPoint
 10
-370.80491999999992
 20
40.0
 30
0.0
  0
ENDBLK
  5
A2
100
AcDbEntity
  8
寸法
390
0
100
AcDbBlockEnd
  0
BLOCK
  5
A3
100
AcDbEntity
  8
寸法
390
0
100
AcDbBlockBegin
  2
*D7
 70
               1
 10
0.0
 20
0.0
 30
0.0
  3
*D7
  1

  0
LINE
  5
A4
100
AcDbEntity
  8
寸法
370
              -2
390
0
  6
Continuous
 62
               0
100
AcDbLine
 10
-155.07683999999992
 20
109.76591999999982
 30
0.0
 11
-136.28802988162198
 21
148.66115421510477
 31
0.0
  0
SOLID
  5
A5
100
AcDbEntity
  8
寸法
370
              -2
390
0
 62
               0
100
AcDbTrace
 10
-155.07683999999992
 20
109.76591999999982
 30
0.0
 11
-153.59220426844789
 21
115.7204686853547
 31
0.0
 12
-151.29862462787401
 22
114.60181515017564
 32
0.0
 13
-151.29862462787401
 23
114.60181515017564
 33
0.0
  0
LINE
  5
A6
100
AcDbEntity
  8
寸法
370
              -2
390
0
  6
Continuous
 62
               0
100
AcDbLine
 10
-136.28802988162198
 20
148.66115421510477
 30
0.0
 11
-132.28802988162198
 21
148.66115421510477
 31
0.0
  0
WIPEOUT
  5
A7
100
AcDbEntity
  8
寸法
370
              -2
390
0
  6
Continuous
 62
               0
 92
        0
100
AcDbWipeout
 90
        0
 10
-132.28802988162198
 20
142.31115421510475
 30
0.0
 11
63.5
 21
0.0
 31
0.0
 12
0.0
 22
63.5
 32
0.0
 13
1.0
 23
1.0
340
0
 70
               7
280
               1
281
              50
282
              50
283
               0
360
0
 71
               2
 91
        5
 14
-0.5
 24
0.5
 14
0.5
 24
0.5
 14
0.5
 24
0.3000000000000002
 14
-0.5
 24
0.3000000000000002
 14
-0.5
 24
0.5
  0
MTEXT
  5
A8
100
AcDbEntity
  8
寸法
390
0
 62
               0
100
AcDbMText
 10
-132.28802988162198
 20
152.82040421510473
 30
0.0
 40
8.7312499999999993
 41
0.0
 71
               1
 72
               1
  1
φ25電線口
  7
ＭＳ Ｐゴシック
 73
               1
 44
0.8762322015334064
  0
POINT
  5
A9
100
AcDbEntity
  8
Defpoints
370
               0
390
0
 62
               0
100
AcDbPoint
 10
-164.21124
 20
90.856519999999932
 30
0.0
  0
POINT
  5
AA
100
AcDbEntity
  8
Defpoints
370
               0
390
0
 62
               0
100
AcDbPoint
 10
-155.07683999999992
 20
109.76591999999982
 30
0.0
  0
ENDBLK
  5
AB
100
AcDbEntity
  8
寸法
390
0
100
AcDbBlockEnd
  0
BLOCK
  5
AC
100
AcDbEntity
  8
寸法
390
0
100
AcDbBlockBegin
  2
*D8
 70
               1
 10
0.0
 20
0.0
 30
0.0
  3
*D8
  1

  0
LINE
  5
AD
100
AcDbEntity
  8
寸法
370
              -2
390
0
  6
Continuous
 62
               0
100
AcDbLine
 10
-44.103719999999896
 20
54.0
 30
0.0
 11
-62.908639999999892
 21
54.0
 31
0.0
  0
LINE
  5
AE
100
AcDbEntity
  8
寸法
370
              -2
390
0
  6
Continuous
 62
               0
100
AcDbLine
 10
-44.90864000000002
 20
26.0
 30
0.0
 11
-62.908639999999892
 21
26.0
 31
0.0
  0
LINE
  5
AF
100
AcDbEntity
  8
寸法
370
              -2
390
0
  6
Continuous
 62
               0
100
AcDbLine
 10
-58.908639999999892
 20
54.0
 30
0.0
 11
-58.908639999999892
 21
84.061120000000003
 31
0.0
  0
LINE
  5
B0
100
AcDbEntity
  8
寸法
370
              -2
390
0
  6
Continuous
 62
               0
100
AcDbLine
 10
-58.908639999999892
 20
54.0
 30
0.0
 11
-58.908639999999892
 21
26.0
 31
0.0
  0
SOLID
  5
B1
100
AcDbEntity
  8
寸法
370
              -2
390
0
 62
               0
100
AcDbTrace
 10
-58.908639999999892
 20
54.0
 30
0.0
 11
-57.632719420631439
 21
47.997265624999997
 31
0.0
 12
-60.184560579368345
 22
47.997265625000004
 32
0.0
 13
-60.184560579368345
 23
47.997265625000004
 33
0.0
  0
SOLID
  5
B2
100
AcDbEntity
  8
寸法
370
              -2
390
0
 62
               0
100
AcDbTrace
 10
-58.908639999999892
 20
26.0
 30
0.0
 11
-60.184560579368338
 21
32.002734375000003
 31
0.0
 12
-57.632719420631439
 22
32.002734375000003
 32
0.0
 13
-57.632719420631439
 23
32.002734375000003
 33
0.0
  0
MTEXT
  5
B3
100
AcDbEntity
  8
寸法
390
0
 62
               0
100
AcDbMText
 10
-69.447889999999902
 20
58.661120000000004
 30
0.0
 40
8.7312499999999993
 41
0.0
 71
               1
 72
               1
  1
φ28
  7
ＭＳ Ｐゴシック
 11
0.0
 21
1.0
 31
0.0
 73
               1
 44
0.8762322015334064
  0
POINT
  5
B4
100
AcDbEntity
  8
Defpoints
370
               0
390
0
 62
               0
100
AcDbPoint
 10
-40.90864000000002
 20
26.0
 30
0.0
  0
POINT
  5
B5
100
AcDbEntity
  8
Defpoints
370
               0
390
0
 62
               0
100
AcDbPoint
 10
-40.103719999999896
 20
54.0
 30
0.0
  0
POINT
  5
B6
100
AcDbEntity
  8
Defpoints
370
               0
390
0
 62
               0
100
AcDbPoint
 10
-58.908639999999892
 20
54.0
 30
0.0
  0
ENDBLK
  5
B7
100
AcDbEntity
  8
寸法
390
0
100
AcDbBlockEnd
  0
BLOCK
  5
B8
100
AcDbEntity
  8
寸法
390
0
100
AcDbBlockBegin
  2
*D9
 70
               1
 10
0.0
 20
0.0
 30
0.0
  3
*D9
  1

  0
LINE
  5
B9
100
AcDbEntity
  8
寸法
370
              -2
390
0
  6
Continuous
 62
               0
100
AcDbLine
 10
-40.000039999999906
 20
58.661119999999983
 30
0.0
 11
-40.000039999999906
 21
182.66111999999998
 31
0.0
  0
LINE
  5
BA
100
AcDbEntity
  8
寸法
370
              -2
390
0
  6
Continuous
 62
               0
100
AcDbLine
 10
20.0
 20
134.66111999999993
 30
0.0
 11
20.0
 21
182.66111999999998
 31
0.0
  0
LINE
  5
BB
100
AcDbEntity
  8
寸法
370
              -2
390
0
  6
Continuous
 62
               0
100
AcDbLine
 10
-40.000039999999906
 20
178.66111999999998
 30
0.0
 11
20.0
 21
178.66111999999998
 31
0.0
  0
SOLID
  5
BC
100
AcDbEntity
  8
寸法
370
              -2
390
0
 62
               0
100
AcDbTrace
 10
-40.000039999999906
 20
178.66111999999998
 30
0.0
 11
-33.99730562499991
 21
179.93704057936844
 31
0.0
 12
-33.99730562499991
 22
177.38519942063152
 32
0.0
 13
-33.99730562499991
 23
177.38519942063152
 33
0.0
  0
SOLID
  5
BD
100
AcDbEntity
  8
寸法
370
              -2
390
0
 62
               0
100
AcDbTrace
 10
20.0
 20
178.66111999999998
 30
0.0
 11
13.997265625000001
 21
177.38519942063152
 31
0.0
 12
13.997265625000001
 22
179.93704057936844
 32
0.0
 13
13.997265625000001
 23
179.93704057936844
 33
0.0
  0
MTEXT
  5
BE
100
AcDbEntity
  8
寸法
390
0
 62
               0
100
AcDbMText
 10
-16.350019999999951
 20
189.20036999999996
 30
0.0
 40
8.7312499999999993
 41
0.0
 71
               1
 72
               1
  1
60
  7
ＭＳ Ｐゴシック
 73
               1
 44
0.8762322015334064
  0
POINT
  5
BF
100
AcDbEntity
  8
Defpoints
370
               0
390
0
 62
               0
100
AcDbPoint
 10
20.0
 20
130.66111999999993
 30
0.0
  0
POINT
  5
C0
100
AcDbEntity
  8
Defpoints
370
               0
390
0
 62
               0
100
AcDbPoint
 10
-40.000039999999906
 20
54.661119999999983
 30
0.0
  0
POINT
  5
C1
100
AcDbEntity
  8
Defpoints
370
               0
390
0
 62
               0
100
AcDbPoint
 10
-40.000039999999906
 20
178.66111999999998
 30
0.0
  0
ENDBLK
  5
C2
100
AcDbEntity
  8
寸法
390
0
100
AcDbBlockEnd
  0
BLOCK
  5
C3
100
AcDbEntity
  8
寸法
390
0
100
AcDbBlockBegin
  2
*D10
 70
               1
 10
0.0
 20
0.0
 30
0.0
  3
*D10
  1

  0
LINE
  5
C4
100
AcDbEntity
  8
寸法
370
              -2
390
0
  6
Continuous
 62
               0
100
AcDbLine
 10
20.0
 20
136.0
 30
0.0
 11
20.0
 21
162.66112000000001
 31
0.0
  0
LINE
  5
C5
100
AcDbEntity
  8
寸法
370
              -2
390
0
  6
Continuous
 62
               0
100
AcDbLine
 10
40.0
 20
147.54699999999991
 30
0.0
 11
40.0
 21
162.66112000000001
 31
0.0
  0
LINE
  5
C6
100
AcDbEntity
  8
寸法
370
              -2
390
0
  6
Continuous
 62
               0
100
AcDbLine
 10
20.0
 20
158.66112000000001
 30
0.0
 11
40.0
 21
158.66112000000001
 31
0.0
  0
SOLID
  5
C7
100
AcDbEntity
  8
寸法
370
              -2
390
0
 62
               0
100
AcDbTrace
 10
20.0
 20
158.66112000000001
 30
0.0
 11
26.002734374999999
 21
159.93704057936847
 31
0.0
 12
26.002734374999999
 22
157.38519942063155
 32
0.0
 13
26.002734374999999
 23
157.38519942063155
 33
0.0
  0
SOLID
  5
C8
100
AcDbEntity
  8
寸法
370
              -2
390
0
 62
               0
100
AcDbTrace
 10
40.0
 20
158.66112000000001
 30
0.0
 11
33.997265624999997
 21
157.38519942063155
 31
0.0
 12
33.997265624999997
 22
159.93704057936847
 32
0.0
 13
33.997265624999997
 23
159.93704057936847
 33
0.0
  0
MTEXT
  5
C9
100
AcDbEntity
  8
寸法
390
0
 62
               0
100
AcDbMText
 10
24.845068359374999
 20
169.20036999999999
 30
0.0
 40
8.7312499999999993
 41
0.0
 71
               1
 72
               1
  1
20
  7
ＭＳ Ｐゴシック
 73
               1
 44
0.8762322015334064
  0
POINT
  5
CA
100
AcDbEntity
  8
Defpoints
370
               0
390
0
 62
               0
100
AcDbPoint
 10
40.0
 20
143.54699999999991
 30
0.0
  0
POINT
  5
CB
100
AcDbEntity
  8
Defpoints
370
               0
390
0
 62
               0
100
AcDbPoint
 10
20.0
 20
132.0
 30
0.0
  0
POINT
  5
CC
100
AcDbEntity
  8
Defpoints
370
               0
390
0
 62
               0
100
AcDbPoint
 10
20.0
 20
158.66112000000001
 30
0.0
  0
ENDBLK
  5
CD
100
AcDbEntity
  8
寸法
390
0
100
AcDbBlockEnd
  0
BLOCK
  5
CE
100
AcDbEntity
  8
寸法
390
0
100
AcDbBlockBegin
  2
*D11
 70
               1
 10
0.0
 20
0.0
 30
0.0
  3
*D11
  1

  0
LINE
  5
CF
100
AcDbEntity
  8
寸法
370
              -2
390
0
  6
Continuous
 62
               0
100
AcDbLine
 10
40.0
 20
144.0
 30
0.0
 11
40.0
 21
162.66112000000001
 31
0.0
  0
LINE
  5
D0
100
AcDbEntity
  8
寸法
370
              -2
390
0
  6
Continuous
 62
               0
100
AcDbLine
 10
200.0
 20
144.0
 30
0.0
 11
200.0
 21
162.66112000000001
 31
0.0
  0
LINE
  5
D1
100
AcDbEntity
  8
寸法
370
              -2
390
0
  6
Continuous
 62
               0
100
AcDbLine
 10
40.0
 20
158.66112000000001
 30
0.0
 11
200.0
 21
158.66112000000001
 31
0.0
  0
SOLID
  5
D2
100
AcDbEntity
  8
寸法
370
              -2
390
0
 62
               0
100
AcDbTrace
 10
40.0
 20
158.66112000000001
 30
0.0
 11
46.002734375000003
 21
159.93704057936847
 31
0.0
 12
46.002734375000003
 22
157.38519942063155
 32
0.0
 13
46.002734375000003
 23
157.38519942063155
 33
0.0
  0
SOLID
  5
D3
100
AcDbEntity
  8
寸法
370
              -2
390
0
 62
               0
100
AcDbTrace
 10
200.0
 20
158.66112000000001
 30
0.0
 11
193.99726562500001
 21
157.38519942063155
 31
0.0
 12
193.99726562500001
 22
159.93704057936847
 32
0.0
 13
193.99726562500001
 23
159.93704057936847
 33
0.0
  0
MTEXT
  5
D4
100
AcDbEntity
  8
寸法
390
0
 62
               0
100
AcDbMText
 10
110.47499932712979
 20
169.20036999999999
 30
0.0
 40
8.7312499999999993
 41
0.0
 71
               1
 72
               1
  1
160
  7
ＭＳ Ｐゴシック
 73
               1
 44
0.8762322015334064
  0
POINT
  5
D5
100
AcDbEntity
  8
Defpoints
370
               0
390
0
 62
               0
100
AcDbPoint
 10
200.0
 20
140.0
 30
0.0
  0
POINT
  5
D6
100
AcDbEntity
  8
Defpoints
370
               0
390
0
 62
               0
100
AcDbPoint
 10
40.0
 20
140.0
 30
0.0
  0
POINT
  5
D7
100
AcDbEntity
  8
Defpoints
370
               0
390
0
 62
               0
100
AcDbPoint
 10
40.0
 20
158.66112000000001
 30
0.0
  0
ENDBLK
  5
D8
100
AcDbEntity
  8
寸法
390
0
100
AcDbBlockEnd
  0
BLOCK
  5
D9
100
AcDbEntity
  8
寸法
390
0
100
AcDbBlockBegin
  2
*D12
 70
               1
 10
0.0
 20
0.0
 30
0.0
  3
*D12
  1

  0
LINE
  5
DA
100
AcDbEntity
  8
寸法
370
              -2
390
0
  6
Continuous
 62
               0
100
AcDbLine
 10
20.0
 20
137.0
 30
0.0
 11
20.0
 21
182.66111999999998
 31
0.0
  0
LINE
  5
DB
100
AcDbEntity
  8
寸法
370
              -2
390
0
  6
Continuous
 62
               0
100
AcDbLine
 10
220.0
 20
137.0
 30
0.0
 11
220.0
 21
182.66111999999998
 31
0.0
  0
LINE
  5
DC
100
AcDbEntity
  8
寸法
370
              -2
390
0
  6
Continuous
 62
               0
100
AcDbLine
 10
20.0
 20
178.66111999999998
 30
0.0
 11
220.0
 21
178.66111999999998
 31
0.0
  0
SOLID
  5
DD
100
AcDbEntity
  8
寸法
370
              -2
390
0
 62
               0
100
AcDbTrace
 10
20.0
 20
178.66111999999998
 30
0.0
 11
26.002734374999999
 21
179.93704057936844
 31
0.0
 12
26.002734374999999
 22
177.38519942063152
 32
0.0
 13
26.002734374999999
 23
177.38519942063152
 33
0.0
  0
SOLID
  5
DE
100
AcDbEntity
  8
寸法
370
              -2
390
0
 62
               0
100
AcDbTrace
 10
220.0
 20
178.66111999999998
 30
0.0
 11
213.99726562500001
 21
177.38519942063152
 31
0.0
 12
213.99726562500001
 22
179.93704057936844
 32
0.0
 13
213.99726562500001
 23
179.93704057936844
 33
0.0
  0
MTEXT
  5
DF
100
AcDbEntity
  8
寸法
390
0
 62
               0
100
AcDbMText
 10
110.47499932712979
 20
189.20036999999996
 30
0.0
 40
8.7312499999999993
 41
0.0
 71
               1
 72
               1
  1
200
  7
ＭＳ Ｐゴシック
 73
               1
 44
0.8762322015334064
  0
POINT
  5
E0
100
AcDbEntity
  8
Defpoints
370
               0
390
0
 62
               0
100
AcDbPoint
 10
220.0
 20
133.0
 30
0.0
  0
POINT
  5
E1
100
AcDbEntity
  8
Defpoints
370
               0
390
0
 62
               0
100
AcDbPoint
 10
20.0
 20
133.0
 30
0.0
  0
POINT
  5
E2
100
AcDbEntity
  8
Defpoints
370
               0
390
0
 62
               0
100
AcDbPoint
 10
20.0
 20
178.66111999999998
 30
0.0
  0
ENDBLK
  5
E3
100
AcDbEntity
  8
寸法
390
0
100
AcDbBlockEnd
  0
BLOCK
  5
E4
100
AcDbEntity
  8
寸法
390
0
100
AcDbBlockBegin
  2
*D13
 70
               1
 10
0.0
 20
0.0
 30
0.0
  3
*D13
  1

  0
LINE
  5
E5
100
AcDbEntity
  8
寸法
370
              -2
390
0
  6
Continuous
 62
               0
100
AcDbLine
 10
200.0
 20
146.0
 30
0.0
 11
200.0
 21
162.66112000000001
 31
0.0
  0
LINE
  5
E6
100
AcDbEntity
  8
寸法
370
              -2
390
0
  6
Continuous
 62
               0
100
AcDbLine
 10
220.0
 20
136.0
 30
0.0
 11
220.0
 21
162.66112000000001
 31
0.0
  0
LINE
  5
E7
100
AcDbEntity
  8
寸法
370
              -2
390
0
  6
Continuous
 62
               0
100
AcDbLine
 10
200.0
 20
158.66112000000001
 30
0.0
 11
220.0
 21
158.66112000000001
 31
0.0
  0
SOLID
  5
E8
100
AcDbEntity
  8
寸法
370
              -2
390
0
 62
               0
100
AcDbTrace
 10
200.0
 20
158.66112000000001
 30
0.0
 11
206.00273437499999
 21
159.93704057936847
 31
0.0
 12
206.00273437499999
 22
157.38519942063155
 32
0.0
 13
206.00273437499999
 23
157.38519942063155
 33
0.0
  0
SOLID
  5
E9
100
AcDbEntity
  8
寸法
370
              -2
390
0
 62
               0
100
AcDbTrace
 10
220.0
 20
158.66112000000001
 30
0.0
 11
213.99726562500001
 21
157.38519942063155
 31
0.0
 12
213.99726562500001
 22
159.93704057936847
 32
0.0
 13
213.99726562500001
 23
159.93704057936847
 33
0.0
  0
MTEXT
  5
EA
100
AcDbEntity
  8
寸法
390
0
 62
               0
100
AcDbMText
 10
202.91696777343751
 20
169.20036999999999
 30
0.0
 40
8.7312499999999993
 41
0.0
 71
               1
 72
               1
  1
20
  7
ＭＳ Ｐゴシック
 73
               1
 44
0.8762322015334064
  0
POINT
  5
EB
100
AcDbEntity
  8
Defpoints
370
               0
390
0
 62
               0
100
AcDbPoint
 10
220.0
 20
132.0
 30
0.0
  0
POINT
  5
EC
100
AcDbEntity
  8
Defpoints
370
               0
390
0
 62
               0
100
AcDbPoint
 10
200.0
 20
142.0
 30
0.0
  0
POINT
  5
ED
100
AcDbEntity
  8
Defpoints
370
               0
390
0
 62
               0
100
AcDbPoint
 10
200.0
 20
158.66112000000001
 30
0.0
  0
ENDBLK
  5
EE
100
AcDbEntity
  8
寸法
390
0
100
AcDbBlockEnd
  0
BLOCK
  5
EF
100
AcDbEntity
  8
寸法
390
0
100
AcDbBlockBegin
  2
*D14
 70
               1
 10
0.0
 20
0.0
 30
0.0
  3
*D14
  1

  0
LINE
  5
F0
100
AcDbEntity
  8
寸法
370
              -2
390
0
  6
Continuous
 62
               0
100
AcDbLine
 10
220.0
 20
137.66111999999993
 30
0.0
 11
220.0
 21
182.66111999999993
 31
0.0
  0
LINE
  5
F1
100
AcDbEntity
  8
寸法
370
              -2
390
0
  6
Continuous
 62
               0
100
AcDbLine
 10
320.0
 20
91.661119999999926
 30
0.0
 11
320.0
 21
182.66111999999993
 31
0.0
  0
LINE
  5
F2
100
AcDbEntity
  8
寸法
370
              -2
390
0
  6
Continuous
 62
               0
100
AcDbLine
 10
220.0
 20
178.66111999999993
 30
0.0
 11
320.0
 21
178.66111999999993
 31
0.0
  0
SOLID
  5
F3
100
AcDbEntity
  8
寸法
370
              -2
390
0
 62
               0
100
AcDbTrace
 10
220.0
 20
178.66111999999993
 30
0.0
 11
226.00273437499999
 21
179.93704057936839
 31
0.0
 12
226.00273437499999
 22
177.38519942063147
 32
0.0
 13
226.00273437499999
 23
177.38519942063147
 33
0.0
  0
SOLID
  5
F4
100
AcDbEntity
  8
寸法
370
              -2
390
0
 62
               0
100
AcDbTrace
 10
320.0
 20
178.66111999999993
 30
0.0
 11
313.99726562500001
 21
177.38519942063147
 31
0.0
 12
313.99726562500001
 22
179.93704057936839
 32
0.0
 13
313.99726562500001
 23
179.93704057936839
 33
0.0
  0
MTEXT
  5
F5
100
AcDbEntity
  8
寸法
390
0
 62
               0
100
AcDbMText
 10
260.47499932712981
 20
189.20036999999991
 30
0.0
 40
8.7312499999999993
 41
0.0
 71
               1
 72
               1
  1
100
  7
ＭＳ Ｐゴシック
 73
               1
 44
0.8762322015334064
  0
POINT
  5
F6
100
AcDbEntity
  8
Defpoints
370
               0
390
0
 62
               0
100
AcDbPoint
 10
320.0
 20
87.661119999999926
 30
0.0
  0
POINT
  5
F7
100
AcDbEntity
  8
Defpoints
370
               0
390
0
 62
               0
100
AcDbPoint
 10
220.0
 20
133.66111999999993
 30
0.0
  0
POINT
  5
F8
100
AcDbEntity
  8
Defpoints
370
               0
390
0
 62
               0
100
AcDbPoint
 10
220.0
 20
178.66111999999993
 30
0.0
  0
ENDBLK
  5
F9
100
AcDbEntity
  8
寸法
390
0
100
AcDbBlockEnd
  0
BLOCK
  5
FA
100
AcDbEntity
  8
寸法
390
0
100
AcDbBlockBegin
  2
*D15
 70
               1
 10
0.0
 20
0.0
 30
0.0
  3
*D15
  1

  0
LINE
  5
FB
100
AcDbEntity
  8
寸法
370
              -2
390
0
  6
Continuous
 62
               0
100
AcDbLine
 10
320.0
 20
93.0
 30
0.0
 11
320.0
 21
202.66111999999998
 31
0.0
  0
LINE
  5
FC
100
AcDbEntity
  8
寸法
370
              -2
390
0
  6
Continuous
 62
               0
100
AcDbLine
 10
-40.000039999999906
 20
57.661119999999983
 30
0.0
 11
-40.000039999999906
 21
202.66111999999998
 31
0.0
  0
LINE
  5
FD
100
AcDbEntity
  8
寸法
370
              -2
390
0
  6
Continuous
 62
               0
100
AcDbLine
 10
320.0
 20
198.66111999999998
 30
0.0
 11
-40.000039999999906
 21
198.66111999999998
 31
0.0
  0
SOLID
  5
FE
100
AcDbEntity
  8
寸法
370
              -2
390
0
 62
               0
100
AcDbTrace
 10
320.0
 20
198.66111999999998
 30
0.0
 11
313.99726562500001
 21
197.38519942063152
 31
0.0
 12
313.99726562500001
 22
199.93704057936844
 32
0.0
 13
313.99726562500001
 23
199.93704057936844
 33
0.0
  0
SOLID
  5
FF
100
AcDbEntity
  8
寸法
370
              -2
390
0
 62
               0
100
AcDbTrace
 10
-40.000039999999906
 20
198.66111999999998
 30
0.0
 11
-33.99730562499991
 21
199.93704057936844
 31
0.0
 12
-33.99730562499991
 22
197.38519942063152
 32
0.0
 13
-33.99730562499991
 23
197.38519942063152
 33
0.0
  0
MTEXT
  5
100
100
AcDbEntity
  8
寸法
390
0
 62
               0
100
AcDbMText
 10
130.47497932712983
 20
209.20036999999996
 30
0.0
 40
8.7312499999999993
 41
0.0
 71
               1
 72
               1
  1
360
  7
ＭＳ Ｐゴシック
 73
               1
 44
0.8762322015334064
  0
POINT
  5
101
100
AcDbEntity
  8
Defpoints
370
               0
390
0
 62
               0
100
AcDbPoint
 10
-40.000039999999906
 20
53.661119999999983
 30
0.0
  0
POINT
  5
102
100
AcDbEntity
  8
Defpoints
370
               0
390
0
 62
               0
100
AcDbPoint
 10
320.0
 20
89.0
 30
0.0
  0
POINT
  5
103
100
AcDbEntity
  8
Defpoints
370
               0
390
0
 62
               0
100
AcDbPoint
 10
320.0
 20
198.66111999999998
 30
0.0
  0
ENDBLK
  5
104
100
AcDbEntity
  8
寸法
390
0
100
AcDbBlockEnd
  0
BLOCK
  5
105
100
AcDbEntity
  8
寸法
390
0
100
AcDbBlockBegin
  2
*D16
 70
               1
 10
0.0
 20
0.0
 30
0.0
  3
*D16
  1

  0
LINE
  5
106
100
AcDbEntity
  8
寸法
370
              -2
390
0
  6
Continuous
 62
               0
100
AcDbLine
 10
216.19508000000005
 20
140.0
 30
0.0
 11
344.19508000000008
 21
140.0
 31
0.0
  0
LINE
  5
107
100
AcDbEntity
  8
寸法
370
              -2
390
0
  6
Continuous
 62
               0
100
AcDbLine
 10
216.19508000000005
 20
-180.0
 30
0.0
 11
344.19508000000008
 21
-180.0
 31
0.0
  0
LINE
  5
108
100
AcDbEntity
  8
寸法
370
              -2
390
0
  6
Continuous
 62
               0
100
AcDbLine
 10
340.19508000000008
 20
140.0
 30
0.0
 11
340.19508000000008
 21
-180.0
 31
0.0
  0
SOLID
  5
109
100
AcDbEntity
  8
寸法
370
              -2
390
0
 62
               0
100
AcDbTrace
 10
340.19508000000008
 20
140.0
 30
0.0
 11
341.47100057936854
 21
133.99726562500001
 31
0.0
 12
338.91915942063162
 22
133.99726562500001
 32
0.0
 13
338.91915942063162
 23
133.99726562500001
 33
0.0
  0
SOLID
  5
10A
100
AcDbEntity
  8
寸法
370
              -2
390
0
 62
               0
100
AcDbTrace
 10
340.19508000000008
 20
-180.0
 30
0.0
 11
338.91915942063162
 21
-173.99726562500001
 31
0.0
 12
341.47100057936854
 22
-173.99726562500001
 32
0.0
 13
341.47100057936854
 23
-173.99726562500001
 33
0.0
  0
MTEXT
  5
10B
100
AcDbEntity
  8
寸法
390
0
 62
               0
100
AcDbMText
 10
329.65583000000009
 20
-29.525000672870213
 30
0.0
 40
8.7312499999999993
 41
0.0
 71
               1
 72
               1
  1
320
  7
ＭＳ Ｐゴシック
 11
0.0
 21
1.0
 31
0.0
 73
               1
 44
0.8762322015334064
  0
POINT
  5
10C
100
AcDbEntity
  8
Defpoints
370
               0
390
0
 62
               0
100
AcDbPoint
 10
212.19508000000005
 20
-180.0
 30
0.0
  0
POINT
  5
10D
100
AcDbEntity
  8
Defpoints
370
               0
390
0
 62
               0
100
AcDbPoint
 10
212.19508000000005
 20
140.0
 30
0.0
  0
POINT
  5
10E
100
AcDbEntity
  8
Defpoints
370
               0
390
0
 62
               0
100
AcDbPoint
 10
340.19508000000008
 20
140.0
 30
0.0
  0
ENDBLK
  5
10F
100
AcDbEntity
  8
寸法
390
0
100
AcDbBlockEnd
  0
BLOCK
  5
110
100
AcDbEntity
  8
寸法
390
0
100
AcDbBlockBegin
  2
*D17
 70
               1
 10
0.0
 20
0.0
 30
0.0
  3
*D17
  1

  0
LINE
  5
111
100
AcDbEntity
  8
寸法
370
              -2
390
0
  6
Continuous
 62
               0
100
AcDbLine
 10
215.99999999999997
 20
125.0
 30
0.0
 11
294.19511999999997
 21
125.0
 31
0.0
  0
LINE
  5
112
100
AcDbEntity
  8
寸法
370
              -2
390
0
  6
Continuous
 62
               0
100
AcDbLine
 10
215.99999999999997
 20
-165.0
 30
0.0
 11
294.19511999999997
 21
-165.0
 31
0.0
  0
LINE
  5
113
100
AcDbEntity
  8
寸法
370
              -2
390
0
  6
Continuous
 62
               0
100
AcDbLine
 10
290.19511999999997
 20
125.0
 30
0.0
 11
290.19511999999997
 21
-165.0
 31
0.0
  0
SOLID
  5
114
100
AcDbEntity
  8
寸法
370
              -2
390
0
 62
               0
100
AcDbTrace
 10
290.19511999999997
 20
125.0
 30
0.0
 11
291.47104057936843
 21
118.997265625
 31
0.0
 12
288.91919942063151
 22
118.997265625
 32
0.0
 13
288.91919942063151
 23
118.997265625
 33
0.0
  0
SOLID
  5
115
100
AcDbEntity
  8
寸法
370
              -2
390
0
 62
               0
100
AcDbTrace
 10
290.19511999999997
 20
-165.0
 30
0.0
 11
288.91919942063151
 21
-158.99726562500001
 31
0.0
 12
291.47104057936843
 22
-158.99726562500001
 32
0.0
 13
291.47104057936843
 23
-158.99726562500001
 33
0.0
  0
MTEXT
  5
116
100
AcDbEntity
  8
寸法
390
0
 62
               0
100
AcDbMText
 10
279.65586999999999
 20
-29.525000672870213
 30
0.0
 40
8.7312499999999993
 41
0.0
 71
               1
 72
               1
  1
290
  7
ＭＳ Ｐゴシック
 11
0.0
 21
1.0
 31
0.0
 73
               1
 44
0.8762322015334064
  0
POINT
  5
117
100
AcDbEntity
  8
Defpoints
370
               0
390
0
 62
               0
100
AcDbPoint
 10
211.99999999999997
 20
-165.0
 30
0.0
  0
POINT
  5
118
100
AcDbEntity
  8
Defpoints
370
               0
390
0
 62
               0
100
AcDbPoint
 10
211.99999999999997
 20
125.0
 30
0.0
  0
POINT
  5
119
100
AcDbEntity
  8
Defpoints
370
               0
390
0
 62
               0
100
AcDbPoint
 10
290.19511999999997
 20
125.0
 30
0.0
  0
ENDBLK
  5
11A
100
AcDbEntity
  8
寸法
390
0
100
AcDbBlockEnd
  0
BLOCK
  5
11B
100
AcDbEntity
  8
寸法
390
0
100
AcDbBlockBegin
  2
*D18
 70
               1
 10
0.0
 20
0.0
 30
0.0
  3
*D18
  1

  0
LINE
  5
11C
100
AcDbEntity
  8
寸法
370
              -2
390
0
  6
Continuous
 62
               0
100
AcDbLine
 10
-44.079639999999934
 20
-109.58528000000001
 30
0.0
 11
-63.804959999999937
 21
-109.58528000000001
 31
0.0
  0
LINE
  5
11D
100
AcDbEntity
  8
寸法
370
              -2
390
0
  6
Continuous
 62
               0
100
AcDbLine
 10
-44.079639999999934
 20
-137.58528000000001
 30
0.0
 11
-63.804959999999937
 21
-137.58528000000001
 31
0.0
  0
LINE
  5
11E
100
AcDbEntity
  8
寸法
370
              -2
390
0
  6
Continuous
 62
               0
100
AcDbLine
 10
-59.804959999999937
 20
-109.58528000000001
 30
0.0
 11
-59.804959999999937
 21
-83.938880000000012
 31
0.0
  0
LINE
  5
11F
100
AcDbEntity
  8
寸法
370
              -2
390
0
  6
Continuous
 62
               0
100
AcDbLine
 10
-59.804959999999937
 20
-109.58528000000001
 30
0.0
 11
-59.804959999999937
 21
-137.58528000000001
 31
0.0
  0
SOLID
  5
120
100
AcDbEntity
  8
寸法
370
              -2
390
0
 62
               0
100
AcDbTrace
 10
-59.804959999999937
 20
-109.58528000000001
 30
0.0
 11
-58.529039420631484
 21
-115.58801437500001
 31
0.0
 12
-61.08088057936839
 22
-115.58801437500001
 32
0.0
 13
-61.08088057936839
 23
-115.58801437500001
 33
0.0
  0
SOLID
  5
121
100
AcDbEntity
  8
寸法
370
              -2
390
0
 62
               0
100
AcDbTrace
 10
-59.804959999999937
 20
-137.58528000000001
 30
0.0
 11
-61.080880579368383
 21
-131.58254562500002
 31
0.0
 12
-58.529039420631484
 22
-131.58254562500002
 32
0.0
 13
-58.529039420631484
 23
-131.58254562500002
 33
0.0
  0
MTEXT
  5
122
100
AcDbEntity
  8
寸法
390
0
 62
               0
100
AcDbMText
 10
-70.344209999999947
 20
-109.33888
 30
0.0
 40
8.7312499999999993
 41
0.0
 71
               1
 72
               1
  1
φ28
  7
ＭＳ Ｐゴシック
 11
0.0
 21
1.0
 31
0.0
 73
               1
 44
0.8762322015334064
  0
POINT
  5
123
100
AcDbEntity
  8
Defpoints
370
               0
390
0
 62
               0
100
AcDbPoint
 10
-40.079639999999934
 20
-137.58528000000001
 30
0.0
  0
POINT
  5
124
100
AcDbEntity
  8
Defpoints
370
               0
390
0
 62
               0
100
AcDbPoint
 10
-40.079639999999934
 20
-109.58528000000001
 30
0.0
  0
POINT
  5
125
100
AcDbEntity
  8
Defpoints
370
               0
390
0
 62
               0
100
AcDbPoint
 10
-59.804959999999937
 20
-109.58528000000001
 30
0.0
  0
ENDBLK
  5
126
100
AcDbEntity
  8
寸法
390
0
100
AcDbBlockEnd
  0
BLOCK
  5
127
100
AcDbEntity
  8
寸法
390
0
100
AcDbBlockBegin
  2
*D19
 70
               1
 10
0.0
 20
0.0
 30
0.0
  3
*D19
  1

  0
LINE
  5
128
100
AcDbEntity
  8
寸法
370
              -2
390
0
  6
Continuous
 62
               0
100
AcDbLine
 10
-28.079600000000035
 20
-115.53528000000006
 30
0.0
 11
-28.079600000000035
 21
-97.33888000000006
 31
0.0
  0
LINE
  5
129
100
AcDbEntity
  8
寸法
370
              -2
390
0
  6
Continuous
 62
               0
100
AcDbLine
 10
-24.079600000000035
 20
-119.58528000000001
 30
0.0
 11
-24.079600000000035
 21
-97.33888000000006
 31
0.0
  0
LINE
  5
12A
100
AcDbEntity
  8
寸法
370
              -2
390
0
  6
Continuous
 62
               0
100
AcDbLine
 10
-24.079600000000035
 20
-101.33888000000006
 30
0.0
 11
-28.079600000000035
 21
-101.33888000000006
 31
0.0
  0
LINE
  5
12B
100
AcDbEntity
  8
寸法
370
              -2
390
0
  6
Continuous
 62
               0
100
AcDbLine
 10
-28.079600000000035
 20
-101.33888000000006
 30
0.0
 11
-36.079600000000035
 21
-101.33888000000006
 31
0.0
  0
SOLID
  5
12C
100
AcDbEntity
  8
寸法
370
              -2
390
0
 62
               0
100
AcDbTrace
 10
-28.079600000000035
 20
-101.33888000000006
 30
0.0
 11
-34.08233437500003
 21
-102.61480057936851
 31
0.0
 12
-34.08233437500003
 22
-100.06295942063161
 32
0.0
 13
-34.08233437500003
 23
-100.06295942063161
 33
0.0
  0
LINE
  5
12D
100
AcDbEntity
  8
寸法
370
              -2
390
0
  6
Continuous
 62
               0
100
AcDbLine
 10
-24.079600000000035
 20
-101.33888000000006
 30
0.0
 11
-13.454880000000035
 21
-101.33888000000006
 31
0.0
  0
SOLID
  5
12E
100
AcDbEntity
  8
寸法
370
              -2
390
0
 62
               0
100
AcDbTrace
 10
-24.079600000000035
 20
-101.33888000000006
 30
0.0
 11
-18.076865625000035
 21
-100.06295942063161
 31
0.0
 12
-18.076865625000035
 22
-102.61480057936851
 32
0.0
 13
-18.076865625000035
 23
-102.61480057936851
 33
0.0
  0
MTEXT
  5
12F
100
AcDbEntity
  8
寸法
390
0
 62
               0
100
AcDbMText
 10
-19.804880000000036
 20
-90.79963000000005
 30
0.0
 40
8.7312499999999993
 41
0.0
 71
               1
 72
               1
  1
4
  7
ＭＳ Ｐゴシック
 73
               1
 44
0.8762322015334064
  0
POINT
  5
130
100
AcDbEntity
  8
Defpoints
370
               0
390
0
 62
               0
100
AcDbPoint
 10
-24.079600000000035
 20
-123.58528000000001
 30
0.0
  0
POINT
  5
131
100
AcDbEntity
  8
Defpoints
370
               0
390
0
 62
               0
100
AcDbPoint
 10
-28.079600000000035
 20
-119.53528000000006
 30
0.0
  0
POINT
  5
132
100
AcDbEntity
  8
Defpoints
370
               0
390
0
 62
               0
100
AcDbPoint
 10
-28.079600000000035
 20
-101.33888000000006
 30
0.0
  0
ENDBLK
  5
133
100
AcDbEntity
  8
寸法
390
0
100
AcDbBlockEnd
  0
BLOCK
  5
134
100
AcDbEntity
  8
寸法
390
0
100
AcDbBlockBegin
  2
*D20
 70
               1
 10
0.0
 20
0.0
 30
0.0
  3
*D20
  1

  0
LINE
  5
135
100
AcDbEntity
  8
寸法
370
              -2
390
0
  6
Continuous
 62
               0
100
AcDbLine
 10
-20.678199999999929
 20
-119.53528000000006
 30
0.0
 11
4.1951200000000632
 21
-119.53528000000006
 31
0.0
  0
LINE
  5
136
100
AcDbEntity
  8
寸法
370
              -2
390
0
  6
Continuous
 62
               0
100
AcDbLine
 10
-20.678199999999929
 20
-127.63528000000008
 30
0.0
 11
4.1951200000000632
 21
-127.63528000000008
 31
0.0
  0
LINE
  5
137
100
AcDbEntity
  8
寸法
370
              -2
390
0
  6
Continuous
 62
               0
100
AcDbLine
 10
0.1951200000000632
 20
-127.63528000000008
 30
0.0
 11
0.1951200000000632
 21
-119.53528000000006
 31
0.0
  0
LINE
  5
138
100
AcDbEntity
  8
寸法
370
              -2
390
0
  6
Continuous
 62
               0
100
AcDbLine
 10
0.1951200000000632
 20
-119.53528000000006
 30
0.0
 11
0.1951200000000632
 21
-105.1852799824912
 31
0.0
  0
SOLID
  5
139
100
AcDbEntity
  8
寸法
370
              -2
390
0
 62
               0
100
AcDbTrace
 10
0.1951200000000632
 20
-119.53528000000006
 30
0.0
 11
-1.0808005793683859
 21
-113.53254562500005
 31
0.0
 12
1.4710405793685131
 22
-113.53254562500005
 32
0.0
 13
1.4710405793685131
 23
-113.53254562500005
 33
0.0
  0
LINE
  5
13A
100
AcDbEntity
  8
寸法
370
              -2
390
0
  6
Continuous
 62
               0
100
AcDbLine
 10
0.1951200000000632
 20
-127.63528000000008
 30
0.0
 11
0.1951200000000632
 21
-135.63528000000008
 31
0.0
  0
SOLID
  5
13B
100
AcDbEntity
  8
寸法
370
              -2
390
0
 62
               0
100
AcDbTrace
 10
0.1951200000000632
 20
-127.63528000000008
 30
0.0
 11
1.4710405793685128
 21
-133.63801437500007
 31
0.0
 12
-1.0808005793683886
 22
-133.63801437500007
 32
0.0
 13
-1.0808005793683886
 23
-133.63801437500007
 33
0.0
  0
MTEXT
  5
13C
100
AcDbEntity
  8
寸法
390
0
 62
               0
100
AcDbMText
 10
-10.344129999999939
 20
-111.53527998249119
 30
0.0
 40
8.7312499999999993
 41
0.0
 71
               1
 72
               1
  1
8
  7
ＭＳ Ｐゴシック
 11
0.0
 21
1.0
 31
0.0
 73
               1
 44
0.8762322015334064
  0
POINT
  5
13D
100
AcDbEntity
  8
Defpoints
370
               0
390
0
 62
               0
100
AcDbPoint
 10
-24.678199999999929
 20
-127.63528000000008
 30
0.0
  0
POINT
  5
13E
100
AcDbEntity
  8
Defpoints
370
               0
390
0
 62
               0
100
AcDbPoint
 10
-24.678199999999929
 20
-119.53528000000006
 30
0.0
  0
POINT
  5
13F
100
AcDbEntity
  8
Defpoints
370
               0
390
0
 62
               0
100
AcDbPoint
 10
0.1951200000000632
 20
-119.53528000000006
 30
0.0
  0
ENDBLK
  5
140
100
AcDbEntity
  8
寸法
390
0
100
AcDbBlockEnd
  0
BLOCK
  5
141
100
AcDbEntity
  8
寸法
390
0
100
AcDbBlockBegin
  2
*D21
 70
               1
 10
0.0
 20
0.0
 30
0.0
  3
*D21
  1

  0
LINE
  5
142
100
AcDbEntity
  8
寸法
370
              -2
390
0
  6
Continuous
 62
               0
100
AcDbLine
 10
-355.99331999999993
 20
144.0
 30
0.0
 11
-355.99331999999993
 21
202.66111999999998
 31
0.0
  0
LINE
  5
143
100
AcDbEntity
  8
寸法
370
              -2
390
0
  6
Continuous
 62
               0
100
AcDbLine
 10
-115.99331999999995
 20
113.96451999999988
 30
0.0
 11
-115.99331999999995
 21
202.66111999999998
 31
0.0
  0
LINE
  5
144
100
AcDbEntity
  8
寸法
370
              -2
390
0
  6
Continuous
 62
               0
100
AcDbLine
 10
-355.99331999999993
 20
198.66111999999998
 30
0.0
 11
-115.99331999999995
 21
198.66111999999998
 31
0.0
  0
SOLID
  5
145
100
AcDbEntity
  8
寸法
370
              -2
390
0
 62
               0
100
AcDbTrace
 10
-355.99331999999993
 20
198.66111999999998
 30
0.0
 11
-349.99058562499994
 21
199.93704057936844
 31
0.0
 12
-349.99058562499994
 22
197.38519942063152
 32
0.0
 13
-349.99058562499994
 23
197.38519942063152
 33
0.0
  0
SOLID
  5
146
100
AcDbEntity
  8
寸法
370
              -2
390
0
 62
               0
100
AcDbTrace
 10
-115.99331999999995
 20
198.66111999999998
 30
0.0
 11
-121.99605437499996
 21
197.38519942063152
 31
0.0
 12
-121.99605437499996
 22
199.93704057936844
 32
0.0
 13
-121.99605437499996
 23
199.93704057936844
 33
0.0
  0
MTEXT
  5
147
100
AcDbEntity
  8
寸法
390
0
 62
               0
100
AcDbMText
 10
-245.51832067287015
 20
209.20036999999996
 30
0.0
 40
8.7312499999999993
 41
0.0
 71
               1
 72
               1
  1
240
  7
ＭＳ Ｐゴシック
 73
               1
 44
0.8762322015334064
  0
POINT
  5
148
100
AcDbEntity
  8
Defpoints
370
               0
390
0
 62
               0
100
AcDbPoint
 10
-115.99331999999995
 20
109.96451999999988
 30
0.0
  0
POINT
  5
149
100
AcDbEntity
  8
Defpoints
370
               0
390
0
 62
               0
100
AcDbPoint
 10
-355.99331999999993
 20
140.0
 30
0.0
  0
POINT
  5
14A
100
AcDbEntity
  8
Defpoints
370
               0
390
0
 62
               0
100
AcDbPoint
 10
-355.99331999999993
 20
198.66111999999998
 30
0.0
  0
ENDBLK
  5
14B
100
AcDbEntity
  8
寸法
390
0
100
AcDbBlockEnd
  0
ENDSEC
  0
SECTION
  2
ENTITIES
  0
LINE
  5
14C
100
AcDbEntity
  8
一般
370
               5
390
0
  6
Continuous
 62
               7
100
AcDbLine
 10
-59.804919999999953
 20
148.66111999999998
 30
0.0
 11
134.19508000000005
 21
148.66111999999998
 31
0.0
  0
LINE
  5
14D
100
AcDbEntity
  8
001
370
               5
390
0
  6
STYLE_06
 62
               7
100
AcDbLine
 10
-56.930719999999937
 20
-123.58528000000001
 30
0.0
 11
-19.653799999999869
 21
-123.58528000000001
 31
0.0
  0
LINE
  5
14E
100
AcDbEntity
  8
001
370
               5
390
0
  6
STYLE_06
 62
               7
100
AcDbLine
 10
-38.079639999999934
 20
-104.74707999999987
 30
0.0
 11
-38.079639999999934
 21
-144.18467999999996
 31
0.0
  0
LINE
  5
14F
100
AcDbEntity
  8
001
370
               5
390
0
  6
STYLE_06
 62
               7
100
AcDbLine
 10
200.0
 20
-150.0
 30
0.0
 11
200.0
 21
-180.0
 31
0.0
  0
MTEXT
  5
150
100
AcDbEntity
  8
001
390
0
 62
               7
100
AcDbMText
 10
-404.80491999999992
 20
238.39236999999997
 30
0.0
 40
8.7312499999999993
 41
0.0
 71
               1
 72
               1
  1
ＣＭＣ-２００シリーズ　外形図
  7
ＭＳ Ｐゴシック (bold)
 73
               1
 44
0.8762322015334064
  0
LINE
  5
151
100
AcDbEntity
  8
001
370
               5
390
0
 62
               7
100
AcDbLine
 10
238.93948
 20
-103.98508000000004
 30
0.0
 11
239.53887999999984
 21
-103.0
 31
0.0
  0
LINE
  5
152
100
AcDbEntity
  8
001
370
               5
390
0
 62
               7
100
AcDbLine
 10
238.93948
 20
-101.86468000000002
 30
0.0
 11
239.53887999999984
 21
-103.0
 31
0.0
  0
LINE
  5
153
100
AcDbEntity
  8
001
370
               5
390
0
 62
               7
100
AcDbLine
 10
73.25
 20
102.64399999999989
 30
0.0
 11
73.25
 21
103.0
 31
0.0
  0
LINE
  5
154
100
AcDbEntity
  8
001
370
               5
390
0
 62
               7
100
AcDbLine
 10
73.25
 20
102.64399999999989
 30
0.0
 11
74.156400000000033
 21
102.64399999999989
 31
0.0
  0
LINE
  5
155
100
AcDbEntity
  8
001
370
               5
390
0
 62
               7
100
AcDbLine
 10
74.564000000000121
 20
102.23639999999995
 30
0.0
 11
74.156400000000033
 21
102.64399999999989
 31
0.0
  0
LINE
  5
156
100
AcDbEntity
  8
001
370
               5
390
0
 62
               7
100
AcDbLine
 10
74.564000000000121
 20
101.25
 30
0.0
 11
74.564000000000121
 21
102.23639999999995
 31
0.0
  0
LINE
  5
157
100
AcDbEntity
  8
001
370
               5
390
0
 62
               7
100
AcDbLine
 10
74.564000000000121
 20
101.25
 30
0.0
 11
75.0
 21
101.25
 31
0.0
  0
LINE
  5
158
100
AcDbEntity
  8
001
370
               5
390
0
 62
               7
100
AcDbLine
 10
75.355999999999952
 20
101.25
 30
0.0
 11
75.0
 21
101.25
 31
0.0
  0
LINE
  5
159
100
AcDbEntity
  8
001
370
               5
390
0
 62
               7
100
AcDbLine
 10
75.355999999999952
 20
101.25
 30
0.0
 11
75.355999999999952
 21
102.15639999999985
 31
0.0
  0
LINE
  5
15A
100
AcDbEntity
  8
001
370
               5
390
0
 62
               7
100
AcDbLine
 10
75.763280000000123
 20
102.56399999999996
 30
0.0
 11
75.355800000000087
 21
102.15639999999985
 31
0.0
  0
LINE
  5
15B
100
AcDbEntity
  8
001
370
               5
390
0
 62
               7
100
AcDbLine
 10
76.749800000000135
 20
102.56399999999996
 30
0.0
 11
75.763280000000123
 21
102.56399999999996
 31
0.0
  0
LINE
  5
15C
100
AcDbEntity
  8
001
370
               5
390
0
 62
               7
100
AcDbLine
 10
76.75
 20
102.56399999999996
 30
0.0
 11
76.75
 21
103.0
 31
0.0
  0
LINE
  5
15D
100
AcDbEntity
  8
001
370
               5
390
0
 62
               7
100
AcDbLine
 10
76.75
 20
103.35599999999994
 30
0.0
 11
76.75
 21
103.0
 31
0.0
  0
LINE
  5
15E
100
AcDbEntity
  8
001
370
               5
390
0
 62
               7
100
AcDbLine
 10
76.749800000000135
 20
103.35599999999994
 30
0.0
 11
75.84328000000005
 21
103.35599999999994
 31
0.0
  0
LINE
  5
15F
100
AcDbEntity
  8
001
370
               5
390
0
 62
               7
100
AcDbLine
 10
75.435800000000015
 20
103.76379999999989
 30
0.0
 11
75.84328000000005
 21
103.35599999999994
 31
0.0
  0
LINE
  5
160
100
AcDbEntity
  8
001
370
               5
390
0
 62
               7
100
AcDbLine
 10
75.436000000000064
 20
104.75
 30
0.0
 11
75.436000000000064
 21
103.76379999999989
 31
0.0
  0
LINE
  5
161
100
AcDbEntity
  8
001
370
               5
390
0
 62
               7
100
AcDbLine
 10
75.436000000000064
 20
104.75
 30
0.0
 11
75.0
 21
104.75
 31
0.0
  0
LINE
  5
162
100
AcDbEntity
  8
001
370
               5
390
0
 62
               7
100
AcDbLine
 10
74.644000000000048
 20
104.75
 30
0.0
 11
75.0
 21
104.75
 31
0.0
  0
LINE
  5
163
100
AcDbEntity
  8
001
370
               5
390
0
 62
               7
100
AcDbLine
 10
74.644000000000048
 20
104.75
 30
0.0
 11
74.644000000000048
 21
103.84379999999982
 31
0.0
  0
LINE
  5
164
100
AcDbEntity
  8
001
370
               5
390
0
 62
               7
100
AcDbLine
 10
74.236399999999961
 20
103.43600000000004
 30
0.0
 11
74.644000000000048
 21
103.84379999999982
 31
0.0
  0
LINE
  5
165
100
AcDbEntity
  8
001
370
               5
390
0
 62
               7
100
AcDbLine
 10
73.25
 20
103.43600000000004
 30
0.0
 11
74.236399999999961
 21
103.43600000000004
 31
0.0
  0
LINE
  5
166
100
AcDbEntity
  8
001
370
               5
390
0
 62
               7
100
AcDbLine
 10
73.25
 20
103.43600000000004
 30
0.0
 11
73.25
 21
103.0
 31
0.0
  0
LINE
  5
167
100
AcDbEntity
  8
001
370
               5
390
0
 62
               7
100
AcDbLine
 10
163.25
 20
102.64399999999989
 30
0.0
 11
163.25
 21
103.0
 31
0.0
  0
LINE
  5
168
100
AcDbEntity
  8
001
370
               5
390
0
 62
               7
100
AcDbLine
 10
163.25
 20
102.64399999999989
 30
0.0
 11
164.15640000000005
 21
102.64399999999989
 31
0.0
  0
LINE
  5
169
100
AcDbEntity
  8
001
370
               5
390
0
 62
               7
100
AcDbLine
 10
164.56400000000014
 20
102.23639999999995
 30
0.0
 11
164.15640000000005
 21
102.64399999999989
 31
0.0
  0
LINE
  5
16A
100
AcDbEntity
  8
001
370
               5
390
0
 62
               7
100
AcDbLine
 10
164.56400000000014
 20
101.25
 30
0.0
 11
164.56400000000014
 21
102.23639999999995
 31
0.0
  0
LINE
  5
16B
100
AcDbEntity
  8
001
370
               5
390
0
 62
               7
100
AcDbLine
 10
164.56400000000014
 20
101.25
 30
0.0
 11
165.0
 21
101.25
 31
0.0
  0
LINE
  5
16C
100
AcDbEntity
  8
001
370
               5
390
0
 62
               7
100
AcDbLine
 10
165.35599999999997
 20
101.25
 30
0.0
 11
165.35599999999997
 21
102.15639999999985
 31
0.0
  0
LINE
  5
16D
100
AcDbEntity
  8
001
370
               5
390
0
 62
               7
100
AcDbLine
 10
165.76328000000012
 20
102.56399999999996
 30
0.0
 11
165.3557999999999
 21
102.15639999999985
 31
0.0
  0
LINE
  5
16E
100
AcDbEntity
  8
001
370
               5
390
0
 62
               7
100
AcDbLine
 10
166.74979999999996
 20
102.56399999999996
 30
0.0
 11
165.76328000000012
 21
102.56399999999996
 31
0.0
  0
LINE
  5
16F
100
AcDbEntity
  8
001
370
               5
390
0
 62
               7
100
AcDbLine
 10
166.75
 20
102.56399999999996
 30
0.0
 11
166.75
 21
103.0
 31
0.0
  0
LINE
  5
170
100
AcDbEntity
  8
001
370
               5
390
0
 62
               7
100
AcDbLine
 10
166.75
 20
103.35599999999994
 30
0.0
 11
166.75
 21
103.0
 31
0.0
  0
LINE
  5
171
100
AcDbEntity
  8
001
370
               5
390
0
 62
               7
100
AcDbLine
 10
166.74979999999996
 20
103.35599999999994
 30
0.0
 11
165.84328000000005
 21
103.35599999999994
 31
0.0
  0
LINE
  5
172
100
AcDbEntity
  8
001
370
               5
390
0
 62
               7
100
AcDbLine
 10
165.43580000000003
 20
103.76379999999989
 30
0.0
 11
165.84328000000005
 21
103.35599999999994
 31
0.0
  0
LINE
  5
173
100
AcDbEntity
  8
001
370
               5
390
0
 62
               7
100
AcDbLine
 10
165.43600000000006
 20
104.75
 30
0.0
 11
165.43600000000006
 21
103.76379999999989
 31
0.0
  0
LINE
  5
174
100
AcDbEntity
  8
001
370
               5
390
0
 62
               7
100
AcDbLine
 10
165.43600000000006
 20
104.75
 30
0.0
 11
165.0
 21
104.75
 31
0.0
  0
LINE
  5
175
100
AcDbEntity
  8
001
370
               5
390
0
 62
               7
100
AcDbLine
 10
164.64400000000006
 20
104.75
 30
0.0
 11
165.0
 21
104.75
 31
0.0
  0
LINE
  5
176
100
AcDbEntity
  8
001
370
               5
390
0
 62
               7
100
AcDbLine
 10
164.64400000000006
 20
104.75
 30
0.0
 11
164.64400000000006
 21
103.84379999999982
 31
0.0
  0
LINE
  5
177
100
AcDbEntity
  8
001
370
               5
390
0
 62
               7
100
AcDbLine
 10
164.23639999999997
 20
103.43600000000004
 30
0.0
 11
164.64400000000006
 21
103.84379999999982
 31
0.0
  0
LINE
  5
178
100
AcDbEntity
  8
001
370
               5
390
0
 62
               7
100
AcDbLine
 10
163.25
 20
103.43600000000004
 30
0.0
 11
164.23639999999997
 21
103.43600000000004
 31
0.0
  0
LINE
  5
179
100
AcDbEntity
  8
001
370
               5
390
0
 62
               7
100
AcDbLine
 10
163.25
 20
103.43600000000004
 30
0.0
 11
163.25
 21
103.0
 31
0.0
  0
LINE
  5
17A
100
AcDbEntity
  8
001
370
               5
390
0
  6
Continuous
 62
               7
100
AcDbLine
 10
163.25
 20
-15.356000000000108
 30
0.0
 11
163.25
 21
-15.0
 31
0.0
  0
LINE
  5
17B
100
AcDbEntity
  8
001
370
               5
390
0
  6
Continuous
 62
               7
100
AcDbLine
 10
163.25
 20
-15.356000000000108
 30
0.0
 11
164.15640000000005
 21
-15.356000000000108
 31
0.0
  0
LINE
  5
17C
100
AcDbEntity
  8
001
370
               5
390
0
  6
Continuous
 62
               7
100
AcDbLine
 10
164.56400000000014
 20
-15.763599999999997
 30
0.0
 11
164.15640000000005
 21
-15.356000000000108
 31
0.0
  0
LINE
  5
17D
100
AcDbEntity
  8
001
370
               5
390
0
  6
Continuous
 62
               7
100
AcDbLine
 10
164.56400000000014
 20
-16.75
 30
0.0
 11
164.56400000000014
 21
-15.763599999999997
 31
0.0
  0
LINE
  5
17E
100
AcDbEntity
  8
001
370
               5
390
0
  6
Continuous
 62
               7
100
AcDbLine
 10
164.56400000000014
 20
-16.75
 30
0.0
 11
165.0
 21
-16.75
 31
0.0
  0
LINE
  5
17F
100
AcDbEntity
  8
001
370
               5
390
0
  6
Continuous
 62
               7
100
AcDbLine
 10
165.35599999999997
 20
-16.75
 30
0.0
 11
165.0
 21
-16.75
 31
0.0
  0
LINE
  5
180
100
AcDbEntity
  8
001
370
               5
390
0
  6
Continuous
 62
               7
100
AcDbLine
 10
165.35599999999997
 20
-16.75
 30
0.0
 11
165.35599999999997
 21
-15.843600000000151
 31
0.0
  0
LINE
  5
181
100
AcDbEntity
  8
001
370
               5
390
0
  6
Continuous
 62
               7
100
AcDbLine
 10
165.76328000000012
 20
-15.436000000000035
 30
0.0
 11
165.3557999999999
 21
-15.843600000000151
 31
0.0
  0
LINE
  5
182
100
AcDbEntity
  8
001
370
               5
390
0
  6
Continuous
 62
               7
100
AcDbLine
 10
166.74979999999996
 20
-15.436000000000035
 30
0.0
 11
165.76328000000012
 21
-15.436000000000035
 31
0.0
  0
LINE
  5
183
100
AcDbEntity
  8
001
370
               5
390
0
  6
Continuous
 62
               7
100
AcDbLine
 10
166.75
 20
-15.436000000000035
 30
0.0
 11
166.75
 21
-15.0
 31
0.0
  0
LINE
  5
184
100
AcDbEntity
  8
001
370
               5
390
0
  6
Continuous
 62
               7
100
AcDbLine
 10
166.75
 20
-14.644000000000005
 30
0.0
 11
166.75
 21
-15.0
 31
0.0
  0
LINE
  5
185
100
AcDbEntity
  8
001
370
               5
390
0
  6
Continuous
 62
               7
100
AcDbLine
 10
166.74979999999996
 20
-14.644000000000005
 30
0.0
 11
165.84328000000005
 21
-14.644000000000005
 31
0.0
  0
LINE
  5
186
100
AcDbEntity
  8
001
370
               5
390
0
  6
Continuous
 62
               7
100
AcDbLine
 10
165.43580000000003
 20
-14.236200000000053
 30
0.0
 11
165.84328000000005
 21
-14.644000000000005
 31
0.0
  0
LINE
  5
187
100
AcDbEntity
  8
001
370
               5
390
0
  6
Continuous
 62
               7
100
AcDbLine
 10
165.43600000000006
 20
-13.25
 30
0.0
 11
165.43600000000006
 21
-14.236200000000053
 31
0.0
  0
LINE
  5
188
100
AcDbEntity
  8
001
370
               5
390
0
  6
Continuous
 62
               7
100
AcDbLine
 10
165.43600000000006
 20
-13.25
 30
0.0
 11
165.0
 21
-13.25
 31
0.0
  0
LINE
  5
189
100
AcDbEntity
  8
001
370
               5
390
0
  6
Continuous
 62
               7
100
AcDbLine
 10
164.64400000000006
 20
-13.25
 30
0.0
 11
165.0
 21
-13.25
 31
0.0
  0
LINE
  5
18A
100
AcDbEntity
  8
001
370
               5
390
0
  6
Continuous
 62
               7
100
AcDbLine
 10
164.64400000000006
 20
-13.25
 30
0.0
 11
164.64400000000006
 21
-14.156200000000126
 31
0.0
  0
LINE
  5
18B
100
AcDbEntity
  8
001
370
               5
390
0
  6
Continuous
 62
               7
100
AcDbLine
 10
164.23639999999997
 20
-14.563999999999965
 30
0.0
 11
164.64400000000006
 21
-14.156200000000126
 31
0.0
  0
LINE
  5
18C
100
AcDbEntity
  8
001
370
               5
390
0
  6
Continuous
 62
               7
100
AcDbLine
 10
163.25
 20
-14.563999999999965
 30
0.0
 11
164.23639999999997
 21
-14.563999999999965
 31
0.0
  0
LINE
  5
18D
100
AcDbEntity
  8
001
370
               5
390
0
  6
Continuous
 62
               7
100
AcDbLine
 10
163.25
 20
-14.563999999999965
 30
0.0
 11
163.25
 21
-15.0
 31
0.0
  0
LINE
  5
18E
100
AcDbEntity
  8
001
370
               5
390
0
 62
               7
100
AcDbLine
 10
73.25
 20
-15.356000000000108
 30
0.0
 11
73.25
 21
-15.0
 31
0.0
  0
LINE
  5
18F
100
AcDbEntity
  8
001
370
               5
390
0
 62
               7
100
AcDbLine
 10
73.25
 20
-15.356000000000108
 30
0.0
 11
74.156400000000033
 21
-15.356000000000108
 31
0.0
  0
LINE
  5
190
100
AcDbEntity
  8
001
370
               5
390
0
 62
               7
100
AcDbLine
 10
74.564000000000121
 20
-15.763599999999997
 30
0.0
 11
74.156400000000033
 21
-15.356000000000108
 31
0.0
  0
LINE
  5
191
100
AcDbEntity
  8
001
370
               5
390
0
 62
               7
100
AcDbLine
 10
74.564000000000121
 20
-16.75
 30
0.0
 11
74.564000000000121
 21
-15.763599999999997
 31
0.0
  0
LINE
  5
192
100
AcDbEntity
  8
001
370
               5
390
0
 62
               7
100
AcDbLine
 10
74.564000000000121
 20
-16.75
 30
0.0
 11
75.0
 21
-16.75
 31
0.0
  0
LINE
  5
193
100
AcDbEntity
  8
001
370
               5
390
0
 62
               7
100
AcDbLine
 10
75.355999999999952
 20
-16.75
 30
0.0
 11
75.0
 21
-16.75
 31
0.0
  0
LINE
  5
194
100
AcDbEntity
  8
001
370
               5
390
0
 62
               7
100
AcDbLine
 10
75.355999999999952
 20
-16.75
 30
0.0
 11
75.355999999999952
 21
-15.843600000000151
 31
0.0
  0
LINE
  5
195
100
AcDbEntity
  8
001
370
               5
390
0
 62
               7
100
AcDbLine
 10
75.763280000000123
 20
-15.436000000000035
 30
0.0
 11
75.355800000000087
 21
-15.843600000000151
 31
0.0
  0
LINE
  5
196
100
AcDbEntity
  8
001
370
               5
390
0
 62
               7
100
AcDbLine
 10
76.749800000000135
 20
-15.436000000000035
 30
0.0
 11
75.763280000000123
 21
-15.436000000000035
 31
0.0
  0
LINE
  5
197
100
AcDbEntity
  8
001
370
               5
390
0
 62
               7
100
AcDbLine
 10
76.75
 20
-15.436000000000035
 30
0.0
 11
76.75
 21
-15.0
 31
0.0
  0
LINE
  5
198
100
AcDbEntity
  8
001
370
               5
390
0
 62
               7
100
AcDbLine
 10
76.75
 20
-14.644000000000005
 30
0.0
 11
76.75
 21
-15.0
 31
0.0
  0
LINE
  5
199
100
AcDbEntity
  8
001
370
               5
390
0
 62
               7
100
AcDbLine
 10
76.749800000000135
 20
-14.644000000000005
 30
0.0
 11
75.84328000000005
 21
-14.644000000000005
 31
0.0
  0
LINE
  5
19A
100
AcDbEntity
  8
001
370
               5
390
0
 62
               7
100
AcDbLine
 10
75.435800000000015
 20
-14.236200000000053
 30
0.0
 11
75.84328000000005
 21
-14.644000000000005
 31
0.0
  0
LINE
  5
19B
100
AcDbEntity
  8
001
370
               5
390
0
 62
               7
100
AcDbLine
 10
75.436000000000064
 20
-13.25
 30
0.0
 11
75.436000000000064
 21
-14.236200000000053
 31
0.0
  0
LINE
  5
19C
100
AcDbEntity
  8
001
370
               5
390
0
 62
               7
100
AcDbLine
 10
75.436000000000064
 20
-13.25
 30
0.0
 11
75.0
 21
-13.25
 31
0.0
  0
LINE
  5
19D
100
AcDbEntity
  8
001
370
               5
390
0
 62
               7
100
AcDbLine
 10
74.644000000000048
 20
-13.25
 30
0.0
 11
75.0
 21
-13.25
 31
0.0
  0
LINE
  5
19E
100
AcDbEntity
  8
001
370
               5
390
0
 62
               7
100
AcDbLine
 10
74.644000000000048
 20
-13.25
 30
0.0
 11
74.644000000000048
 21
-14.156200000000126
 31
0.0
  0
LINE
  5
19F
100
AcDbEntity
  8
001
370
               5
390
0
 62
               7
100
AcDbLine
 10
74.236399999999961
 20
-14.563999999999965
 30
0.0
 11
74.644000000000048
 21
-14.156200000000126
 31
0.0
  0
LINE
  5
1A0
100
AcDbEntity
  8
001
370
               5
390
0
 62
               7
100
AcDbLine
 10
73.25
 20
-14.563999999999965
 30
0.0
 11
74.236399999999961
 21
-14.563999999999965
 31
0.0
  0
LINE
  5
1A1
100
AcDbEntity
  8
001
370
               5
390
0
 62
               7
100
AcDbLine
 10
73.25
 20
-14.563999999999965
 30
0.0
 11
73.25
 21
-15.0
 31
0.0
  0
LINE
  5
1A2
100
AcDbEntity
  8
001
370
               5
390
0
 62
               7
100
AcDbLine
 10
25.25
 20
-90.356000000000108
 30
0.0
 11
25.25
 21
-90.0
 31
0.0
  0
LINE
  5
1A3
100
AcDbEntity
  8
001
370
               5
390
0
 62
               7
100
AcDbLine
 10
25.25
 20
-90.356000000000108
 30
0.0
 11
26.156400000000019
 21
-90.356000000000108
 31
0.0
  0
LINE
  5
1A4
100
AcDbEntity
  8
001
370
               5
390
0
 62
               7
100
AcDbLine
 10
26.564000000000121
 20
-90.763599999999997
 30
0.0
 11
26.156400000000019
 21
-90.356000000000108
 31
0.0
  0
LINE
  5
1A5
100
AcDbEntity
  8
001
370
               5
390
0
 62
               7
100
AcDbLine
 10
26.564000000000121
 20
-91.75
 30
0.0
 11
26.564000000000121
 21
-90.763599999999997
 31
0.0
  0
LINE
  5
1A6
100
AcDbEntity
  8
001
370
               5
390
0
 62
               7
100
AcDbLine
 10
26.564000000000121
 20
-91.75
 30
0.0
 11
27.0
 21
-91.75
 31
0.0
  0
LINE
  5
1A7
100
AcDbEntity
  8
001
370
               5
390
0
 62
               7
100
AcDbLine
 10
27.355999999999938
 20
-91.75
 30
0.0
 11
27.0
 21
-91.75
 31
0.0
  0
LINE
  5
1A8
100
AcDbEntity
  8
001
370
               5
390
0
 62
               7
100
AcDbLine
 10
27.355999999999938
 20
-91.75
 30
0.0
 11
27.355999999999938
 21
-90.843600000000151
 31
0.0
  0
LINE
  5
1A9
100
AcDbEntity
  8
001
370
               5
390
0
 62
               7
100
AcDbLine
 10
27.763280000000123
 20
-90.436000000000035
 30
0.0
 11
27.355800000000087
 21
-90.843600000000151
 31
0.0
  0
LINE
  5
1AA
100
AcDbEntity
  8
001
370
               5
390
0
 62
               7
100
AcDbLine
 10
28.749800000000135
 20
-90.436000000000035
 30
0.0
 11
27.763280000000123
 21
-90.436000000000035
 31
0.0
  0
LINE
  5
1AB
100
AcDbEntity
  8
001
370
               5
390
0
 62
               7
100
AcDbLine
 10
28.75
 20
-90.436000000000035
 30
0.0
 11
28.75
 21
-90.0
 31
0.0
  0
LINE
  5
1AC
100
AcDbEntity
  8
001
370
               5
390
0
 62
               7
100
AcDbLine
 10
28.75
 20
-89.644000000000005
 30
0.0
 11
28.75
 21
-90.0
 31
0.0
  0
LINE
  5
1AD
100
AcDbEntity
  8
001
370
               5
390
0
 62
               7
100
AcDbLine
 10
28.749800000000135
 20
-89.644000000000005
 30
0.0
 11
27.84328000000005
 21
-89.644000000000005
 31
0.0
  0
LINE
  5
1AE
100
AcDbEntity
  8
001
370
               5
390
0
 62
               7
100
AcDbLine
 10
27.435800000000015
 20
-89.236200000000053
 30
0.0
 11
27.84328000000005
 21
-89.644000000000005
 31
0.0
  0
LINE
  5
1AF
100
AcDbEntity
  8
001
370
               5
390
0
 62
               7
100
AcDbLine
 10
27.436000000000064
 20
-88.25
 30
0.0
 11
27.436000000000064
 21
-89.236200000000053
 31
0.0
  0
LINE
  5
1B0
100
AcDbEntity
  8
001
370
               5
390
0
 62
               7
100
AcDbLine
 10
27.436000000000064
 20
-88.25
 30
0.0
 11
27.0
 21
-88.25
 31
0.0
  0
LINE
  5
1B1
100
AcDbEntity
  8
001
370
               5
390
0
 62
               7
100
AcDbLine
 10
26.644000000000048
 20
-88.25
 30
0.0
 11
27.0
 21
-88.25
 31
0.0
  0
LINE
  5
1B2
100
AcDbEntity
  8
001
370
               5
390
0
 62
               7
100
AcDbLine
 10
26.644000000000048
 20
-88.25
 30
0.0
 11
26.644000000000048
 21
-89.156200000000126
 31
0.0
  0
LINE
  5
1B3
100
AcDbEntity
  8
001
370
               5
390
0
 62
               7
100
AcDbLine
 10
26.236399999999946
 20
-89.563999999999965
 30
0.0
 11
26.644000000000048
 21
-89.156200000000126
 31
0.0
  0
LINE
  5
1B4
100
AcDbEntity
  8
001
370
               5
390
0
 62
               7
100
AcDbLine
 10
25.25
 20
-89.563999999999965
 30
0.0
 11
26.236399999999946
 21
-89.563999999999965
 31
0.0
  0
LINE
  5
1B5
100
AcDbEntity
  8
001
370
               5
390
0
 62
               7
100
AcDbLine
 10
25.25
 20
-89.563999999999965
 30
0.0
 11
25.25
 21
-90.0
 31
0.0
  0
LINE
  5
1B6
100
AcDbEntity
  8
001
370
               5
390
0
 62
               7
100
AcDbLine
 10
20.0
 20
113.0
 30
0.0
 11
20.0
 21
130.0
 31
0.0
  0
ARC
  5
1B7
100
AcDbEntity
  8
001
370
               5
390
0
 62
               7
100
AcDbCircle
 10
30.0
 20
130.0
 30
0.0
 40
10.0
100
AcDbArc
 50
90.0
 51
180.0
  0
LINE
  5
1B8
100
AcDbEntity
  8
001
370
               5
390
0
 62
               7
100
AcDbLine
 10
30.0
 20
140.0
 30
0.0
 11
50.0
 21
140.0
 31
0.0
  0
ARC
  5
1B9
100
AcDbEntity
  8
001
370
               5
390
0
 62
               7
100
AcDbCircle
 10
50.0
 20
130.0
 30
0.0
 40
10.0
100
AcDbArc
 50
0.0
 51
90.0
  0
LINE
  5
1BA
100
AcDbEntity
  8
001
370
               5
390
0
 62
               7
100
AcDbLine
 10
60.0
 20
116.0
 30
0.0
 11
60.0
 21
130.0
 31
0.0
  0
ARC
  5
1BB
100
AcDbEntity
  8
001
370
               5
390
0
 62
               7
100
AcDbCircle
 10
66.0
 20
116.0
 30
0.0
 40
6.0
100
AcDbArc
 50
180.0
 51
209.99996382113096
  0
CIRCLE
  5
1BC
100
AcDbEntity
  8
001
370
               5
390
0
 62
               7
100
AcDbCircle
 10
40.0
 20
125.0
 30
0.0
 40
5.5
  0
LINE
  5
1BD
100
AcDbEntity
  8
001
370
               5
390
0
 62
               7
100
AcDbLine
 10
221.0
 20
113.0
 30
0.0
 11
19.0
 21
113.0
 31
0.0
  0
ARC
  5
1BE
100
AcDbEntity
  8
001
370
               5
390
0
 62
               7
100
AcDbCircle
 10
19.0
 20
111.0
 30
0.0
 40
2.0
100
AcDbArc
 50
90.0
 51
180.0
  0
LINE
  5
1BF
100
AcDbEntity
  8
001
370
               5
390
0
 62
               7
100
AcDbLine
 10
16.999999999999993
 20
-23.0
 30
0.0
 11
16.999999999999993
 21
111.0
 31
0.0
  0
ARC
  5
1C0
100
AcDbEntity
  8
001
370
               5
390
0
 62
               7
100
AcDbCircle
 10
174.0
 20
116.0
 30
0.0
 40
6.0000412031918131
100
AcDbArc
 50
330.00022716328237
 51
0.0
  0
LINE
  5
1C1
100
AcDbEntity
  8
001
370
               5
390
0
 62
               7
100
AcDbLine
 10
180.0
 20
116.0
 30
0.0
 11
180.0
 21
130.0
 31
0.0
  0
ARC
  5
1C2
100
AcDbEntity
  8
001
370
               5
390
0
 62
               7
100
AcDbCircle
 10
190.0
 20
130.0
 30
0.0
 40
10.0
100
AcDbArc
 50
90.0
 51
180.0
  0
LINE
  5
1C3
100
AcDbEntity
  8
001
370
               5
390
0
 62
               7
100
AcDbLine
 10
190.0
 20
140.0
 30
0.0
 11
210.0
 21
140.0
 31
0.0
  0
ARC
  5
1C4
100
AcDbEntity
  8
001
370
               5
390
0
 62
               7
100
AcDbCircle
 10
210.0
 20
130.0
 30
0.0
 40
10.0
100
AcDbArc
 50
0.0
 51
90.0
  0
CIRCLE
  5
1C5
100
AcDbEntity
  8
001
370
               5
390
0
 62
               7
100
AcDbCircle
 10
200.0
 20
125.0
 30
0.0
 40
5.5
  0
LINE
  5
1C6
100
AcDbEntity
  8
001
370
               5
390
0
 62
               7
100
AcDbLine
 10
220.0
 20
113.0
 30
0.0
 11
220.0
 21
130.0
 31
0.0
  0
ARC
  5
1C7
100
AcDbEntity
  8
001
370
               5
390
0
 62
               7
100
AcDbCircle
 10
221.0
 20
111.0
 30
0.0
 40
2.0
100
AcDbArc
 50
0.0
 51
90.0
  0
LINE
  5
1C8
100
AcDbEntity
  8
001
370
               5
390
0
 62
               7
100
AcDbLine
 10
223.0
 20
-23.0
 30
0.0
 11
223.0
 21
111.0
 31
0.0
  0
LINE
  5
1C9
100
AcDbEntity
  8
001
370
               5
390
0
 62
               7
100
AcDbLine
 10
227.70000000000005
 20
94.300000000000011
 30
0.0
 11
223.0
 21
94.300000000000011
 31
0.0
  0
LINE
  5
1CA
100
AcDbEntity
  8
001
370
               5
390
0
 62
               7
100
AcDbLine
 10
227.70000000000005
 20
103.0
 30
0.0
 11
227.70000000000005
 21
94.300000000000011
 31
0.0
  0
LINE
  5
1CB
100
AcDbEntity
  8
001
370
               5
390
0
 62
               7
100
AcDbLine
 10
227.70000000000005
 20
103.0
 30
0.0
 11
230.0
 21
103.0
 31
0.0
  0
LINE
  5
1CC
100
AcDbEntity
  8
001
370
               5
390
0
 62
               7
100
AcDbLine
 10
230.0
 20
-97.0
 30
0.0
 11
230.0
 21
103.0
 31
0.0
  0
LINE
  5
1CD
100
AcDbEntity
  8
001
370
               5
390
0
 62
               7
100
AcDbLine
 10
234.0
 20
92.5
 30
0.0
 11
234.0
 21
103.0
 31
0.0
  0
LINE
  5
1CE
100
AcDbEntity
  8
001
370
               5
390
0
 62
               7
100
AcDbLine
 10
234.0
 20
103.0
 30
0.0
 11
236.29999999999995
 21
103.0
 31
0.0
  0
LINE
  5
1CF
100
AcDbEntity
  8
001
370
               5
390
0
 62
               7
100
AcDbLine
 10
236.29999999999995
 20
103.0
 30
0.0
 11
236.29999999999995
 21
92.300000000000011
 31
0.0
  0
LINE
  5
1D0
100
AcDbEntity
  8
001
370
               5
390
0
 62
               7
100
AcDbLine
 10
318.0
 20
90.0
 30
0.0
 11
230.0
 21
90.0
 31
0.0
  0
ARC
  5
1D1
100
AcDbEntity
  8
001
370
               5
390
0
 62
               7
100
AcDbCircle
 10
236.5
 20
92.5
 30
0.0
 40
2.5
100
AcDbArc
 50
180.0
 51
270.0
  0
LINE
  5
1D2
100
AcDbEntity
  8
001
370
               5
390
0
 62
               7
100
AcDbLine
 10
264.0
 20
92.300000000000011
 30
0.0
 11
236.29999999999995
 21
92.300000000000011
 31
0.0
  0
ARC
  5
1D3
100
AcDbEntity
  8
001
370
               5
390
0
 62
               7
100
AcDbCircle
 10
237.91800000000001
 20
100.19999999999999
 30
0.0
 40
1.3000172115783601
100
AcDbArc
 50
16.605528297504577
 51
90.001762947061309
  0
LINE
  5
1D4
100
AcDbEntity
  8
001
370
               5
390
0
 62
               7
100
AcDbLine
 10
264.0
 20
92.300000000000011
 30
0.0
 11
264.0
 21
90.0
 31
0.0
  0
ARC
  5
1D5
100
AcDbEntity
  8
001
370
               5
390
0
 62
               7
100
AcDbCircle
 10
237.91800000000001
 20
95.800000000000011
 30
0.0
 40
1.3000000000000114
100
AcDbArc
 50
270.0
 51
343.3995400391612
  0
ARC
  5
1D6
100
AcDbEntity
  8
001
370
               5
390
0
 62
               7
100
AcDbCircle
 10
230.5390799999999
 20
98.0
 30
0.0
 40
8.9998486607721908
100
AcDbArc
 50
343.39915014194861
 51
16.602459596259962
  0
LINE
  5
1D7
100
AcDbEntity
  8
001
370
               5
390
0
 62
               7
100
AcDbLine
 10
237.91800000000001
 20
94.5
 30
0.0
 11
236.29999999999995
 21
94.5
 31
0.0
  0
LINE
  5
1D8
100
AcDbEntity
  8
001
370
               5
390
0
 62
               7
100
AcDbLine
 10
237.91800000000001
 20
101.5
 30
0.0
 11
236.29999999999995
 21
101.5
 31
0.0
  0
LINE
  5
1D9
100
AcDbEntity
  8
001
370
               5
390
0
 62
               7
100
AcDbLine
 10
234.0
 20
100.0
 30
0.0
 11
230.0
 21
100.0
 31
0.0
  0
LINE
  5
1DA
100
AcDbEntity
  8
001
370
               5
390
0
 62
               7
100
AcDbLine
 10
234.0
 20
96.0
 30
0.0
 11
230.0
 21
96.0
 31
0.0
  0
LINE
  5
1DB
100
AcDbEntity
  8
001
370
               5
390
0
 62
               7
100
AcDbLine
 10
227.69980000000021
 20
96.0
 30
0.0
 11
225.98660000000007
 21
96.0
 31
0.0
  0
LINE
  5
1DC
100
AcDbEntity
  8
001
370
               5
390
0
 62
               7
100
AcDbLine
 10
227.69980000000021
 20
100.0
 30
0.0
 11
225.98660000000007
 21
100.0
 31
0.0
  0
LINE
  5
1DD
100
AcDbEntity
  8
001
370
               5
390
0
 62
               7
100
AcDbLine
 10
225.66288000000009
 20
99.600000000000023
 30
0.0
 11
225.66288000000009
 21
96.399999999999977
 31
0.0
  0
LINE
  5
1DE
100
AcDbEntity
  8
001
370
               5
390
0
 62
               7
100
AcDbLine
 10
225.98660000000007
 20
96.0
 30
0.0
 11
225.6626
 21
96.399999999999977
 31
0.0
  0
LINE
  5
1DF
100
AcDbEntity
  8
001
370
               5
390
0
 62
               7
100
AcDbLine
 10
225.98660000000007
 20
100.0
 30
0.0
 11
225.6626
 21
99.600000000000023
 31
0.0
  0
ARC
  5
1E0
100
AcDbEntity
  8
001
370
               5
390
0
 62
               7
100
AcDbCircle
 10
318.0
 20
88.0
 30
0.0
 40
2.0
100
AcDbArc
 50
0.0
 51
90.0
  0
LINE
  5
1E1
100
AcDbEntity
  8
001
370
               5
390
0
 62
               7
100
AcDbLine
 10
320.0
 20
88.0
 30
0.0
 11
320.0
 21
-93.399999999999977
 31
0.0
  0
ARC
  5
1E2
100
AcDbEntity
  8
001
370
               5
390
0
 62
               7
100
AcDbCircle
 10
318.39999999999998
 20
-93.399999999999977
 30
0.0
 40
1.6000000000000227
100
AcDbArc
 50
270.0
 51
0.0
  0
LINE
  5
1E3
100
AcDbEntity
  8
001
370
               5
390
0
 62
               7
100
AcDbLine
 10
230.0
 20
-95.0
 30
0.0
 11
318.39999999999998
 21
-95.0
 31
0.0
  0
LINE
  5
1E4
100
AcDbEntity
  8
001
370
               5
390
0
 62
               7
100
AcDbLine
 10
264.0
 20
-97.299999999999955
 30
0.0
 11
264.0
 21
-95.0
 31
0.0
  0
LINE
  5
1E5
100
AcDbEntity
  8
001
370
               5
390
0
 62
               7
100
AcDbLine
 10
264.0
 20
-97.299999999999955
 30
0.0
 11
236.29999999999995
 21
-97.299999999999955
 31
0.0
  0
ARC
  5
1E6
100
AcDbEntity
  8
001
370
               5
390
0
 62
               7
100
AcDbCircle
 10
230.5390799999999
 20
-103.0
 30
0.0
 40
8.9998486607721908
100
AcDbArc
 50
343.39915014194861
 51
16.602947667099048
  0
ARC
  5
1E7
100
AcDbEntity
  8
001
370
               5
390
0
 62
               7
100
AcDbCircle
 10
237.91800000000001
 20
-100.79999999999995
 30
0.0
 40
1.3000400763053561
100
AcDbArc
 50
16.608907040076723
 51
90.0
  0
LINE
  5
1E8
100
AcDbEntity
  8
001
370
               5
390
0
 62
               7
100
AcDbLine
 10
237.91800000000001
 20
-99.5
 30
0.0
 11
236.29999999999995
 21
-99.5
 31
0.0
  0
ARC
  5
1E9
100
AcDbEntity
  8
001
370
               5
390
0
 62
               7
100
AcDbCircle
 10
237.91800000000001
 20
-105.20000000000005
 30
0.0
 40
1.2999999999999545
100
AcDbArc
 50
270.0
 51
343.3995400391612
  0
LINE
  5
1EA
100
AcDbEntity
  8
001
370
               5
390
0
 62
               7
100
AcDbLine
 10
237.91800000000001
 20
-106.5
 30
0.0
 11
236.29999999999995
 21
-106.5
 31
0.0
  0
LINE
  5
1EB
100
AcDbEntity
  8
001
370
               5
390
0
 62
               7
100
AcDbLine
 10
236.29999999999995
 20
-108.0
 30
0.0
 11
236.29999999999995
 21
-97.299999999999955
 31
0.0
  0
LINE
  5
1EC
100
AcDbEntity
  8
001
370
               5
390
0
 62
               7
100
AcDbLine
 10
234.0
 20
-108.0
 30
0.0
 11
236.29999999999995
 21
-108.0
 31
0.0
  0
LINE
  5
1ED
100
AcDbEntity
  8
001
370
               5
390
0
 62
               7
100
AcDbLine
 10
234.0
 20
-97.5
 30
0.0
 11
234.0
 21
-108.0
 31
0.0
  0
ARC
  5
1EE
100
AcDbEntity
  8
001
370
               5
390
0
 62
               7
100
AcDbCircle
 10
236.5
 20
-97.5
 30
0.0
 40
2.5
100
AcDbArc
 50
90.0
 51
180.0
  0
LINE
  5
1EF
100
AcDbEntity
  8
001
370
               5
390
0
 62
               7
100
AcDbLine
 10
234.0
 20
-101.0
 30
0.0
 11
230.0
 21
-101.0
 31
0.0
  0
LINE
  5
1F0
100
AcDbEntity
  8
001
370
               5
390
0
 62
               7
100
AcDbLine
 10
230.0
 20
-97.0
 30
0.0
 11
230.0
 21
-108.0
 31
0.0
  0
LINE
  5
1F1
100
AcDbEntity
  8
001
370
               5
390
0
 62
               7
100
AcDbLine
 10
234.0
 20
-105.0
 30
0.0
 11
230.0
 21
-105.0
 31
0.0
  0
LINE
  5
1F2
100
AcDbEntity
  8
001
370
               5
390
0
 62
               7
100
AcDbLine
 10
227.70000000000005
 20
-108.0
 30
0.0
 11
230.0
 21
-108.0
 31
0.0
  0
LINE
  5
1F3
100
AcDbEntity
  8
001
370
               5
390
0
 62
               7
100
AcDbLine
 10
227.70000000000005
 20
-99.299999999999955
 30
0.0
 11
227.70000000000005
 21
-108.0
 31
0.0
  0
LINE
  5
1F4
100
AcDbEntity
  8
001
370
               5
390
0
 62
               7
100
AcDbLine
 10
227.69980000000021
 20
-105.0
 30
0.0
 11
225.98660000000007
 21
-105.0
 31
0.0
  0
LINE
  5
1F5
100
AcDbEntity
  8
001
370
               5
390
0
 62
               7
100
AcDbLine
 10
225.98660000000007
 20
-105.0
 30
0.0
 11
225.6626
 21
-104.60000000000002
 31
0.0
  0
LINE
  5
1F6
100
AcDbEntity
  8
001
370
               5
390
0
 62
               7
100
AcDbLine
 10
225.66288000000009
 20
-104.60000000000002
 30
0.0
 11
225.66288000000009
 21
-101.39999999999998
 31
0.0
  0
LINE
  5
1F7
100
AcDbEntity
  8
001
370
               5
390
0
 62
               7
100
AcDbLine
 10
225.98660000000007
 20
-101.0
 30
0.0
 11
225.6626
 21
-101.39999999999998
 31
0.0
  0
LINE
  5
1F8
100
AcDbEntity
  8
001
370
               5
390
0
 62
               7
100
AcDbLine
 10
227.69980000000021
 20
-101.0
 30
0.0
 11
225.98660000000007
 21
-101.0
 31
0.0
  0
LINE
  5
1F9
100
AcDbEntity
  8
001
370
               5
390
0
 62
               7
100
AcDbLine
 10
220.0
 20
-99.299999999999955
 30
0.0
 11
227.70000000000005
 21
-99.299999999999955
 31
0.0
  0
LINE
  5
1FA
100
AcDbEntity
  8
001
370
               5
390
0
 62
               7
100
AcDbLine
 10
220.0
 20
-25.0
 30
0.0
 11
220.0
 21
-170.0
 31
0.0
  0
LINE
  5
1FB
100
AcDbEntity
  8
001
370
               5
390
0
 62
               7
100
AcDbLine
 10
210.99999999999997
 20
-70.0
 30
0.0
 11
210.99999999999997
 21
-110.0
 31
0.0
  0
LINE
  5
1FC
100
AcDbEntity
  8
001
370
               5
390
0
 62
               7
100
AcDbLine
 10
19.0
 20
-25.0
 30
0.0
 11
221.0
 21
-25.0
 31
0.0
  0
LINE
  5
1FD
100
AcDbEntity
  8
001
370
               5
390
0
 62
               7
100
AcDbLine
 10
34.0
 20
-27.0
 30
0.0
 11
206.0
 21
-27.0
 31
0.0
  0
ARC
  5
1FE
100
AcDbEntity
  8
001
370
               5
390
0
 62
               7
100
AcDbCircle
 10
206.0
 20
-29.0
 30
0.0
 40
2.0
100
AcDbArc
 50
0.0
 51
90.0
  0
ARC
  5
1FF
100
AcDbEntity
  8
001
370
               5
390
0
 62
               7
100
AcDbCircle
 10
221.0
 20
-23.0
 30
0.0
 40
2.0
100
AcDbArc
 50
270.0
 51
0.0
  0
ARC
  5
200
100
AcDbEntity
  8
001
370
               5
390
0
 62
               7
100
AcDbCircle
 10
19.0
 20
-23.0
 30
0.0
 40
2.0000000000000071
100
AcDbArc
 50
180.0
 51
270.0
  0
LINE
  5
201
100
AcDbEntity
  8
001
370
               5
390
0
 62
               7
100
AcDbLine
 10
20.0
 20
-25.0
 30
0.0
 11
20.0
 21
-150.0
 31
0.0
  0
ARC
  5
202
100
AcDbEntity
  8
001
370
               5
390
0
 62
               7
100
AcDbCircle
 10
34.0
 20
-29.0
 30
0.0
 40
2.0
100
AcDbArc
 50
90.0
 51
180.0
  0
LINE
  5
203
100
AcDbEntity
  8
001
370
               5
390
0
 62
               7
100
AcDbLine
 10
32.0
 20
-83.0
 30
0.0
 11
32.0
 21
-29.0
 31
0.0
  0
LINE
  5
204
100
AcDbEntity
  8
001
370
               5
390
0
 62
               7
100
AcDbLine
 10
21.0
 20
-83.0
 30
0.0
 11
47.0
 21
-83.0
 31
0.0
  0
LINE
  5
205
100
AcDbEntity
  8
001
370
               5
390
0
 62
               7
100
AcDbLine
 10
21.0
 20
-97.0
 30
0.0
 11
47.0
 21
-97.0
 31
0.0
  0
LINE
  5
206
100
AcDbEntity
  8
001
370
               5
390
0
 62
               7
100
AcDbLine
 10
47.0
 20
-83.0
 30
0.0
 11
47.0
 21
-97.0
 31
0.0
  0
LINE
  5
207
100
AcDbEntity
  8
001
370
               5
390
0
 62
               7
100
AcDbLine
 10
32.0
 20
-150.0
 30
0.0
 11
20.0
 21
-150.0
 31
0.0
  0
LINE
  5
208
100
AcDbEntity
  8
001
370
               5
390
0
 62
               7
100
AcDbLine
 10
32.0
 20
-97.0
 30
0.0
 11
32.0
 21
-151.0
 31
0.0
  0
LINE
  5
209
100
AcDbEntity
  8
001
370
               5
390
0
 62
               7
100
AcDbLine
 10
20.0
 20
-150.0
 30
0.0
 11
20.0
 21
-170.0
 31
0.0
  0
ARC
  5
20A
100
AcDbEntity
  8
001
370
               5
390
0
 62
               7
100
AcDbCircle
 10
30.0
 20
-170.0
 30
0.0
 40
10.0
100
AcDbArc
 50
180.0
 51
270.0
  0
LINE
  5
20B
100
AcDbEntity
  8
001
370
               5
390
0
 62
               7
100
AcDbLine
 10
49.805080000000089
 20
-179.99808000000007
 30
0.0
 11
30.195080000000047
 21
-179.99808000000007
 31
0.0
  0
ARC
  5
20C
100
AcDbEntity
  8
001
370
               5
390
0
 62
               7
100
AcDbCircle
 10
50.0
 20
-170.0
 30
0.0
 40
10.0
100
AcDbArc
 50
270.0
 51
0.0
  0
LINE
  5
20D
100
AcDbEntity
  8
001
370
               5
390
0
 62
               7
100
AcDbLine
 10
60.0
 20
-156.0
 30
0.0
 11
60.0
 21
-170.0
 31
0.0
  0
ARC
  5
20E
100
AcDbEntity
  8
001
370
               5
390
0
 62
               7
100
AcDbCircle
 10
66.0
 20
-156.0
 30
0.0
 40
6.0000412031918131
100
AcDbArc
 50
150.00022716328235
 51
180.0
  0
LINE
  5
20F
100
AcDbEntity
  8
001
370
               5
390
0
 62
               7
100
AcDbLine
 10
34.0
 20
-153.0
 30
0.0
 11
206.0
 21
-153.0
 31
0.0
  0
ARC
  5
210
100
AcDbEntity
  8
001
370
               5
390
0
 62
               7
100
AcDbCircle
 10
34.0
 20
-151.0
 30
0.0
 40
2.0
100
AcDbArc
 50
180.0
 51
270.0
  0
CIRCLE
  5
211
100
AcDbEntity
  8
001
370
               5
390
0
 62
               7
100
AcDbCircle
 10
40.0
 20
-165.0
 30
0.0
 40
5.5
  0
ARC
  5
212
100
AcDbEntity
  8
001
370
               5
390
0
 62
               7
100
AcDbCircle
 10
174.0
 20
-156.0
 30
0.0
 40
6.0
100
AcDbArc
 50
0.0
 51
29.999963821129086
  0
LINE
  5
213
100
AcDbEntity
  8
001
370
               5
390
0
 62
               7
100
AcDbLine
 10
180.0
 20
-156.0
 30
0.0
 11
180.0
 21
-170.0
 31
0.0
  0
ARC
  5
214
100
AcDbEntity
  8
001
370
               5
390
0
 62
               7
100
AcDbCircle
 10
190.0
 20
-170.0
 30
0.0
 40
10.0
100
AcDbArc
 50
180.0
 51
270.0
  0
LINE
  5
215
100
AcDbEntity
  8
001
370
               5
390
0
 62
               7
100
AcDbLine
 10
210.0
 20
-180.0
 30
0.0
 11
190.0
 21
-180.0
 31
0.0
  0
CIRCLE
  5
216
100
AcDbEntity
  8
001
370
               5
390
0
 62
               7
100
AcDbCircle
 10
200.0
 20
-165.0
 30
0.0
 40
5.5
  0
ARC
  5
217
100
AcDbEntity
  8
001
370
               5
390
0
 62
               7
100
AcDbCircle
 10
206.0
 20
-151.0
 30
0.0
 40
2.0
100
AcDbArc
 50
270.0
 51
0.0
  0
LINE
  5
218
100
AcDbEntity
  8
001
370
               5
390
0
 62
               7
100
AcDbLine
 10
208.0
 20
-150.0
 30
0.0
 11
220.0
 21
-150.0
 31
0.0
  0
ARC
  5
219
100
AcDbEntity
  8
001
370
               5
390
0
 62
               7
100
AcDbCircle
 10
210.0
 20
-170.0
 30
0.0
 40
10.0
100
AcDbArc
 50
270.0
 51
0.0
  0
LINE
  5
21A
100
AcDbEntity
  8
001
370
               5
390
0
 62
               7
100
AcDbLine
 10
-338.99331999999993
 20
140.0
 30
0.0
 11
-355.99331999999993
 21
140.0
 31
0.0
  0
LINE
  5
21B
100
AcDbEntity
  8
001
370
               5
390
0
 62
               7
100
AcDbLine
 10
-355.99331999999993
 20
140.0
 30
0.0
 11
-355.99331999999993
 21
-180.0
 31
0.0
  0
ARC
  5
21C
100
AcDbEntity
  8
001
370
               5
390
0
 62
               7
100
AcDbCircle
 10
-338.99331999999993
 20
137.0
 30
0.0
 40
3.0
100
AcDbArc
 50
0.0
 51
90.0
  0
LINE
  5
21D
100
AcDbEntity
  8
001
370
               5
390
0
 62
               7
100
AcDbLine
 10
-335.99331999999993
 20
137.0
 30
0.0
 11
-335.99331999999993
 21
120.0
 31
0.0
  0
ARC
  5
21E
100
AcDbEntity
  8
001
370
               5
390
0
 62
               7
100
AcDbCircle
 10
-325.99331999999993
 20
120.0
 30
0.0
 40
10.0
100
AcDbArc
 50
180.0
 51
270.0
  0
LINE
  5
21F
100
AcDbEntity
  8
001
370
               5
390
0
 62
               7
100
AcDbLine
 10
-123.99331999999995
 20
110.0
 30
0.0
 11
-325.99331999999993
 21
110.0
 31
0.0
  0
LINE
  5
220
100
AcDbEntity
  8
001
370
               5
390
0
 62
               7
100
AcDbLine
 10
-123.99331999999995
 20
113.0
 30
0.0
 11
-123.99331999999995
 21
-25.0
 31
0.0
  0
LINE
  5
221
100
AcDbEntity
  8
001
370
               5
390
0
 62
               7
100
AcDbLine
 10
-125.99331999999995
 20
-27.0
 30
0.0
 11
-125.99331999999995
 21
-88.0
 31
0.0
  0
LINE
  5
222
100
AcDbEntity
  8
001
370
               5
390
0
 62
               7
100
AcDbLine
 10
-129.99331999999995
 20
-83.0
 30
0.0
 11
-143.99331999999995
 21
-83.0
 31
0.0
  0
LINE
  5
223
100
AcDbEntity
  8
001
370
               5
390
0
 62
               7
100
AcDbLine
 10
-129.99331999999995
 20
-97.0
 30
0.0
 11
-143.99331999999995
 21
-97.0
 31
0.0
  0
LINE
  5
224
100
AcDbEntity
  8
001
370
               5
390
0
 62
               7
100
AcDbLine
 10
-131.99331999999995
 20
-83.0
 30
0.0
 11
-131.99331999999995
 21
-97.0
 31
0.0
  0
LINE
  5
225
100
AcDbEntity
  8
001
370
               5
390
0
 62
               7
100
AcDbLine
 10
-129.99331999999995
 20
-83.0
 30
0.0
 11
-129.99331999999995
 21
-97.0
 31
0.0
  0
LINE
  5
226
100
AcDbEntity
  8
001
370
               5
390
0
 62
               7
100
AcDbLine
 10
-117.99331999999995
 20
-83.0
 30
0.0
 11
-115.99331999999995
 21
-83.0
 31
0.0
  0
LINE
  5
227
100
AcDbEntity
  8
001
370
               5
390
0
 62
               7
100
AcDbLine
 10
-115.99331999999995
 20
-83.0
 30
0.0
 11
-115.99331999999995
 21
-97.0
 31
0.0
  0
LINE
  5
228
100
AcDbEntity
  8
001
370
               5
390
0
 62
               7
100
AcDbLine
 10
-117.99331999999995
 20
-97.0
 30
0.0
 11
-115.99331999999995
 21
-97.0
 31
0.0
  0
ARC
  5
229
100
AcDbEntity
  8
001
370
               5
390
0
 62
               7
100
AcDbCircle
 10
-114.21443999999994
 20
-92.200000000000045
 30
0.0
 40
1.2999999999999545
100
AcDbArc
 50
270.0
 51
343.39954003916108
  0
ARC
  5
22A
100
AcDbEntity
  8
001
370
               5
390
0
 62
               7
100
AcDbCircle
 10
-121.59331999999996
 20
-90.0
 30
0.0
 40
8.9997336626368636
100
AcDbArc
 50
343.39893187479373
 51
16.602433844990514
  0
ARC
  5
22B
100
AcDbEntity
  8
001
370
               5
390
0
 62
               7
100
AcDbCircle
 10
-114.21443999999994
 20
-87.799999999999955
 30
0.0
 40
1.2999634142542971
100
AcDbArc
 50
16.609914900647428
 51
89.998236998692121
  0
LINE
  5
22C
100
AcDbEntity
  8
001
370
               5
390
0
 62
               7
100
AcDbLine
 10
-114.21423999999989
 20
-86.5
 30
0.0
 11
-115.99331999999995
 21
-86.5
 31
0.0
  0
LINE
  5
22D
100
AcDbEntity
  8
001
370
               5
390
0
 62
               7
100
AcDbLine
 10
-114.21423999999989
 20
-93.5
 30
0.0
 11
-115.99331999999995
 21
-93.5
 31
0.0
  0
LINE
  5
22E
100
AcDbEntity
  8
001
370
               5
390
0
 62
               7
100
AcDbLine
 10
-125.99331999999995
 20
-92.0
 30
0.0
 11
-125.99331999999995
 21
-153.0
 31
0.0
  0
LINE
  5
22F
100
AcDbEntity
  8
001
370
               5
390
0
 62
               7
100
AcDbLine
 10
-117.99331999999995
 20
-92.0
 30
0.0
 11
-129.99331999999995
 21
-92.0
 31
0.0
  0
LINE
  5
230
100
AcDbEntity
  8
001
370
               5
390
0
 62
               7
100
AcDbLine
 10
-117.99331999999995
 20
-88.0
 30
0.0
 11
-129.99331999999995
 21
-88.0
 31
0.0
  0
LINE
  5
231
100
AcDbEntity
  8
001
370
               5
390
0
 62
               7
100
AcDbLine
 10
-131.99331999999995
 20
-88.0
 30
0.0
 11
-133.34532000000002
 21
-88.0
 31
0.0
  0
LINE
  5
232
100
AcDbEntity
  8
001
370
               5
390
0
 62
               7
100
AcDbLine
 10
-133.34532000000002
 20
-88.0
 30
0.0
 11
-133.86931999999999
 21
-88.399999999999977
 31
0.0
  0
LINE
  5
233
100
AcDbEntity
  8
001
370
               5
390
0
 62
               7
100
AcDbLine
 10
-133.86931999999999
 20
-88.399999999999977
 30
0.0
 11
-133.86931999999999
 21
-91.600000000000023
 31
0.0
  0
LINE
  5
234
100
AcDbEntity
  8
001
370
               5
390
0
 62
               7
100
AcDbLine
 10
-133.34532000000002
 20
-92.0
 30
0.0
 11
-133.86931999999999
 21
-91.600000000000023
 31
0.0
  0
LINE
  5
235
100
AcDbEntity
  8
001
370
               5
390
0
 62
               7
100
AcDbLine
 10
-131.99331999999995
 20
-92.0
 30
0.0
 11
-133.34532000000002
 21
-92.0
 31
0.0
  0
ARC
  5
236
100
AcDbEntity
  8
001
370
               5
390
0
 62
               7
100
AcDbCircle
 10
-325.99331999999993
 20
-160.0
 30
0.0
 40
10.0
100
AcDbArc
 50
90.0
 51
180.0
  0
LINE
  5
237
100
AcDbEntity
  8
001
370
               5
390
0
 62
               7
100
AcDbLine
 10
-335.99331999999993
 20
-177.0
 30
0.0
 11
-335.99331999999993
 21
-160.0
 31
0.0
  0
ARC
  5
238
100
AcDbEntity
  8
001
370
               5
390
0
 62
               7
100
AcDbCircle
 10
-338.99331999999993
 20
-177.0
 30
0.0
 40
3.0
100
AcDbArc
 50
270.0
 51
0.0
  0
LINE
  5
239
100
AcDbEntity
  8
001
370
               5
390
0
 62
               7
100
AcDbLine
 10
-338.99331999999993
 20
-180.0
 30
0.0
 11
-355.99331999999993
 21
-180.0
 31
0.0
  0
LINE
  5
23A
100
AcDbEntity
  8
001
370
               5
390
0
 62
               7
100
AcDbLine
 10
-119.99331999999995
 20
-27.0
 30
0.0
 11
-125.99331999999995
 21
-27.0
 31
0.0
  0
LINE
  5
23B
100
AcDbEntity
  8
001
370
               5
390
0
 62
               7
100
AcDbLine
 10
-117.99331999999995
 20
-25.0
 30
0.0
 11
-123.99331999999995
 21
-25.0
 31
0.0
  0
ARC
  5
23C
100
AcDbEntity
  8
001
370
               5
390
0
 62
               7
100
AcDbCircle
 10
-117.99331999999995
 20
-23.0
 30
0.0
 40
2.0
100
AcDbArc
 50
270.0
 51
0.0
  0
LINE
  5
23D
100
AcDbEntity
  8
001
370
               5
390
0
 62
               7
100
AcDbLine
 10
-115.99331999999995
 20
-23.0
 30
0.0
 11
-115.99331999999995
 21
111.0
 31
0.0
  0
ARC
  5
23E
100
AcDbEntity
  8
001
370
               5
390
0
 62
               7
100
AcDbCircle
 10
-119.99331999999995
 20
-29.0
 30
0.0
 40
2.0
100
AcDbArc
 50
0.0
 51
90.0
  0
LINE
  5
23F
100
AcDbEntity
  8
001
370
               5
390
0
 62
               7
100
AcDbLine
 10
-117.99331999999995
 20
-151.0
 30
0.0
 11
-117.99331999999995
 21
-29.0
 31
0.0
  0
LINE
  5
240
100
AcDbEntity
  8
001
370
               5
390
0
 62
               7
100
AcDbLine
 10
-119.99331999999995
 20
-153.0
 30
0.0
 11
-125.99331999999995
 21
-153.0
 31
0.0
  0
ARC
  5
241
100
AcDbEntity
  8
001
370
               5
390
0
 62
               7
100
AcDbCircle
 10
-119.99331999999995
 20
-151.0
 30
0.0
 40
2.0
100
AcDbArc
 50
270.0
 51
0.0
  0
LINE
  5
242
100
AcDbEntity
  8
001
370
               5
390
0
  6
STYLE_02
 62
               7
100
AcDbLine
 10
-373.17732000000001
 20
125.0
 30
0.0
 11
-320.22951999999987
 21
125.0
 31
0.0
  0
LINE
  5
243
100
AcDbEntity
  8
001
370
               5
390
0
  6
STYLE_13
 62
               7
100
AcDbLine
 10
-250.99331999999995
 20
110.0
 30
0.0
 11
-250.99331999999995
 21
-64.258199999999988
 31
0.0
  0
LINE
  5
244
100
AcDbEntity
  8
001
370
               5
390
0
  6
STYLE_13
 62
               7
100
AcDbLine
 10
-210.71584000000004
 20
-25.0
 30
0.0
 11
-285.01583999999991
 21
-25.0
 31
0.0
  0
LINE
  5
245
100
AcDbEntity
  8
001
370
               5
390
0
  6
STYLE_02
 62
               7
100
AcDbLine
 10
-369.40352000000007
 20
-165.0
 30
0.0
 11
-322.77132000000006
 21
-165.0
 31
0.0
  0
LINE
  5
246
100
AcDbEntity
  8
001
370
               5
390
0
  6
STYLE_06
 62
               7
100
AcDbLine
 10
-132.0849199999999
 20
-15.0
 30
0.0
 11
-110.81023999999999
 21
-15.0
 31
0.0
  0
LINE
  5
247
100
AcDbEntity
  8
001
370
               5
390
0
  6
STYLE_06
 62
               7
100
AcDbLine
 10
-128.39471999999989
 20
103.0
 30
0.0
 11
-107.49751999999991
 21
103.0
 31
0.0
  0
LINE
  5
248
100
AcDbEntity
  8
001
370
               5
390
0
 62
               7
100
AcDbLine
 10
-117.99331999999995
 20
113.0
 30
0.0
 11
-123.99331999999995
 21
113.0
 31
0.0
  0
ARC
  5
249
100
AcDbEntity
  8
001
370
               5
390
0
 62
               7
100
AcDbCircle
 10
-117.99331999999995
 20
111.0
 30
0.0
 40
2.0
100
AcDbArc
 50
0.0
 51
90.0
  0
LINE
  5
24A
100
AcDbEntity
  8
001
370
               5
390
0
  6
STYLE_06
 62
               7
100
AcDbLine
 10
40.0
 20
140.0
 30
0.0
 11
40.0
 21
110.0
 31
0.0
  0
LINE
  5
24B
100
AcDbEntity
  8
001
370
               5
390
0
  6
STYLE_13
 62
               7
100
AcDbLine
 10
120.0
 20
129.2751199999999
 30
0.0
 11
120.0
 21
-166.95979999999997
 31
0.0
  0
LINE
  5
24C
100
AcDbEntity
  8
001
370
               5
390
0
  6
STYLE_06
 62
               7
100
AcDbLine
 10
200.0
 20
140.0
 30
0.0
 11
200.0
 21
110.0
 31
0.0
  0
LINE
  5
24D
100
AcDbEntity
  8
001
370
               5
390
0
  6
STYLE_06
 62
               7
100
AcDbLine
 10
40.0
 20
-150.0
 30
0.0
 11
40.0
 21
-180.0
 31
0.0
  0
LINE
  5
24E
100
AcDbEntity
  8
001
370
               5
390
0
  6
STYLE_13
 62
               7
100
AcDbLine
 10
21.863280000000117
 20
-90.0
 30
0.0
 11
32.228399999999965
 21
-90.0
 31
0.0
  0
LINE
  5
24F
100
AcDbEntity
  8
001
370
               5
390
0
  6
STYLE_13
 62
               7
100
AcDbLine
 10
27.0
 20
-84.906200000000126
 30
0.0
 11
27.0
 21
-95.23960000000011
 31
0.0
  0
CIRCLE
  5
250
100
AcDbEntity
  8
001
370
               5
390
0
 62
               7
100
AcDbCircle
 10
40.0
 20
-165.0
 30
0.0
 40
12.0
  0
CIRCLE
  5
251
100
AcDbEntity
  8
001
370
               5
390
0
 62
               7
100
AcDbCircle
 10
200.0
 20
-165.0
 30
0.0
 40
11.999999999999972
  0
CIRCLE
  5
252
100
AcDbEntity
  8
001
370
               5
390
0
 62
               7
100
AcDbCircle
 10
200.0
 20
125.0
 30
0.0
 40
11.999999999999972
  0
CIRCLE
  5
253
100
AcDbEntity
  8
001
370
               5
390
0
 62
               7
100
AcDbCircle
 10
40.0
 20
125.0
 30
0.0
 40
12.0
  0
LINE
  5
254
100
AcDbEntity
  8
001
370
               5
390
0
 62
               7
100
AcDbLine
 10
236.93907999999988
 20
94.5
 30
0.0
 11
236.93907999999988
 21
101.5
 31
0.0
  0
LINE
  5
255
100
AcDbEntity
  8
001
370
               5
390
0
 62
               7
100
AcDbLine
 10
232.97708
 20
100.0
 30
0.0
 11
232.97708
 21
96.0
 31
0.0
  0
LINE
  5
256
100
AcDbEntity
  8
001
370
               5
390
0
 62
               7
100
AcDbLine
 10
238.93948
 20
98.985319999999945
 30
0.0
 11
239.53887999999984
 21
98.0
 31
0.0
  0
LINE
  5
257
100
AcDbEntity
  8
001
370
               5
390
0
 62
               7
100
AcDbLine
 10
238.93948
 20
96.864919999999984
 30
0.0
 11
239.53887999999984
 21
98.0
 31
0.0
  0
LINE
  5
258
100
AcDbEntity
  8
001
370
               5
390
0
 62
               7
100
AcDbLine
 10
232.97708
 20
-105.0
 30
0.0
 11
232.97708
 21
-101.0
 31
0.0
  0
LINE
  5
259
100
AcDbEntity
  8
001
370
               5
390
0
 62
               7
100
AcDbLine
 10
236.93907999999988
 20
-99.5
 30
0.0
 11
236.93907999999988
 21
-106.5
 31
0.0
  0
LINE
  5
25A
100
AcDbEntity
  8
001
370
               5
390
0
 62
               7
100
AcDbLine
 10
230.0
 20
-97.0
 30
0.0
 11
220.0
 21
-97.0
 31
0.0
  0
LINE
  5
25B
100
AcDbEntity
  8
001
370
               5
390
0
 62
               7
100
AcDbLine
 10
223.0
 20
92.0
 30
0.0
 11
230.0
 21
92.0
 31
0.0
  0
LINE
  5
25C
100
AcDbEntity
  8
001
370
               5
390
0
 62
               7
100
AcDbLine
 10
208.0
 20
-151.0
 30
0.0
 11
208.0
 21
-110.0
 31
0.0
  0
LINE
  5
25D
100
AcDbEntity
  8
001
370
               5
390
0
 62
               7
100
AcDbLine
 10
208.0
 20
-70.0
 30
0.0
 11
208.0
 21
-29.0
 31
0.0
  0
CIRCLE
  5
25E
100
AcDbEntity
  8
001
370
               5
390
0
 62
               7
100
AcDbCircle
 10
-230.48732000000001
 20
60.505999999999972
 30
0.0
 40
3.5
  0
LINE
  5
25F
100
AcDbEntity
  8
001
370
               5
390
0
 62
               7
100
AcDbLine
 10
-230.48732000000001
 20
62.238200000000006
 30
0.0
 11
-231.98732000000001
 21
61.372200000000021
 31
0.0
  0
LINE
  5
260
100
AcDbEntity
  8
001
370
               5
390
0
 62
               7
100
AcDbLine
 10
-228.98732000000001
 20
61.372200000000021
 30
0.0
 11
-230.48732000000001
 21
62.238200000000006
 31
0.0
  0
LINE
  5
261
100
AcDbEntity
  8
001
370
               5
390
0
 62
               7
100
AcDbLine
 10
-228.98732000000001
 20
59.639999999999986
 30
0.0
 11
-228.98732000000001
 21
61.371999999999957
 31
0.0
  0
LINE
  5
262
100
AcDbEntity
  8
001
370
               5
390
0
 62
               7
100
AcDbLine
 10
-230.48732000000001
 20
58.774000000000001
 30
0.0
 11
-228.98732000000001
 21
59.639999999999986
 31
0.0
  0
LINE
  5
263
100
AcDbEntity
  8
001
370
               5
390
0
 62
               7
100
AcDbLine
 10
-231.98732000000001
 20
59.639999999999986
 30
0.0
 11
-230.48732000000001
 21
58.774000000000001
 31
0.0
  0
LINE
  5
264
100
AcDbEntity
  8
001
370
               5
390
0
 62
               7
100
AcDbLine
 10
-231.98732000000001
 20
61.371999999999957
 30
0.0
 11
-231.98732000000001
 21
59.639999999999986
 31
0.0
  0
CIRCLE
  5
265
100
AcDbEntity
  8
001
370
               5
390
0
 62
               7
100
AcDbCircle
 10
-230.48732000000001
 20
60.505999999999972
 30
0.0
 40
4.0
  0
CIRCLE
  5
266
100
AcDbEntity
  8
001
370
               5
390
0
 62
               7
100
AcDbCircle
 10
-271.4993199999999
 20
60.505999999999972
 30
0.0
 40
4.0
  0
CIRCLE
  5
267
100
AcDbEntity
  8
001
370
               5
390
0
 62
               7
100
AcDbCircle
 10
-271.4993199999999
 20
60.505999999999972
 30
0.0
 40
3.5
  0
LINE
  5
268
100
AcDbEntity
  8
001
370
               5
390
0
 62
               7
100
AcDbLine
 10
-270.63331999999991
 20
62.005999999999972
 30
0.0
 11
-272.36531999999988
 21
62.005999999999972
 31
0.0
  0
LINE
  5
269
100
AcDbEntity
  8
001
370
               5
390
0
 62
               7
100
AcDbLine
 10
-272.36551999999995
 20
62.005999999999972
 30
0.0
 11
-273.23151999999993
 21
60.505999999999972
 31
0.0
  0
LINE
  5
26A
100
AcDbEntity
  8
001
370
               5
390
0
 62
               7
100
AcDbLine
 10
-273.23151999999993
 20
60.505999999999972
 30
0.0
 11
-272.36551999999995
 21
59.005999999999972
 31
0.0
  0
LINE
  5
26B
100
AcDbEntity
  8
001
370
               5
390
0
 62
               7
100
AcDbLine
 10
-272.36531999999988
 20
59.005999999999972
 30
0.0
 11
-270.63331999999991
 21
59.005999999999972
 31
0.0
  0
LINE
  5
26C
100
AcDbEntity
  8
001
370
               5
390
0
 62
               7
100
AcDbLine
 10
-270.63331999999991
 20
59.005999999999972
 30
0.0
 11
-269.76731999999993
 21
60.505999999999972
 31
0.0
  0
LINE
  5
26D
100
AcDbEntity
  8
001
370
               5
390
0
 62
               7
100
AcDbLine
 10
-269.76731999999993
 20
60.505999999999972
 30
0.0
 11
-270.63331999999991
 21
62.005999999999972
 31
0.0
  0
CIRCLE
  5
26E
100
AcDbEntity
  8
001
370
               5
390
0
 62
               7
100
AcDbCircle
 10
-271.4993199999999
 20
19.493999999999915
 30
0.0
 40
4.0
  0
CIRCLE
  5
26F
100
AcDbEntity
  8
001
370
               5
390
0
 62
               7
100
AcDbCircle
 10
-271.4993199999999
 20
19.493999999999915
 30
0.0
 40
3.5
  0
LINE
  5
270
100
AcDbEntity
  8
001
370
               5
390
0
 62
               7
100
AcDbLine
 10
-272.9993199999999
 20
20.3599999999999
 30
0.0
 11
-272.9993199999999
 21
18.627999999999929
 31
0.0
  0
LINE
  5
271
100
AcDbEntity
  8
001
370
               5
390
0
 62
               7
100
AcDbLine
 10
-272.9993199999999
 20
18.627999999999929
 30
0.0
 11
-271.4993199999999
 21
17.761999999999944
 31
0.0
  0
LINE
  5
272
100
AcDbEntity
  8
001
370
               5
390
0
 62
               7
100
AcDbLine
 10
-271.4993199999999
 20
17.761999999999944
 30
0.0
 11
-269.9993199999999
 21
18.627999999999929
 31
0.0
  0
LINE
  5
273
100
AcDbEntity
  8
001
370
               5
390
0
 62
               7
100
AcDbLine
 10
-269.9993199999999
 20
18.627999999999929
 30
0.0
 11
-269.9993199999999
 21
20.3599999999999
 31
0.0
  0
LINE
  5
274
100
AcDbEntity
  8
001
370
               5
390
0
 62
               7
100
AcDbLine
 10
-269.9993199999999
 20
20.3599999999999
 30
0.0
 11
-271.4993199999999
 21
21.225999999999885
 31
0.0
  0
LINE
  5
275
100
AcDbEntity
  8
001
370
               5
390
0
 62
               7
100
AcDbLine
 10
-271.4993199999999
 20
21.225999999999885
 30
0.0
 11
-272.9993199999999
 21
20.3599999999999
 31
0.0
  0
CIRCLE
  5
276
100
AcDbEntity
  8
001
370
               5
390
0
 62
               7
100
AcDbCircle
 10
-230.48732000000001
 20
19.493999999999915
 30
0.0
 40
4.0
  0
CIRCLE
  5
277
100
AcDbEntity
  8
001
370
               5
390
0
 62
               7
100
AcDbCircle
 10
-230.48732000000001
 20
19.493999999999915
 30
0.0
 40
3.5
  0
LINE
  5
278
100
AcDbEntity
  8
001
370
               5
390
0
 62
               7
100
AcDbLine
 10
-231.35332
 20
17.993999999999915
 30
0.0
 11
-229.62132000000003
 21
17.993999999999915
 31
0.0
  0
LINE
  5
279
100
AcDbEntity
  8
001
370
               5
390
0
 62
               7
100
AcDbLine
 10
-229.62132000000003
 20
17.993999999999915
 30
0.0
 11
-228.75532000000004
 21
19.493999999999915
 31
0.0
  0
LINE
  5
27A
100
AcDbEntity
  8
001
370
               5
390
0
 62
               7
100
AcDbLine
 10
-228.75532000000004
 20
19.493999999999915
 30
0.0
 11
-229.62132000000003
 21
20.993999999999915
 31
0.0
  0
LINE
  5
27B
100
AcDbEntity
  8
001
370
               5
390
0
 62
               7
100
AcDbLine
 10
-229.62132000000003
 20
20.993999999999915
 30
0.0
 11
-231.35332
 21
20.993999999999915
 31
0.0
  0
LINE
  5
27C
100
AcDbEntity
  8
001
370
               5
390
0
 62
               7
100
AcDbLine
 10
-231.35332
 20
20.993999999999915
 30
0.0
 11
-232.21931999999998
 21
19.493999999999915
 31
0.0
  0
LINE
  5
27D
100
AcDbEntity
  8
001
370
               5
390
0
 62
               7
100
AcDbLine
 10
-232.21931999999998
 20
19.493999999999915
 30
0.0
 11
-231.35332
 21
17.993999999999915
 31
0.0
  0
CIRCLE
  5
27E
100
AcDbEntity
  8
001
370
               5
390
0
 62
               7
100
AcDbCircle
 10
-235.08331999999993
 20
-9.0900000000001455
 30
0.0
 40
4.0
  0
CIRCLE
  5
27F
100
AcDbEntity
  8
001
370
               5
390
0
 62
               7
100
AcDbCircle
 10
-235.08331999999993
 20
-9.0900000000001455
 30
0.0
 40
3.5
  0
LINE
  5
280
100
AcDbEntity
  8
001
370
               5
390
0
 62
               7
100
AcDbLine
 10
-233.58331999999993
 20
-9.956000000000131
 30
0.0
 11
-233.58331999999993
 21
-8.2240000000001601
 31
0.0
  0
LINE
  5
281
100
AcDbEntity
  8
001
370
               5
390
0
 62
               7
100
AcDbLine
 10
-233.58331999999993
 20
-8.2240000000001601
 30
0.0
 11
-235.08331999999993
 21
-7.3580000000001746
 31
0.0
  0
LINE
  5
282
100
AcDbEntity
  8
001
370
               5
390
0
 62
               7
100
AcDbLine
 10
-235.08331999999993
 20
-7.3580000000001746
 30
0.0
 11
-236.58331999999993
 21
-8.2240000000001601
 31
0.0
  0
LINE
  5
283
100
AcDbEntity
  8
001
370
               5
390
0
 62
               7
100
AcDbLine
 10
-236.58331999999993
 20
-8.2240000000001601
 30
0.0
 11
-236.58331999999993
 21
-9.956000000000131
 31
0.0
  0
LINE
  5
284
100
AcDbEntity
  8
001
370
               5
390
0
 62
               7
100
AcDbLine
 10
-236.58331999999993
 20
-9.956000000000131
 30
0.0
 11
-235.08331999999993
 21
-10.822000000000116
 31
0.0
  0
LINE
  5
285
100
AcDbEntity
  8
001
370
               5
390
0
 62
               7
100
AcDbLine
 10
-235.08331999999993
 20
-10.822000000000116
 30
0.0
 11
-233.58331999999993
 21
-9.956000000000131
 31
0.0
  0
CIRCLE
  5
286
100
AcDbEntity
  8
001
370
               5
390
0
 62
               7
100
AcDbCircle
 10
-266.90332000000001
 20
-9.0900000000001455
 30
0.0
 40
4.0
  0
CIRCLE
  5
287
100
AcDbEntity
  8
001
370
               5
390
0
 62
               7
100
AcDbCircle
 10
-266.90332000000001
 20
-9.0900000000001455
 30
0.0
 40
3.5
  0
LINE
  5
288
100
AcDbEntity
  8
001
370
               5
390
0
 62
               7
100
AcDbLine
 10
-267.76931999999999
 20
-7.5900000000001455
 30
0.0
 11
-268.63531999999998
 21
-9.0900000000001455
 31
0.0
  0
LINE
  5
289
100
AcDbEntity
  8
001
370
               5
390
0
 62
               7
100
AcDbLine
 10
-268.63531999999998
 20
-9.0900000000001455
 30
0.0
 11
-267.76931999999999
 21
-10.590000000000146
 31
0.0
  0
LINE
  5
28A
100
AcDbEntity
  8
001
370
               5
390
0
 62
               7
100
AcDbLine
 10
-267.76931999999999
 20
-10.590000000000146
 30
0.0
 11
-266.03732000000002
 21
-10.590000000000146
 31
0.0
  0
LINE
  5
28B
100
AcDbEntity
  8
001
370
               5
390
0
 62
               7
100
AcDbLine
 10
-266.03732000000002
 20
-10.590000000000146
 30
0.0
 11
-265.17132000000004
 21
-9.0900000000001455
 31
0.0
  0
LINE
  5
28C
100
AcDbEntity
  8
001
370
               5
390
0
 62
               7
100
AcDbLine
 10
-265.17132000000004
 20
-9.0900000000001455
 30
0.0
 11
-266.03732000000002
 21
-7.5900000000001455
 31
0.0
  0
LINE
  5
28D
100
AcDbEntity
  8
001
370
               5
390
0
 62
               7
100
AcDbLine
 10
-266.03732000000002
 20
-7.5900000000001455
 30
0.0
 11
-267.76931999999999
 21
-7.5900000000001455
 31
0.0
  0
CIRCLE
  5
28E
100
AcDbEntity
  8
001
370
               5
390
0
 62
               7
100
AcDbCircle
 10
-266.90332000000001
 20
-40.910000000000082
 30
0.0
 40
4.0
  0
CIRCLE
  5
28F
100
AcDbEntity
  8
001
370
               5
390
0
 62
               7
100
AcDbCircle
 10
-266.90332000000001
 20
-40.910000000000082
 30
0.0
 40
3.5
  0
LINE
  5
290
100
AcDbEntity
  8
001
370
               5
390
0
 62
               7
100
AcDbLine
 10
-268.40332000000001
 20
-41.776000000000067
 30
0.0
 11
-266.90332000000001
 21
-42.642000000000053
 31
0.0
  0
LINE
  5
291
100
AcDbEntity
  8
001
370
               5
390
0
 62
               7
100
AcDbLine
 10
-266.90332000000001
 20
-42.642000000000053
 30
0.0
 11
-265.40332000000001
 21
-41.776000000000067
 31
0.0
  0
LINE
  5
292
100
AcDbEntity
  8
001
370
               5
390
0
 62
               7
100
AcDbLine
 10
-265.40332000000001
 20
-41.776000000000067
 30
0.0
 11
-265.40332000000001
 21
-40.044000000000096
 31
0.0
  0
LINE
  5
293
100
AcDbEntity
  8
001
370
               5
390
0
 62
               7
100
AcDbLine
 10
-265.40332000000001
 20
-40.043800000000033
 30
0.0
 11
-266.90332000000001
 21
-39.177800000000047
 31
0.0
  0
LINE
  5
294
100
AcDbEntity
  8
001
370
               5
390
0
 62
               7
100
AcDbLine
 10
-266.90332000000001
 20
-39.177800000000047
 30
0.0
 11
-268.40332000000001
 21
-40.043800000000033
 31
0.0
  0
LINE
  5
295
100
AcDbEntity
  8
001
370
               5
390
0
 62
               7
100
AcDbLine
 10
-268.40332000000001
 20
-40.044000000000096
 30
0.0
 11
-268.40332000000001
 21
-41.776000000000067
 31
0.0
  0
CIRCLE
  5
296
100
AcDbEntity
  8
001
370
               5
390
0
 62
               7
100
AcDbCircle
 10
-235.08331999999993
 20
-40.910000000000082
 30
0.0
 40
4.0
  0
CIRCLE
  5
297
100
AcDbEntity
  8
001
370
               5
390
0
 62
               7
100
AcDbCircle
 10
-235.08331999999993
 20
-40.910000000000082
 30
0.0
 40
3.5
  0
LINE
  5
298
100
AcDbEntity
  8
001
370
               5
390
0
 62
               7
100
AcDbLine
 10
-234.21731999999994
 20
-42.410000000000082
 30
0.0
 11
-233.35131999999996
 21
-40.910000000000082
 31
0.0
  0
LINE
  5
299
100
AcDbEntity
  8
001
370
               5
390
0
 62
               7
100
AcDbLine
 10
-233.35131999999996
 20
-40.910000000000082
 30
0.0
 11
-234.21731999999994
 21
-39.410000000000082
 31
0.0
  0
LINE
  5
29A
100
AcDbEntity
  8
001
370
               5
390
0
 62
               7
100
AcDbLine
 10
-234.21731999999994
 20
-39.410000000000082
 30
0.0
 11
-235.94931999999991
 21
-39.410000000000082
 31
0.0
  0
LINE
  5
29B
100
AcDbEntity
  8
001
370
               5
390
0
 62
               7
100
AcDbLine
 10
-235.94951999999995
 20
-39.410000000000082
 30
0.0
 11
-236.81551999999994
 21
-40.910000000000082
 31
0.0
  0
LINE
  5
29C
100
AcDbEntity
  8
001
370
               5
390
0
 62
               7
100
AcDbLine
 10
-236.81551999999994
 20
-40.910000000000082
 30
0.0
 11
-235.94951999999995
 21
-42.410000000000082
 31
0.0
  0
LINE
  5
29D
100
AcDbEntity
  8
001
370
               5
390
0
 62
               7
100
AcDbLine
 10
-235.94931999999991
 20
-42.410000000000082
 30
0.0
 11
-234.21731999999994
 21
-42.410000000000082
 31
0.0
  0
CIRCLE
  5
29E
100
AcDbEntity
  8
001
370
               5
390
0
 62
               7
100
AcDbCircle
 10
-250.99331999999995
 20
-25.0
 30
0.0
 40
27.5
  0
CIRCLE
  5
29F
100
AcDbEntity
  8
001
370
               5
390
0
 62
               7
100
AcDbCircle
 10
-250.99331999999995
 20
40.0
 30
0.0
 40
37.0
  0
CIRCLE
  5
2A0
100
AcDbEntity
  8
001
370
               5
390
0
 62
               7
100
AcDbCircle
 10
-250.99331999999995
 20
40.0
 30
0.0
 40
14.0
  0
CIRCLE
  5
2A1
100
AcDbEntity
  8
001
370
               5
390
0
 62
               7
100
AcDbCircle
 10
-250.99331999999995
 20
40.0
 30
0.0
 40
16.0
  0
CIRCLE
  5
2A2
100
AcDbEntity
  8
001
370
               5
390
0
 62
               7
100
AcDbCircle
 10
-250.99331999999995
 20
40.0
 30
0.0
 40
21.0
  0
LINE
  5
2A3
100
AcDbEntity
  8
001
370
               5
390
0
 62
               7
100
AcDbLine
 10
10.949999999999996
 20
76.5
 30
0.0
 11
10.949999999999996
 21
3.5
 31
0.0
  0
LINE
  5
2A4
100
AcDbEntity
  8
001
370
               5
390
0
 62
               7
100
AcDbLine
 10
10.949999999999996
 20
76.5
 30
0.0
 11
11.449999999999996
 21
77.0
 31
0.0
  0
LINE
  5
2A5
100
AcDbEntity
  8
001
370
               5
390
0
 62
               7
100
AcDbLine
 10
11.449999999999996
 20
77.0
 30
0.0
 11
16.999999999999993
 21
77.0
 31
0.0
  0
LINE
  5
2A6
100
AcDbEntity
  8
001
370
               5
390
0
 62
               7
100
AcDbLine
 10
10.5
 20
56.0
 30
0.0
 11
10.949999999999996
 21
56.0
 31
0.0
  0
LINE
  5
2A7
100
AcDbEntity
  8
001
370
               5
390
0
 62
               7
100
AcDbLine
 10
10.0
 20
55.5
 30
0.0
 11
10.5
 21
56.0
 31
0.0
  0
LINE
  5
2A8
100
AcDbEntity
  8
001
370
               5
390
0
 62
               7
100
AcDbLine
 10
-39.000039999999906
 20
54.0
 30
0.0
 11
10.0
 21
54.0
 31
0.0
  0
LINE
  5
2A9
100
AcDbEntity
  8
001
370
               5
390
0
 62
               7
100
AcDbLine
 10
-40.000039999999906
 20
53.0
 30
0.0
 11
-39.000039999999906
 21
54.0
 31
0.0
  0
LINE
  5
2AA
100
AcDbEntity
  8
001
370
               5
390
0
 62
               7
100
AcDbLine
 10
-40.000039999999906
 20
27.0
 30
0.0
 11
-40.000039999999906
 21
53.0
 31
0.0
  0
LINE
  5
2AB
100
AcDbEntity
  8
001
370
               5
390
0
 62
               7
100
AcDbLine
 10
4.0
 20
44.0
 30
0.0
 11
-40.000039999999906
 21
44.0
 31
0.0
  0
ARC
  5
2AC
100
AcDbEntity
  8
001
370
               5
390
0
 62
               7
100
AcDbCircle
 10
4.0
 20
40.0
 30
0.0
 40
4.0
100
AcDbArc
 50
270.0
 51
90.0
  0
LINE
  5
2AD
100
AcDbEntity
  8
001
370
               5
390
0
 62
               7
100
AcDbLine
 10
4.0
 20
36.0
 30
0.0
 11
-40.000039999999906
 21
36.0
 31
0.0
  0
LINE
  5
2AE
100
AcDbEntity
  8
001
370
               5
390
0
 62
               7
100
AcDbLine
 10
-40.000039999999906
 20
27.0
 30
0.0
 11
-39.000039999999906
 21
26.0
 31
0.0
  0
LINE
  5
2AF
100
AcDbEntity
  8
001
370
               5
390
0
 62
               7
100
AcDbLine
 10
-39.000039999999906
 20
26.0
 30
0.0
 11
10.0
 21
26.0
 31
0.0
  0
LINE
  5
2B0
100
AcDbEntity
  8
001
370
               5
390
0
 62
               7
100
AcDbLine
 10
10.0
 20
24.5
 30
0.0
 11
10.5
 21
24.0
 31
0.0
  0
LINE
  5
2B1
100
AcDbEntity
  8
001
370
               5
390
0
 62
               7
100
AcDbLine
 10
10.5
 20
24.0
 30
0.0
 11
10.949999999999996
 21
24.0
 31
0.0
  0
LINE
  5
2B2
100
AcDbEntity
  8
001
370
               5
390
0
 62
               7
100
AcDbLine
 10
11.449999999999996
 20
3.0
 30
0.0
 11
10.949999999999996
 21
3.5
 31
0.0
  0
LINE
  5
2B3
100
AcDbEntity
  8
001
370
               5
390
0
 62
               7
100
AcDbLine
 10
11.449999999999996
 20
3.0
 30
0.0
 11
16.999999999999993
 21
3.0
 31
0.0
  0
LINE
  5
2B4
100
AcDbEntity
  8
001
370
               5
390
0
 62
               7
100
AcDbLine
 10
11.499999999999993
 20
2.5
 30
0.0
 11
16.999999999999993
 21
2.5
 31
0.0
  0
LINE
  5
2B5
100
AcDbEntity
  8
001
370
               5
390
0
 62
               7
100
AcDbLine
 10
11.0
 20
2.0
 30
0.0
 11
11.499999999999993
 21
2.5
 31
0.0
  0
LINE
  5
2B6
100
AcDbEntity
  8
001
370
               5
390
0
 62
               7
100
AcDbLine
 10
11.0
 20
2.0
 30
0.0
 11
11.0
 21
-52.0
 31
0.0
  0
LINE
  5
2B7
100
AcDbEntity
  8
001
370
               5
390
0
 62
               7
100
AcDbLine
 10
11.499999999999993
 20
-52.5
 30
0.0
 11
11.0
 21
-52.0
 31
0.0
  0
LINE
  5
2B8
100
AcDbEntity
  8
001
370
               5
390
0
 62
               7
100
AcDbLine
 10
11.499999999999993
 20
-52.5
 30
0.0
 11
20.0
 21
-52.5
 31
0.0
  0
LINE
  5
2B9
100
AcDbEntity
  8
001
370
               5
390
0
 62
               7
100
AcDbLine
 10
-39.000039999999906
 20
54.0
 30
0.0
 11
-39.000039999999906
 21
44.0
 31
0.0
  0
LINE
  5
2BA
100
AcDbEntity
  8
001
370
               5
390
0
 62
               7
100
AcDbLine
 10
-39.000039999999906
 20
36.0
 30
0.0
 11
-39.000039999999906
 21
26.0
 31
0.0
  0
LINE
  5
2BB
100
AcDbEntity
  8
001
370
               5
390
0
 62
               7
100
AcDbLine
 10
10.0
 20
24.5
 30
0.0
 11
10.0
 21
55.5
 31
0.0
  0
LINE
  5
2BC
100
AcDbEntity
  8
001
370
               5
390
0
  6
STYLE_06
 62
               7
100
AcDbLine
 10
20.0
 20
-165.0
 30
0.0
 11
56.141480000000044
 21
-165.0
 31
0.0
  0
LINE
  5
2BD
100
AcDbEntity
  8
001
370
               5
390
0
  6
STYLE_06
 62
               7
100
AcDbLine
 10
22.725280000000026
 20
125.0
 30
0.0
 11
57.647800000000103
 21
125.0
 31
0.0
  0
LINE
  5
2BE
100
AcDbEntity
  8
001
370
               5
390
0
  6
STYLE_06
 62
               7
100
AcDbLine
 10
183.05108000000001
 20
125.0
 30
0.0
 11
215.37327999999999
 21
125.0
 31
0.0
  0
LINE
  5
2BF
100
AcDbEntity
  8
001
370
               5
390
0
 62
               7
100
AcDbLine
 10
-121.95511999999999
 20
-88.0
 30
0.0
 11
-121.95511999999999
 21
-92.0
 31
0.0
  0
LINE
  5
2C0
100
AcDbEntity
  8
001
370
               5
390
0
 62
               7
100
AcDbLine
 10
-115.19331999999996
 20
-93.5
 30
0.0
 11
-115.19331999999996
 21
-86.5
 31
0.0
  0
LINE
  5
2C1
100
AcDbEntity
  8
001
370
               5
390
0
 62
               7
100
AcDbLine
 10
-113.19272000000002
 20
-91.135080000000016
 30
0.0
 11
-112.59331999999996
 21
-90.0
 31
0.0
  0
LINE
  5
2C2
100
AcDbEntity
  8
001
370
               5
390
0
 62
               7
100
AcDbLine
 10
-113.19272000000002
 20
-89.014679999999998
 30
0.0
 11
-112.59331999999996
 21
-90.0
 31
0.0
  0
LINE
  5
2C3
100
AcDbEntity
  8
001
370
               5
390
0
 62
               7
100
AcDbLine
 10
-240.99331999999995
 20
44.049999999999955
 30
0.0
 11
-237.59203999999991
 21
44.049999999999955
 31
0.0
  0
LINE
  5
2C4
100
AcDbEntity
  8
001
370
               5
390
0
 62
               7
100
AcDbLine
 10
-240.99331999999995
 20
44.049999999999955
 30
0.0
 11
-240.99331999999995
 21
35.950000000000045
 31
0.0
  0
LINE
  5
2C5
100
AcDbEntity
  8
001
370
               5
390
0
 62
               7
100
AcDbLine
 10
-240.99331999999995
 20
35.950000000000045
 30
0.0
 11
-237.59203999999991
 21
35.950000000000045
 31
0.0
  0
LINE
  5
2C6
100
AcDbEntity
  8
001
370
               5
390
0
  6
STYLE_06
 62
               7
100
AcDbLine
 10
-155.99331999999995
 20
128.12291999999997
 30
0.0
 11
-155.99331999999995
 21
88.540399999999863
 31
0.0
  0
LINE
  5
2C7
100
AcDbEntity
  8
001
370
               5
390
0
 62
               7
100
AcDbLine
 10
-115.29331999999997
 20
99.5
 30
0.0
 11
-115.29331999999997
 21
106.5
 31
0.0
  0
LINE
  5
2C8
100
AcDbEntity
  8
001
370
               5
390
0
 62
               7
100
AcDbLine
 10
-113.29272000000002
 20
103.98531999999994
 30
0.0
 11
-112.69331999999996
 21
103.0
 31
0.0
  0
LINE
  5
2C9
100
AcDbEntity
  8
001
370
               5
390
0
 62
               7
100
AcDbLine
 10
-113.29272000000002
 20
101.86491999999998
 30
0.0
 11
-112.69331999999996
 21
103.0
 31
0.0
  0
LINE
  5
2CA
100
AcDbEntity
  8
001
370
               5
390
0
 62
               7
100
AcDbLine
 10
-115.29331999999997
 20
-18.5
 30
0.0
 11
-115.29331999999997
 21
-11.5
 31
0.0
  0
LINE
  5
2CB
100
AcDbEntity
  8
001
370
               5
390
0
 62
               7
100
AcDbLine
 10
-113.29272000000002
 20
-14.014679999999998
 30
0.0
 11
-112.69331999999996
 21
-15.0
 31
0.0
  0
LINE
  5
2CC
100
AcDbEntity
  8
001
370
               5
390
0
 62
               7
100
AcDbLine
 10
-113.29272000000002
 20
-16.135080000000016
 30
0.0
 11
-112.69331999999996
 21
-15.0
 31
0.0
  0
LINE
  5
2CD
100
AcDbEntity
  8
001
370
               5
390
0
  6
STYLE_06
 62
               7
100
AcDbLine
 10
-109.18243999999996
 20
-90.0
 30
0.0
 11
-137.06404000000003
 21
-90.0
 31
0.0
  0
ARC
  5
2CE
100
AcDbEntity
  8
001
370
               5
390
0
 62
               7
100
AcDbCircle
 10
-121.69331999999996
 20
-15.0
 30
0.0
 40
8.9997336626368636
100
AcDbArc
 50
343.39893187479373
 51
16.602433844990514
  0
ARC
  5
2CF
100
AcDbEntity
  8
001
370
               5
390
0
 62
               7
100
AcDbCircle
 10
-114.31443999999993
 20
-17.200000000000045
 30
0.0
 40
1.2999999999999545
100
AcDbArc
 50
270.0
 51
343.39954003916108
  0
LINE
  5
2D0
100
AcDbEntity
  8
001
370
               5
390
0
 62
               7
100
AcDbLine
 10
-114.3142399999999
 20
-18.5
 30
0.0
 11
-115.99331999999995
 21
-18.5
 31
0.0
  0
LINE
  5
2D1
100
AcDbEntity
  8
001
370
               5
390
0
 62
               7
100
AcDbLine
 10
-114.3142399999999
 20
-11.5
 30
0.0
 11
-115.99331999999995
 21
-11.5
 31
0.0
  0
ARC
  5
2D2
100
AcDbEntity
  8
001
370
               5
390
0
 62
               7
100
AcDbCircle
 10
-114.31443999999993
 20
-12.799999999999955
 30
0.0
 40
1.2999634142542971
100
AcDbArc
 50
16.609914900647428
 51
89.998236998692761
  0
LINE
  5
2D3
100
AcDbEntity
  8
001
370
               5
390
0
 62
               7
100
AcDbLine
 10
-114.3142399999999
 20
106.5
 30
0.0
 11
-115.99331999999995
 21
106.5
 31
0.0
  0
ARC
  5
2D4
100
AcDbEntity
  8
001
370
               5
390
0
 62
               7
100
AcDbCircle
 10
-114.31443999999993
 20
105.19999999999999
 30
0.0
 40
1.2999405481788882
100
AcDbArc
 50
16.606535976545075
 51
89.998236998692136
  0
ARC
  5
2D5
100
AcDbEntity
  8
001
370
               5
390
0
 62
               7
100
AcDbCircle
 10
-121.69331999999996
 20
103.0
 30
0.0
 40
8.9997336626368636
100
AcDbArc
 50
343.39893187479373
 51
16.602433844990514
  0
ARC
  5
2D6
100
AcDbEntity
  8
001
370
               5
390
0
 62
               7
100
AcDbCircle
 10
-114.31443999999993
 20
100.80000000000001
 30
0.0
 40
1.3000000000000114
100
AcDbArc
 50
270.0
 51
343.3995400391612
  0
LINE
  5
2D7
100
AcDbEntity
  8
001
370
               5
390
0
 62
               7
100
AcDbLine
 10
-114.3142399999999
 20
99.5
 30
0.0
 11
-115.99331999999995
 21
99.5
 31
0.0
  0
LINE
  5
2D8
100
AcDbEntity
  8
001
370
               5
390
0
  6
STYLE_13
 62
               7
100
AcDbLine
 10
-202.15864000000002
 20
40.0
 30
0.0
 11
-371.80772000000002
 21
40.0
 31
0.0
  0
LINE
  5
2D9
100
AcDbEntity
  8
001
370
               5
390
0
  6
STYLE_13
 62
               7
100
AcDbLine
 10
-54.96471999999995
 20
40.0
 30
0.0
 11
247.62800000000004
 21
40.0
 31
0.0
  0
LINE
  5
2DA
100
AcDbEntity
  8
001
370
               5
390
0
 62
               7
100
AcDbLine
 10
-66.005120000000005
 20
-165.75639999999999
 30
0.0
 11
-4.5391200000000111
 21
-165.75639999999999
 31
0.0
  0
LINE
  5
2DB
100
AcDbEntity
  8
001
370
               5
390
0
 62
               7
100
AcDbLine
 10
-98.804919999999953
 20
-18.688200000000165
 30
0.0
 11
-17.804919999999953
 21
-18.688200000000165
 31
0.0
  0
LINE
  5
2DC
100
AcDbEntity
  8
001
370
               5
390
0
 62
               7
100
AcDbLine
 10
21.0
 20
-83.0
 30
0.0
 11
21.0
 21
-97.0
 31
0.0
  0
LINE
  5
2DD
100
AcDbEntity
  8
001
370
               5
390
0
 62
               7
100
AcDbLine
 10
-185.99331999999995
 20
110.0
 30
0.0
 11
-185.99331999999995
 21
-150.0
 31
0.0
  0
LINE
  5
2DE
100
AcDbEntity
  8
001
370
               5
390
0
 62
               7
100
AcDbLine
 10
-187.99331999999995
 20
110.0
 30
0.0
 11
-187.99331999999995
 21
-150.0
 31
0.0
  0
LINE
  5
2DF
100
AcDbEntity
  8
001
370
               5
390
0
 62
               7
100
AcDbLine
 10
-313.99331999999993
 20
110.0
 30
0.0
 11
-313.99331999999993
 21
-150.0
 31
0.0
  0
LINE
  5
2E0
100
AcDbEntity
  8
001
370
               5
390
0
 62
               7
100
AcDbLine
 10
210.0
 20
-70.0
 30
0.0
 11
210.0
 21
-110.0
 31
0.0
  0
LINE
  5
2E1
100
AcDbEntity
  8
001
370
               5
390
0
 62
               7
100
AcDbLine
 10
199.0
 20
-70.0
 30
0.0
 11
199.0
 21
-110.0
 31
0.0
  0
LINE
  5
2E2
100
AcDbEntity
  8
001
370
               5
390
0
 62
               7
100
AcDbLine
 10
208.0
 20
-110.0
 30
0.0
 11
210.99999999999997
 21
-110.0
 31
0.0
  0
LINE
  5
2E3
100
AcDbEntity
  8
001
370
               5
390
0
 62
               7
100
AcDbLine
 10
208.0
 20
-70.0
 30
0.0
 11
210.99999999999997
 21
-70.0
 31
0.0
  0
CIRCLE
  5
2E4
100
AcDbEntity
  8
001
370
               5
390
0
 62
               7
100
AcDbCircle
 10
27.0
 20
-90.0
 30
0.0
 40
3.5
  0
CIRCLE
  5
2E5
100
AcDbEntity
  8
001
370
               5
390
0
 62
               7
100
AcDbCircle
 10
75.0
 20
-15.0
 30
0.0
 40
3.5
  0
CIRCLE
  5
2E6
100
AcDbEntity
  8
001
370
               5
390
0
 62
               7
100
AcDbCircle
 10
165.0
 20
-15.0
 30
0.0
 40
3.5
  0
CIRCLE
  5
2E7
100
AcDbEntity
  8
001
370
               5
390
0
 62
               7
100
AcDbCircle
 10
165.0
 20
103.0
 30
0.0
 40
3.5
  0
CIRCLE
  5
2E8
100
AcDbEntity
  8
001
370
               5
390
0
 62
               7
100
AcDbCircle
 10
75.0
 20
103.0
 30
0.0
 40
3.5
  0
LINE
  5
2E9
100
AcDbEntity
  8
001
370
               5
390
0
  6
Continuous
 62
               7
100
AcDbLine
 10
211.24999999999997
 20
43.643999999999892
 30
0.0
 11
211.24999999999997
 21
44.0
 31
0.0
  0
LINE
  5
2EA
100
AcDbEntity
  8
001
370
               5
390
0
  6
Continuous
 62
               7
100
AcDbLine
 10
211.24999999999997
 20
43.643999999999892
 30
0.0
 11
212.15640000000005
 21
43.643999999999892
 31
0.0
  0
LINE
  5
2EB
100
AcDbEntity
  8
001
370
               5
390
0
  6
Continuous
 62
               7
100
AcDbLine
 10
212.56400000000016
 20
43.236400000000003
 30
0.0
 11
212.15640000000005
 21
43.643999999999892
 31
0.0
  0
LINE
  5
2EC
100
AcDbEntity
  8
001
370
               5
390
0
  6
Continuous
 62
               7
100
AcDbLine
 10
212.56400000000016
 20
42.25
 30
0.0
 11
212.56400000000016
 21
43.236400000000003
 31
0.0
  0
LINE
  5
2ED
100
AcDbEntity
  8
001
370
               5
390
0
  6
Continuous
 62
               7
100
AcDbLine
 10
212.56400000000016
 20
42.25
 30
0.0
 11
212.99999999999997
 21
42.25
 31
0.0
  0
LINE
  5
2EE
100
AcDbEntity
  8
001
370
               5
390
0
  6
Continuous
 62
               7
100
AcDbLine
 10
213.35599999999997
 20
42.25
 30
0.0
 11
212.99999999999997
 21
42.25
 31
0.0
  0
LINE
  5
2EF
100
AcDbEntity
  8
001
370
               5
390
0
  6
Continuous
 62
               7
100
AcDbLine
 10
213.35599999999997
 20
42.25
 30
0.0
 11
213.35599999999997
 21
43.156399999999849
 31
0.0
  0
LINE
  5
2F0
100
AcDbEntity
  8
001
370
               5
390
0
  6
Continuous
 62
               7
100
AcDbLine
 10
213.76328000000009
 20
43.563999999999965
 30
0.0
 11
213.3557999999999
 21
43.156399999999849
 31
0.0
  0
LINE
  5
2F1
100
AcDbEntity
  8
001
370
               5
390
0
  6
Continuous
 62
               7
100
AcDbLine
 10
214.74980000000014
 20
43.563999999999965
 30
0.0
 11
213.76328000000009
 21
43.563999999999965
 31
0.0
  0
LINE
  5
2F2
100
AcDbEntity
  8
001
370
               5
390
0
  6
Continuous
 62
               7
100
AcDbLine
 10
214.74999999999997
 20
43.563999999999965
 30
0.0
 11
214.74999999999997
 21
44.0
 31
0.0
  0
LINE
  5
2F3
100
AcDbEntity
  8
001
370
               5
390
0
  6
Continuous
 62
               7
100
AcDbLine
 10
214.74999999999997
 20
44.355999999999995
 30
0.0
 11
214.74999999999997
 21
44.0
 31
0.0
  0
LINE
  5
2F4
100
AcDbEntity
  8
001
370
               5
390
0
  6
Continuous
 62
               7
100
AcDbLine
 10
214.74980000000014
 20
44.355999999999995
 30
0.0
 11
213.84328000000002
 21
44.355999999999995
 31
0.0
  0
LINE
  5
2F5
100
AcDbEntity
  8
001
370
               5
390
0
  6
Continuous
 62
               7
100
AcDbLine
 10
213.43580000000006
 20
44.763799999999947
 30
0.0
 11
213.84328000000002
 21
44.355999999999995
 31
0.0
  0
LINE
  5
2F6
100
AcDbEntity
  8
001
370
               5
390
0
  6
Continuous
 62
               7
100
AcDbLine
 10
213.43600000000006
 20
45.75
 30
0.0
 11
213.43600000000006
 21
44.763799999999947
 31
0.0
  0
LINE
  5
2F7
100
AcDbEntity
  8
001
370
               5
390
0
  6
Continuous
 62
               7
100
AcDbLine
 10
213.43600000000006
 20
45.75
 30
0.0
 11
212.99999999999997
 21
45.75
 31
0.0
  0
LINE
  5
2F8
100
AcDbEntity
  8
001
370
               5
390
0
  6
Continuous
 62
               7
100
AcDbLine
 10
212.64400000000009
 20
45.75
 30
0.0
 11
212.99999999999997
 21
45.75
 31
0.0
  0
LINE
  5
2F9
100
AcDbEntity
  8
001
370
               5
390
0
  6
Continuous
 62
               7
100
AcDbLine
 10
212.64400000000009
 20
45.75
 30
0.0
 11
212.64400000000009
 21
44.843799999999874
 31
0.0
  0
LINE
  5
2FA
100
AcDbEntity
  8
001
370
               5
390
0
  6
Continuous
 62
               7
100
AcDbLine
 10
212.23639999999997
 20
44.436000000000035
 30
0.0
 11
212.64400000000009
 21
44.843799999999874
 31
0.0
  0
LINE
  5
2FB
100
AcDbEntity
  8
001
370
               5
390
0
  6
Continuous
 62
               7
100
AcDbLine
 10
211.24999999999997
 20
44.436000000000035
 30
0.0
 11
212.23639999999997
 21
44.436000000000035
 31
0.0
  0
LINE
  5
2FC
100
AcDbEntity
  8
001
370
               5
390
0
  6
Continuous
 62
               7
100
AcDbLine
 10
211.24999999999997
 20
44.436000000000035
 30
0.0
 11
211.24999999999997
 21
44.0
 31
0.0
  0
CIRCLE
  5
2FD
100
AcDbEntity
  8
001
370
               5
390
0
 62
               7
100
AcDbCircle
 10
212.99999999999997
 20
44.0
 30
0.0
 40
3.5000000000000284
  0
LINE
  5
2FE
100
AcDbEntity
  8
001
370
               5
390
0
 62
               7
100
AcDbLine
 10
25.25
 20
43.643999999999892
 30
0.0
 11
25.25
 21
44.0
 31
0.0
  0
LINE
  5
2FF
100
AcDbEntity
  8
001
370
               5
390
0
 62
               7
100
AcDbLine
 10
25.25
 20
43.643999999999892
 30
0.0
 11
26.156400000000019
 21
43.643999999999892
 31
0.0
  0
LINE
  5
300
100
AcDbEntity
  8
001
370
               5
390
0
 62
               7
100
AcDbLine
 10
26.564000000000121
 20
43.236400000000003
 30
0.0
 11
26.156400000000019
 21
43.643999999999892
 31
0.0
  0
LINE
  5
301
100
AcDbEntity
  8
001
370
               5
390
0
 62
               7
100
AcDbLine
 10
26.564000000000121
 20
42.25
 30
0.0
 11
26.564000000000121
 21
43.236400000000003
 31
0.0
  0
LINE
  5
302
100
AcDbEntity
  8
001
370
               5
390
0
 62
               7
100
AcDbLine
 10
26.564000000000121
 20
42.25
 30
0.0
 11
27.0
 21
42.25
 31
0.0
  0
LINE
  5
303
100
AcDbEntity
  8
001
370
               5
390
0
 62
               7
100
AcDbLine
 10
27.355999999999938
 20
42.25
 30
0.0
 11
27.0
 21
42.25
 31
0.0
  0
LINE
  5
304
100
AcDbEntity
  8
001
370
               5
390
0
 62
               7
100
AcDbLine
 10
27.355999999999938
 20
42.25
 30
0.0
 11
27.355999999999938
 21
43.156399999999849
 31
0.0
  0
LINE
  5
305
100
AcDbEntity
  8
001
370
               5
390
0
 62
               7
100
AcDbLine
 10
27.763280000000123
 20
43.563999999999965
 30
0.0
 11
27.355800000000087
 21
43.156399999999849
 31
0.0
  0
LINE
  5
306
100
AcDbEntity
  8
001
370
               5
390
0
 62
               7
100
AcDbLine
 10
28.749800000000135
 20
43.563999999999965
 30
0.0
 11
27.763280000000123
 21
43.563999999999965
 31
0.0
  0
LINE
  5
307
100
AcDbEntity
  8
001
370
               5
390
0
 62
               7
100
AcDbLine
 10
28.75
 20
43.563999999999965
 30
0.0
 11
28.75
 21
44.0
 31
0.0
  0
LINE
  5
308
100
AcDbEntity
  8
001
370
               5
390
0
 62
               7
100
AcDbLine
 10
28.75
 20
44.355999999999995
 30
0.0
 11
28.75
 21
44.0
 31
0.0
  0
LINE
  5
309
100
AcDbEntity
  8
001
370
               5
390
0
 62
               7
100
AcDbLine
 10
28.749800000000135
 20
44.355999999999995
 30
0.0
 11
27.84328000000005
 21
44.355999999999995
 31
0.0
  0
LINE
  5
30A
100
AcDbEntity
  8
001
370
               5
390
0
 62
               7
100
AcDbLine
 10
27.435800000000015
 20
44.763799999999947
 30
0.0
 11
27.84328000000005
 21
44.355999999999995
 31
0.0
  0
LINE
  5
30B
100
AcDbEntity
  8
001
370
               5
390
0
 62
               7
100
AcDbLine
 10
27.436000000000064
 20
45.75
 30
0.0
 11
27.436000000000064
 21
44.763799999999947
 31
0.0
  0
LINE
  5
30C
100
AcDbEntity
  8
001
370
               5
390
0
 62
               7
100
AcDbLine
 10
27.436000000000064
 20
45.75
 30
0.0
 11
27.0
 21
45.75
 31
0.0
  0
LINE
  5
30D
100
AcDbEntity
  8
001
370
               5
390
0
 62
               7
100
AcDbLine
 10
26.644000000000048
 20
45.75
 30
0.0
 11
27.0
 21
45.75
 31
0.0
  0
LINE
  5
30E
100
AcDbEntity
  8
001
370
               5
390
0
 62
               7
100
AcDbLine
 10
26.644000000000048
 20
45.75
 30
0.0
 11
26.644000000000048
 21
44.843799999999874
 31
0.0
  0
LINE
  5
30F
100
AcDbEntity
  8
001
370
               5
390
0
 62
               7
100
AcDbLine
 10
26.236399999999946
 20
44.436000000000035
 30
0.0
 11
26.644000000000048
 21
44.843799999999874
 31
0.0
  0
LINE
  5
310
100
AcDbEntity
  8
001
370
               5
390
0
 62
               7
100
AcDbLine
 10
25.25
 20
44.436000000000035
 30
0.0
 11
26.236399999999946
 21
44.436000000000035
 31
0.0
  0
LINE
  5
311
100
AcDbEntity
  8
001
370
               5
390
0
 62
               7
100
AcDbLine
 10
25.25
 20
44.436000000000035
 30
0.0
 11
25.25
 21
44.0
 31
0.0
  0
CIRCLE
  5
312
100
AcDbEntity
  8
001
370
               5
390
0
 62
               7
100
AcDbCircle
 10
27.0
 20
44.0
 30
0.0
 40
3.5
  0
LINE
  5
313
100
AcDbEntity
  8
001
370
               5
390
0
 62
               7
100
AcDbLine
 10
-142.99331999999995
 20
-150.0
 30
0.0
 11
-125.99331999999995
 21
-150.0
 31
0.0
  0
LINE
  5
314
100
AcDbEntity
  8
001
370
               5
390
0
 62
               7
100
AcDbLine
 10
-143.99331999999995
 20
-149.0
 30
0.0
 11
-143.99331999999995
 21
-23.0
 31
0.0
  0
ARC
  5
315
100
AcDbEntity
  8
001
370
               5
390
0
 62
               7
100
AcDbCircle
 10
-142.99331999999995
 20
-149.0
 30
0.0
 40
1.0
100
AcDbArc
 50
180.0
 51
270.0
  0
ARC
  5
316
100
AcDbEntity
  8
001
370
               5
390
0
 62
               7
100
AcDbCircle
 10
-144.99331999999995
 20
-149.0
 30
0.0
 40
1.0
100
AcDbArc
 50
270.0
 51
0.0
  0
LINE
  5
317
100
AcDbEntity
  8
001
370
               5
390
0
 62
               7
100
AcDbLine
 10
-144.99331999999995
 20
-150.0
 30
0.0
 11
-325.99331999999993
 21
-150.0
 31
0.0
  0
ARC
  5
318
100
AcDbEntity
  8
001
370
               5
390
0
 62
               7
100
AcDbCircle
 10
-142.99331999999995
 20
-31.0
 30
0.0
 40
1.0
100
AcDbArc
 50
90.0
 51
180.0
  0
LINE
  5
319
100
AcDbEntity
  8
001
370
               5
390
0
 62
               7
100
AcDbLine
 10
-142.99331999999995
 20
-30.0
 30
0.0
 11
-125.99331999999995
 21
-30.0
 31
0.0
  0
LINE
  5
31A
100
AcDbEntity
  8
001
370
               5
390
0
 62
               7
100
AcDbLine
 10
-142.99331999999995
 20
-22.0
 30
0.0
 11
-123.99331999999995
 21
-22.0
 31
0.0
  0
ARC
  5
31B
100
AcDbEntity
  8
001
370
               5
390
0
 62
               7
100
AcDbCircle
 10
-142.99331999999995
 20
-23.0
 30
0.0
 40
1.0
100
AcDbArc
 50
90.0
 51
180.0
  0
LINE
  5
31C
100
AcDbEntity
  8
001
370
               5
390
0
  6
STYLE_06
 62
               7
100
AcDbLine
 10
-128.39471999999989
 20
44.0
 30
0.0
 11
-107.49751999999991
 21
44.0
 31
0.0
  0
LINE
  5
31D
100
AcDbEntity
  8
001
370
               5
390
0
 62
               7
100
AcDbLine
 10
-113.29272000000002
 20
44.985320000000002
 30
0.0
 11
-112.69331999999996
 21
44.0
 31
0.0
  0
LINE
  5
31E
100
AcDbEntity
  8
001
370
               5
390
0
 62
               7
100
AcDbLine
 10
-113.29272000000002
 20
42.864919999999984
 30
0.0
 11
-112.69331999999996
 21
44.0
 31
0.0
  0
ARC
  5
31F
100
AcDbEntity
  8
001
370
               5
390
0
 62
               7
100
AcDbCircle
 10
-121.69331999999996
 20
44.0
 30
0.0
 40
8.9997336626368636
100
AcDbArc
 50
343.39893187479373
 51
16.602433844990514
  0
ARC
  5
320
100
AcDbEntity
  8
001
370
               5
390
0
 62
               7
100
AcDbCircle
 10
-114.31443999999993
 20
41.799999999999955
 30
0.0
 40
1.2999999999999545
100
AcDbArc
 50
270.0
 51
343.39954003916108
  0
LINE
  5
321
100
AcDbEntity
  8
001
370
               5
390
0
 62
               7
100
AcDbLine
 10
-114.3142399999999
 20
40.5
 30
0.0
 11
-115.99331999999995
 21
40.5
 31
0.0
  0
ARC
  5
322
100
AcDbEntity
  8
001
370
               5
390
0
 62
               7
100
AcDbCircle
 10
-114.31443999999993
 20
46.200000000000045
 30
0.0
 40
1.2999405481788719
100
AcDbArc
 50
16.606535976542673
 51
89.998236998692164
  0
LINE
  5
323
100
AcDbEntity
  8
001
370
               5
390
0
 62
               7
100
AcDbLine
 10
-114.3142399999999
 20
47.5
 30
0.0
 11
-115.99331999999995
 21
47.5
 31
0.0
  0
LINE
  5
324
100
AcDbEntity
  8
001
370
               5
390
0
 62
               7
100
AcDbLine
 10
-115.29331999999997
 20
40.5
 30
0.0
 11
-115.29331999999997
 21
47.5
 31
0.0
  0
LINE
  5
325
100
AcDbEntity
  8
001
370
               5
390
0
 62
               7
100
AcDbLine
 10
-68.323120000000017
 20
39.949519999999893
 30
0.0
 11
-79.804919999999953
 21
39.949519999999893
 31
0.0
  0
SOLID
  5
326
100
AcDbEntity
  8
001
370
               5
390
0
 62
               7
100
AcDbTrace
 10
-68.323120000000017
 20
39.949519999999893
 30
0.0
 11
-76.322631718750017
 21
37.806057295117526
 31
0.0
 12
-76.322631718750017
 22
42.09298270488226
 32
0.0
 13
-76.322631718750017
 23
42.09298270488226
 33
0.0
  0
MTEXT
  5
327
100
AcDbEntity
  8
001
390
0
 62
               7
100
AcDbMText
 10
-88.527839999999927
 20
44.651250000000076
 30
0.0
 40
8.7312499999999993
 41
0.0
 71
               1
 72
               1
  1
A
  7
ＭＳ Ｐゴシック
 73
               1
 44
0.8762322015334064
  0
CIRCLE
  5
328
100
AcDbEntity
  8
一般
370
               5
390
0
  6
STYLE_12
 62
               7
100
AcDbCircle
 10
159.40000000000001
 20
-85.399999999999977
 30
0.0
 40
16.0
  0
CIRCLE
  5
329
100
AcDbEntity
  8
一般
370
               5
390
0
  6
STYLE_12
 62
               7
100
AcDbCircle
 10
159.23999999999998
 20
-131.05400000000009
 30
0.0
 40
6.3999999999999773
  0
POLYLINE
  5
32A
100
AcDbEntity
  8
一般
370
               5
390
0
  6
STYLE_12
 62
               7
100
AcDb2dPolyline
 66
               1
 10
0.0
 20
0.0
 30
0.0
 70
               1
 75
               5
  0
VERTEX
  5
32B
100
AcDbEntity
  8
一般
370
               5
390
0
  6
STYLE_12
 62
               7
100
AcDbVertex
100
AcDb2dVertex
 10
163.01620000000003
 20
-91.800200000000018
 30
0.0
  0
VERTEX
  5
32C
100
AcDbEntity
  8
一般
370
               5
390
0
  6
STYLE_12
 62
               7
100
AcDbVertex
100
AcDb2dVertex
 10
166.71128000000007
 20
-85.400200000000041
 30
0.0
  0
VERTEX
  5
32D
100
AcDbEntity
  8
一般
370
               5
390
0
  6
STYLE_12
 62
               7
100
AcDbVertex
100
AcDb2dVertex
 10
163.01659999999993
 20
-79.0
 30
0.0
  0
VERTEX
  5
32E
100
AcDbEntity
  8
一般
370
               5
390
0
  6
STYLE_12
 62
               7
100
AcDbVertex
100
AcDb2dVertex
 10
155.62659999999997
 20
-78.999599999999873
 30
0.0
  0
VERTEX
  5
32F
100
AcDbEntity
  8
一般
370
               5
390
0
  6
STYLE_12
 62
               7
100
AcDbVertex
100
AcDb2dVertex
 10
151.93127999999999
 20
-85.399599999999964
 30
0.0
  0
VERTEX
  5
330
100
AcDbEntity
  8
一般
370
               5
390
0
  6
STYLE_12
 62
               7
100
AcDbVertex
100
AcDb2dVertex
 10
155.62600000000003
 20
-91.799800000000005
 30
0.0
  0
SEQEND
  5
331
100
AcDbEntity
  8
一般
370
               5
390
0
  6
STYLE_12
 62
               7
  0
CIRCLE
  5
332
100
AcDbEntity
  8
一般
370
               5
390
0
  6
STYLE_12
 62
               7
100
AcDbCircle
 10
159.40000000000001
 20
-85.399999999999977
 30
0.0
 40
14.0
  0
POLYLINE
  5
333
100
AcDbEntity
  8
一般
370
               5
390
0
  6
STYLE_12
 62
               7
100
AcDb2dPolyline
 66
               1
 10
0.0
 20
0.0
 30
0.0
 70
               1
 75
               5
  0
VERTEX
  5
334
100
AcDbEntity
  8
一般
370
               5
390
0
  6
STYLE_12
 62
               7
100
AcDbVertex
100
AcDb2dVertex
 10
135.0
 20
-106.89400000000001
 30
0.0
  0
VERTEX
  5
335
100
AcDbEntity
  8
一般
370
               5
390
0
  6
STYLE_12
 62
               7
100
AcDbVertex
100
AcDb2dVertex
 10
183.0
 20
-106.89400000000001
 30
0.0
  0
VERTEX
  5
336
100
AcDbEntity
  8
一般
370
               5
390
0
  6
STYLE_12
 62
               7
100
AcDbVertex
100
AcDb2dVertex
 10
183.0
 20
-138.89400000000001
 30
0.0
  0
VERTEX
  5
337
100
AcDbEntity
  8
一般
370
               5
390
0
  6
STYLE_12
 62
               7
100
AcDbVertex
100
AcDb2dVertex
 10
135.0
 20
-138.89400000000001
 30
0.0
  0
SEQEND
  5
338
100
AcDbEntity
  8
一般
370
               5
390
0
  6
STYLE_12
 62
               7
  0
WIPEOUT
  5
339
100
AcDbEntity
  8
一般
370
               5
390
0
  6
STYLE_12
 62
               7
 92
        0
100
AcDbWipeout
 90
        0
 10
155.80000000000001
 20
-134.25400000000013
 30
0.0
 11
19.199999999999989
 21
0.0
 31
0.0
 12
0.0
 22
19.199999999999989
 32
0.0
 13
1.0
 23
1.0
340
0
 70
               7
280
               1
281
              50
282
              50
283
               0
360
0
 71
               2
 91
       33
 14
0.0
 24
0.5
 14
-0.0975451610080643
 24
0.4967975467338717
 14
-0.1913417161825449
 24
0.4873132554185477
 14
-0.2777851165098005
 24
0.4719116020504235
 14
-0.3535533905932733
 24
0.4511844635310901
 14
-0.4157348061512721
 24
0.425928372169932
 14
-0.461939766255643
 24
0.3971139053941807
 14
-0.4903926402016152
 24
0.3658483870026861
 14
-0.5
 24
0.3333333333333309
 14
-0.4903926402016152
 24
0.3008182796639756
 14
-0.461939766255643
 24
0.2695527612724811
 14
-0.4157348061512721
 24
0.2407382944967297
 14
-0.3535533905932733
 24
0.2154822031355717
 14
-0.2777851165098005
 24
0.1947550646162382
 14
-0.1913417161825449
 24
0.1793534112481141
 14
-0.0975451610080643
 24
0.16986911993279
 14
0.0
 24
0.1666666666666617
 14
0.0975451610080643
 24
0.16986911993279
 14
0.1913417161825449
 24
0.1793534112481141
 14
0.2777851165098005
 24
0.1947550646162382
 14
0.3535533905932733
 24
0.2154822031355717
 14
0.4157348061512721
 24
0.2407382944967297
 14
0.461939766255643
 24
0.2695527612724811
 14
0.4903926402016152
 24
0.3008182796639756
 14
0.5
 24
0.3333333333333309
 14
0.4903926402016152
 24
0.3658483870026861
 14
0.461939766255643
 24
0.3971139053941807
 14
0.4157348061512721
 24
0.425928372169932
 14
0.3535533905932733
 24
0.4511844635310901
 14
0.2777851165098005
 24
0.4719116020504235
 14
0.1913417161825449
 24
0.4873132554185477
 14
0.0975451610080643
 24
0.4967975467338717
 14
0.0
 24
0.5
  0
SPLINE
  5
33A
100
AcDbEntity
  8
一般
370
               5
390
0
  6
STYLE_12
 62
               7
100
AcDbSpline
210
0.0
220
0.0
230
1.0
 70
               9
 71
               2
 72
              17
 73
              14
 74
               0
 42
0.000001
 43
0.000001
 40
0.0
 40
0.0
 40
0.0
 40
1.0
 40
2.0
 40
3.0
 40
4.0
 40
5.0
 40
6.0
 40
7.0
 40
8.0
 40
9.0
 40
10.0
 40
11.0
 40
12.0
 40
12.0
 40
12.0
 10
160.60000000000002
 20
-128.28271870788984
 30
0.0
 10
162.82768775266123
 20
-127.85400000000004
 30
0.0
 10
167.97231224733878
 20
-127.85400000000004
 30
0.0
 10
172.42768775266123
 20
-128.71143741577964
 30
0.0
 10
175.0
 20
-130.19656258422049
 30
0.0
 10
175.0
 20
-131.91143741577969
 30
0.0
 10
172.42768775266123
 20
-133.39656258422053
 30
0.0
 10
167.97231224733878
 20
-134.25400000000013
 30
0.0
 10
162.82768775266123
 20
-134.25400000000013
 30
0.0
 10
158.37231224733878
 20
-133.39656258422053
 30
0.0
 10
155.80000000000001
 20
-131.91143741577969
 30
0.0
 10
155.80000000000001
 20
-130.19656258422049
 30
0.0
 10
158.37231224733878
 20
-128.71143741577964
 30
0.0
 10
160.60000000000002
 20
-128.28271870788984
 30
0.0
  0
LINE
  5
33B
100
AcDbEntity
  8
一般
370
               5
390
0
  6
Continuous
 62
               7
100
AcDbLine
 10
199.0
 20
-70.0
 30
0.0
 11
208.0
 21
-70.0
 31
0.0
  0
LINE
  5
33C
100
AcDbEntity
  8
一般
370
               5
390
0
  6
Continuous
 62
               7
100
AcDbLine
 10
199.0
 20
-110.0
 30
0.0
 11
208.0
 21
-110.0
 31
0.0
  0
LINE
  5
33D
100
AcDbEntity
  8
一般
370
               5
390
0
  6
Continuous
 62
               7
100
AcDbLine
 10
206.80000000000001
 20
-70.0
 30
0.0
 11
206.80000000000001
 21
-110.0
 31
0.0
  0
LINE
  5
33E
100
AcDbEntity
  8
一般
370
               5
390
0
  6
Continuous
 62
               7
100
AcDbLine
 10
206.80000000000001
 20
-80.0
 30
0.0
 11
210.0
 21
-80.0
 31
0.0
  0
LINE
  5
33F
100
AcDbEntity
  8
一般
370
               5
390
0
  6
Continuous
 62
               7
100
AcDbLine
 10
206.80000000000001
 20
-90.0
 30
0.0
 11
210.0
 21
-90.0
 31
0.0
  0
LINE
  5
340
100
AcDbEntity
  8
一般
370
               5
390
0
  6
Continuous
 62
               7
100
AcDbLine
 10
206.80000000000001
 20
-100.0
 30
0.0
 11
210.0
 21
-100.0
 31
0.0
  0
MTEXT
  5
341
100
AcDbEntity
  8
一般
390
0
 62
               7
100
AcDbMText
 10
60.5
 20
-180.83587999999997
 30
0.0
 40
8.7312499999999993
 41
126.69512
 71
               4
 72
               1
  1
手動操作用\Pｽｲｯﾁ
  7
ＭＳ Ｐゴシック
 73
               1
 44
0.8762322015334064
  0
MTEXT
  5
342
100
AcDbEntity
  8
一般
390
0
 62
               7
100
AcDbMText
 10
39.199999999999989
 20
-122.10000000000002
 30
0.0
 40
8.7312499999999993
 41
87.99512
 71
               4
 72
               1
  1
手動操作用回転軸
  7
ＭＳ Ｐゴシック
 73
               1
 44
0.8762322015334064
  0
LINE
  5
343
100
AcDbEntity
  8
一般
370
               5
390
0
  6
Continuous
 62
               7
100
AcDbLine
 10
137.09148000000005
 20
-122.33888000000002
 30
0.0
 11
35.195080000000047
 21
-122.33888000000002
 31
0.0
  0
LINE
  5
344
100
AcDbEntity
  8
一般
370
               5
390
0
  6
Continuous
 62
               7
100
AcDbLine
 10
149.50308000000004
 20
-180.33888000000002
 30
0.0
 11
60.195080000000047
 21
-180.33888000000002
 31
0.0
  0
LINE
  5
345
100
AcDbEntity
  8
一般
370
               5
390
0
  6
Continuous
 62
               7
100
AcDbLine
 10
137.09148000000005
 20
-122.33888000000002
 30
0.0
 11
155.14688000000007
 21
-91.066000000000031
 31
0.0
  0
SOLID
  5
346
100
AcDbEntity
  8
一般
370
               5
390
0
 62
               7
100
AcDbTrace
 10
155.14688000000007
 20
-91.066000000000031
 30
0.0
 11
153.00341729511771
 21
-99.065511718750031
 31
0.0
 12
149.29083098613242
 22
-96.922049013867664
 32
0.0
 13
149.29083098613242
 23
-96.922049013867664
 33
0.0
  0
ARC
  5
347
100
AcDbEntity
  8
001
370
               5
390
0
 62
               7
100
AcDbCircle
 10
221.0
 20
-23.0
 30
0.0
 40
2.0
100
AcDbArc
 50
270.0
 51
0.0
  0
ARC
  5
348
100
AcDbEntity
  8
001
370
               5
390
0
 62
               7
100
AcDbCircle
 10
174.0
 20
-156.0
 30
0.0
 40
6.0
100
AcDbArc
 50
0.0
 51
29.999963821129086
  0
LINE
  5
349
100
AcDbEntity
  8
001
370
               5
390
0
 62
               7
100
AcDbLine
 10
180.0
 20
-156.0
 30
0.0
 11
180.0
 21
-170.0
 31
0.0
  0
ARC
  5
34A
100
AcDbEntity
  8
001
370
               5
390
0
 62
               7
100
AcDbCircle
 10
190.0
 20
-170.0
 30
0.0
 40
10.0
100
AcDbArc
 50
180.0
 51
270.0
  0
LINE
  5
34B
100
AcDbEntity
  8
001
370
               5
390
0
 62
               7
100
AcDbLine
 10
210.0
 20
-180.0
 30
0.0
 11
190.0
 21
-180.0
 31
0.0
  0
CIRCLE
  5
34C
100
AcDbEntity
  8
001
370
               5
390
0
 62
               7
100
AcDbCircle
 10
200.0
 20
-165.0
 30
0.0
 40
5.5
  0
LINE
  5
34D
100
AcDbEntity
  8
001
370
               5
390
0
 62
               7
100
AcDbLine
 10
223.0
 20
92.0
 30
0.0
 11
230.0
 21
92.0
 31
0.0
  0
LINE
  5
34E
100
AcDbEntity
  8
001
370
               5
390
0
 62
               7
100
AcDbLine
 10
-273.23151999999993
 20
60.505999999999972
 30
0.0
 11
-272.36551999999995
 21
59.005999999999972
 31
0.0
  0
LINE
  5
34F
100
AcDbEntity
  8
001
370
               5
390
0
 62
               7
100
AcDbLine
 10
10.5
 20
56.0
 30
0.0
 11
10.949999999999996
 21
56.0
 31
0.0
  0
ARC
  5
350
100
AcDbEntity
  8
001
370
               5
390
0
 62
               7
100
AcDbCircle
 10
4.0
 20
40.0
 30
0.0
 40
4.0
100
AcDbArc
 50
270.0
 51
90.0
  0
LINE
  5
351
100
AcDbEntity
  8
001
370
               5
390
0
 62
               7
100
AcDbLine
 10
10.5
 20
24.0
 30
0.0
 11
10.949999999999996
 21
24.0
 31
0.0
  0
LINE
  5
352
100
AcDbEntity
  8
001
370
               5
390
0
 62
               7
100
AcDbLine
 10
11.0
 20
2.0
 30
0.0
 11
11.499999999999993
 21
2.5
 31
0.0
  0
LINE
  5
353
100
AcDbEntity
  8
001
370
               5
390
0
  6
STYLE_06
 62
               7
100
AcDbLine
 10
183.90727999999999
 20
-165.0
 30
0.0
 11
220.0
 21
-165.0
 31
0.0
  0
LINE
  5
354
100
AcDbEntity
  8
001
370
               5
390
0
 62
               7
100
AcDbLine
 10
-28.079600000000035
 20
-119.53528000000006
 30
0.0
 11
-28.079600000000035
 21
-127.63528000000008
 31
0.0
  0
LINE
  5
355
100
AcDbEntity
  8
001
370
               5
390
0
 62
               7
100
AcDbLine
 10
-28.079600000000035
 20
-119.53528000000006
 30
0.0
 11
-24.678399999999971
 21
-119.53528000000006
 31
0.0
  0
LINE
  5
356
100
AcDbEntity
  8
001
370
               5
390
0
 62
               7
100
AcDbLine
 10
-28.079600000000035
 20
-127.63528000000008
 30
0.0
 11
-24.678399999999971
 21
-127.63528000000008
 31
0.0
  0
ARC
  5
357
100
AcDbEntity
  8
001
370
               5
390
0
 62
               7
100
AcDbCircle
 10
-38.079639999999934
 20
-123.58528000000001
 30
0.0
 40
14.000039074002606
100
AcDbArc
 50
16.81514929006272
 51
343.18469400768572
  0
LINE
  5
358
100
AcDbEntity
  8
001
370
               5
390
0
  6
Continuous
 62
               7
100
AcDbLine
 10
211.24999999999997
 20
43.643999999999892
 30
0.0
 11
211.24999999999997
 21
44.0
 31
0.0
  0
LINE
  5
359
100
AcDbEntity
  8
001
370
               5
390
0
  6
Continuous
 62
               7
100
AcDbLine
 10
211.24999999999997
 20
43.643999999999892
 30
0.0
 11
212.15640000000005
 21
43.643999999999892
 31
0.0
  0
LINE
  5
35A
100
AcDbEntity
  8
001
370
               5
390
0
  6
Continuous
 62
               7
100
AcDbLine
 10
212.56400000000016
 20
43.236400000000003
 30
0.0
 11
212.15640000000005
 21
43.643999999999892
 31
0.0
  0
LINE
  5
35B
100
AcDbEntity
  8
001
370
               5
390
0
  6
Continuous
 62
               7
100
AcDbLine
 10
212.56400000000016
 20
42.25
 30
0.0
 11
212.56400000000016
 21
43.236400000000003
 31
0.0
  0
LINE
  5
35C
100
AcDbEntity
  8
001
370
               5
390
0
  6
Continuous
 62
               7
100
AcDbLine
 10
212.56400000000016
 20
42.25
 30
0.0
 11
212.99999999999997
 21
42.25
 31
0.0
  0
LINE
  5
35D
100
AcDbEntity
  8
001
370
               5
390
0
  6
Continuous
 62
               7
100
AcDbLine
 10
213.35599999999997
 20
42.25
 30
0.0
 11
212.99999999999997
 21
42.25
 31
0.0
  0
LINE
  5
35E
100
AcDbEntity
  8
001
370
               5
390
0
  6
Continuous
 62
               7
100
AcDbLine
 10
213.35599999999997
 20
42.25
 30
0.0
 11
213.35599999999997
 21
43.156399999999849
 31
0.0
  0
LINE
  5
35F
100
AcDbEntity
  8
001
370
               5
390
0
  6
Continuous
 62
               7
100
AcDbLine
 10
213.76328000000009
 20
43.563999999999965
 30
0.0
 11
213.3557999999999
 21
43.156399999999849
 31
0.0
  0
LINE
  5
360
100
AcDbEntity
  8
001
370
               5
390
0
  6
Continuous
 62
               7
100
AcDbLine
 10
214.74980000000014
 20
43.563999999999965
 30
0.0
 11
213.76328000000009
 21
43.563999999999965
 31
0.0
  0
LINE
  5
361
100
AcDbEntity
  8
001
370
               5
390
0
  6
Continuous
 62
               7
100
AcDbLine
 10
214.74999999999997
 20
43.563999999999965
 30
0.0
 11
214.74999999999997
 21
44.0
 31
0.0
  0
LINE
  5
362
100
AcDbEntity
  8
001
370
               5
390
0
  6
Continuous
 62
               7
100
AcDbLine
 10
214.74999999999997
 20
44.355999999999995
 30
0.0
 11
214.74999999999997
 21
44.0
 31
0.0
  0
LINE
  5
363
100
AcDbEntity
  8
001
370
               5
390
0
  6
Continuous
 62
               7
100
AcDbLine
 10
214.74980000000014
 20
44.355999999999995
 30
0.0
 11
213.84328000000002
 21
44.355999999999995
 31
0.0
  0
LINE
  5
364
100
AcDbEntity
  8
001
370
               5
390
0
  6
Continuous
 62
               7
100
AcDbLine
 10
213.43580000000006
 20
44.763799999999947
 30
0.0
 11
213.84328000000002
 21
44.355999999999995
 31
0.0
  0
LINE
  5
365
100
AcDbEntity
  8
001
370
               5
390
0
  6
Continuous
 62
               7
100
AcDbLine
 10
213.43600000000006
 20
45.75
 30
0.0
 11
213.43600000000006
 21
44.763799999999947
 31
0.0
  0
LINE
  5
366
100
AcDbEntity
  8
001
370
               5
390
0
  6
Continuous
 62
               7
100
AcDbLine
 10
213.43600000000006
 20
45.75
 30
0.0
 11
212.99999999999997
 21
45.75
 31
0.0
  0
LINE
  5
367
100
AcDbEntity
  8
001
370
               5
390
0
  6
Continuous
 62
               7
100
AcDbLine
 10
212.64400000000009
 20
45.75
 30
0.0
 11
212.99999999999997
 21
45.75
 31
0.0
  0
LINE
  5
368
100
AcDbEntity
  8
001
370
               5
390
0
  6
Continuous
 62
               7
100
AcDbLine
 10
212.64400000000009
 20
45.75
 30
0.0
 11
212.64400000000009
 21
44.843799999999874
 31
0.0
  0
LINE
  5
369
100
AcDbEntity
  8
001
370
               5
390
0
  6
Continuous
 62
               7
100
AcDbLine
 10
212.23639999999997
 20
44.436000000000035
 30
0.0
 11
212.64400000000009
 21
44.843799999999874
 31
0.0
  0
LINE
  5
36A
100
AcDbEntity
  8
001
370
               5
390
0
  6
Continuous
 62
               7
100
AcDbLine
 10
211.24999999999997
 20
44.436000000000035
 30
0.0
 11
212.23639999999997
 21
44.436000000000035
 31
0.0
  0
LINE
  5
36B
100
AcDbEntity
  8
001
370
               5
390
0
  6
Continuous
 62
               7
100
AcDbLine
 10
211.24999999999997
 20
44.436000000000035
 30
0.0
 11
211.24999999999997
 21
44.0
 31
0.0
  0
CIRCLE
  5
36C
100
AcDbEntity
  8
001
370
               5
390
0
 62
               7
100
AcDbCircle
 10
212.99999999999997
 20
44.0
 30
0.0
 40
3.5000000000000284
  0
MTEXT
  5
36D
100
AcDbEntity
  8
001
390
0
 62
               7
100
AcDbMText
 10
-64.052440000000033
 20
-154.21715
 30
0.0
 40
8.7312499999999993
 41
0.0
 71
               1
 72
               1
  1
"A" VIEW
  7
ＭＳ Ｐゴシック
 73
               1
 44
0.8762322015334064
  0
MTEXT
  5
36E
100
AcDbEntity
  8
001
390
0
 62
               7
100
AcDbMText
 10
214.21080000000003
 20
-188.47695000000004
 30
0.0
 40
8.7312499999999993
 41
0.0
 71
               1
 72
               1
  1
4-φ11取付穴
  7
ＭＳ Ｐゴシック
 73
               1
 44
0.8762322015334064
  0
LINE
  5
36F
100
AcDbEntity
  8
一般
370
               5
390
0
  6
Continuous
 62
               7
100
AcDbLine
 10
213.19508000000005
 20
-199.33888000000002
 30
0.0
 11
311.19508000000008
 21
-199.33888000000002
 31
0.0
  0
MTEXT
  5
370
100
AcDbEntity
  8
001
390
0
 62
               7
100
AcDbMText
 10
-96.201839999999905
 20
-7.4185499999999145
 30
0.0
 40
8.7312499999999993
 41
0.0
 71
               1
 72
               1
  1
端子カバー
  7
ＭＳ Ｐゴシック
 73
               1
 44
0.8762322015334064
  0
DIMENSION
  5
371
100
AcDbEntity
  8
寸法
370
               5
390
0
  6
Continuous
 62
               7
100
AcDbDimension
  2
*D1
 10
-355.99331999999993
 20
158.66111999999993
 30
0.0
 11
-303.49331999999993
 21
158.66111999999993
 31
0.0
 71
               5
 72
               1
 41
1.0
 42
0.0
  3
中谷
100
AcDbAlignedDimension
 13
-250.99331999999995
 23
110.0
 33
0.0
 14
-355.99331999999993
 24
140.66111999999993
 34
0.0
100
AcDbRotatedDimension
1001
ACAD
1000
DSTYLE
1002
{
1070
             279
1070
               2
1070
             340
1005
3A
1070
             147
1040
0.03
1002
}
  0
DIMENSION
  5
372
100
AcDbEntity
  8
寸法
370
               5
390
0
  6
Continuous
 62
               7
100
AcDbDimension
  2
*D2
 10
-355.99331999999993
 20
178.66111999999993
 30
0.0
 11
-255.99331999999993
 21
178.66111999999993
 31
0.0
 71
               5
 72
               1
 41
1.0
 42
0.0
  3
中谷
100
AcDbAlignedDimension
 13
-155.99331999999995
 23
125.0
 33
0.0
 14
-355.99331999999993
 24
138.66111999999993
 34
0.0
100
AcDbRotatedDimension
1001
ACAD
1000
DSTYLE
1002
{
1070
             279
1070
               2
1070
             340
1005
3A
1070
             147
1040
0.03
1002
}
  0
DIMENSION
  5
373
100
AcDbEntity
  8
寸法
370
               5
390
0
  6
Continuous
 62
               7
100
AcDbDimension
  2
*D3
 10
-370.80491999999992
 20
125.0
 30
0.0
 11
-370.8349199999999
 21
147.65000000000001
 31
0.0
 70
             128
 71
               5
 72
               1
 41
1.0
 42
0.0
  3
中谷
100
AcDbAlignedDimension
 13
-355.99331999999993
 23
140.0
 33
0.0
 14
-355.99331999999993
 24
125.0
 34
0.0
 50
90.0
100
AcDbRotatedDimension
1001
ACAD
1000
DSTYLE
1002
{
1070
             279
1070
               2
1070
             340
1005
3A
1070
             174
1070
               0
1070
             147
1040
0.03
1002
}
  0
DIMENSION
  5
374
100
AcDbEntity
  8
寸法
370
               5
390
0
  6
Continuous
 62
               7
100
AcDbDimension
  2
*D4
 10
-370.80491999999992
 20
125.0
 30
0.0
 11
-370.80491999999992
 21
82.5
 31
0.0
 71
               5
 72
               1
 41
1.0
 42
0.0
  3
中谷
100
AcDbAlignedDimension
 13
-355.99331999999993
 23
40.0
 33
0.0
 14
-355.99331999999993
 24
125.0
 34
0.0
 50
90.0
100
AcDbRotatedDimension
1001
ACAD
1000
DSTYLE
1002
{
1070
             279
1070
               2
1070
             340
1005
3A
1070
             147
1040
0.03
1002
}
  0
DIMENSION
  5
375
100
AcDbEntity
  8
寸法
370
               5
390
0
  6
Continuous
 62
               7
100
AcDbDimension
  2
*D5
 10
-390.80491999999992
 20
140.0
 30
0.0
 11
-390.80491999999992
 21
-20.0
 31
0.0
 71
               5
 72
               1
 41
1.0
 42
0.0
  3
中谷
100
AcDbAlignedDimension
 13
-355.99331999999993
 23
-180.0
 33
0.0
 14
-355.99331999999993
 24
140.0
 34
0.0
 50
90.0
100
AcDbRotatedDimension
1001
ACAD
1000
DSTYLE
1002
{
1070
             279
1070
               2
1070
             340
1005
3A
1070
             147
1040
0.03
1002
}
  0
DIMENSION
  5
376
100
AcDbEntity
  8
寸法
370
               5
390
0
  6
Continuous
 62
               7
100
AcDbDimension
  2
*D6
 10
-370.80491999999992
 20
40.0
 30
0.0
 11
-370.80491999999992
 21
-62.5
 31
0.0
 71
               5
 72
               1
 41
1.0
 42
0.0
  3
中谷
100
AcDbAlignedDimension
 13
-355.99331999999993
 23
-165.0
 33
0.0
 14
-358.80491999999992
 24
40.0
 34
0.0
 50
90.0
100
AcDbRotatedDimension
1001
ACAD
1000
DSTYLE
1002
{
1070
             279
1070
               2
1070
             340
1005
3A
1070
             147
1040
0.03
1002
}
  0
DIMENSION
  5
377
100
AcDbEntity
  8
寸法
370
               5
390
0
  6
Continuous
 62
               7
100
AcDbDimension
  2
*D7
 10
-164.21124
 20
90.856519999999932
 30
0.0
 11
-132.28804507419827
 21
148.66117735351492
 31
0.0
 70
               3
 71
               5
 72
               1
 41
1.0
 42
0.0
  1
電線口
  3
中谷
100
AcDbDiametricDimension
 15
-155.07683999999992
 25
109.76591999999982
 35
0.0
 40
43.195599999999999
1001
ACAD
1000
DSTYLE
1002
{
1070
             172
1070
               0
1070
             289
1070
               0
1070
             342
1005
5A
1070
             340
1005
3A
1070
              73
1070
               1
1070
              74
1070
               1
1070
              75
1070
               1
1070
              76
1070
               1
1070
             174
1070
               0
1070
             147
1040
0.05
1002
}
  0
LINE
  5
378
100
AcDbEntity
  8
一般
370
               5
390
0
  6
Continuous
 62
               7
100
AcDbLine
 10
134.19508000000005
 20
148.66111999999998
 30
0.0
 11
120.0
 21
112.85879999999997
 31
0.0
  0
SOLID
  5
379
100
AcDbEntity
  8
一般
370
               5
390
0
 62
               7
100
AcDbTrace
 10
120.0
 20
112.85879999999997
 30
0.0
 11
121.00928582111862
 21
121.07877337203283
 31
0.0
 12
124.98405384678459
 22
119.47286284805274
 32
0.0
 13
124.98405384678459
 23
119.47286284805274
 33
0.0
  0
DIMENSION
  5
37A
100
AcDbEntity
  8
寸法
370
               5
390
0
  6
Continuous
 62
               7
100
AcDbDimension
  2
*D8
 10
-58.908639999999892
 20
54.0
 30
0.0
 11
-58.938639999999893
 21
58.661119999999997
 31
0.0
 70
             128
 71
               5
 72
               1
 41
1.0
 42
0.0
  3
中谷
100
AcDbAlignedDimension
 13
-40.90864000000002
 23
26.0
 33
0.0
 14
-40.103719999999896
 24
54.0
 34
0.0
 50
90.0
100
AcDbRotatedDimension
1001
ACAD
1000
DSTYLE
1002
{
1070
             279
1070
               2
1070
             340
1005
3A
1070
               3
1000
φ<>
1070
             174
1070
               0
1070
             147
1040
0.03
1002
}
  0
DIMENSION
  5
37B
100
AcDbEntity
  8
寸法
370
               5
390
0
  6
Continuous
 62
               7
100
AcDbDimension
  2
*D9
 10
-40.000039999999906
 20
178.66111999999998
 30
0.0
 11
-10.000019999999953
 21
178.66111999999998
 31
0.0
 71
               5
 72
               1
 41
1.0
 42
0.0
  3
中谷
100
AcDbAlignedDimension
 13
20.0
 23
130.66111999999993
 33
0.0
 14
-40.000039999999906
 24
54.661119999999983
 34
0.0
100
AcDbRotatedDimension
1001
ACAD
1000
DSTYLE
1002
{
1070
             279
1070
               2
1070
             340
1005
3A
1070
             147
1040
0.03
1002
}
  0
DIMENSION
  5
37C
100
AcDbEntity
  8
寸法
370
               5
390
0
  6
Continuous
 62
               7
100
AcDbDimension
  2
*D10
 10
20.0
 20
158.66112000000001
 30
0.0
 11
31.195068359375
 21
158.69112000000001
 31
0.0
 70
             128
 71
               5
 72
               1
 41
1.0
 42
0.0
  3
中谷
100
AcDbAlignedDimension
 13
40.0
 23
143.54699999999991
 33
0.0
 14
20.0
 24
132.0
 34
0.0
100
AcDbRotatedDimension
1001
ACAD
1000
DSTYLE
1002
{
1070
             279
1070
               2
1070
             340
1005
3A
1070
             147
1040
0.03
1002
}
  0
DIMENSION
  5
37D
100
AcDbEntity
  8
寸法
370
               5
390
0
  6
Continuous
 62
               7
100
AcDbDimension
  2
*D11
 10
40.0
 20
158.66112000000001
 30
0.0
 11
120.0
 21
158.66112000000001
 31
0.0
 71
               5
 72
               1
 41
1.0
 42
0.0
  3
中谷
100
AcDbAlignedDimension
 13
200.0
 23
140.0
 33
0.0
 14
40.0
 24
140.0
 34
0.0
100
AcDbRotatedDimension
1001
ACAD
1000
DSTYLE
1002
{
1070
             279
1070
               2
1070
             340
1005
3A
1070
             147
1040
0.03
1002
}
  0
DIMENSION
  5
37E
100
AcDbEntity
  8
寸法
370
               5
390
0
  6
Continuous
 62
               7
100
AcDbDimension
  2
*D12
 10
20.0
 20
178.66111999999998
 30
0.0
 11
120.0
 21
178.66111999999998
 31
0.0
 71
               5
 72
               1
 41
1.0
 42
0.0
  3
中谷
100
AcDbAlignedDimension
 13
220.0
 23
133.0
 33
0.0
 14
20.0
 24
133.0
 34
0.0
100
AcDbRotatedDimension
1001
ACAD
1000
DSTYLE
1002
{
1070
             279
1070
               2
1070
             340
1005
3A
1070
             147
1040
0.03
1002
}
  0
DIMENSION
  5
37F
100
AcDbEntity
  8
寸法
370
               5
390
0
  6
Continuous
 62
               7
100
AcDbDimension
  2
*D13
 10
200.0
 20
158.66112000000001
 30
0.0
 11
209.2669677734375
 21
158.69112000000001
 31
0.0
 70
             128
 71
               5
 72
               1
 41
1.0
 42
0.0
  3
中谷
100
AcDbAlignedDimension
 13
220.0
 23
132.0
 33
0.0
 14
200.0
 24
142.0
 34
0.0
100
AcDbRotatedDimension
1001
ACAD
1000
DSTYLE
1002
{
1070
             279
1070
               2
1070
             340
1005
3A
1070
             147
1040
0.03
1002
}
  0
DIMENSION
  5
380
100
AcDbEntity
  8
寸法
370
               5
390
0
  6
Continuous
 62
               7
100
AcDbDimension
  2
*D14
 10
220.0
 20
178.66111999999993
 30
0.0
 11
270.0
 21
178.66111999999993
 31
0.0
 71
               5
 72
               1
 41
1.0
 42
0.0
  3
中谷
100
AcDbAlignedDimension
 13
320.0
 23
87.661119999999926
 33
0.0
 14
220.0
 24
133.66111999999993
 34
0.0
100
AcDbRotatedDimension
1001
ACAD
1000
DSTYLE
1002
{
1070
             279
1070
               2
1070
             340
1005
3A
1070
             147
1040
0.03
1002
}
  0
DIMENSION
  5
381
100
AcDbEntity
  8
寸法
370
               5
390
0
  6
Continuous
 62
               7
100
AcDbDimension
  2
*D15
 10
320.0
 20
198.66111999999998
 30
0.0
 11
139.99998000000005
 21
198.66111999999998
 31
0.0
 71
               5
 72
               1
 41
1.0
 42
0.0
  3
中谷
100
AcDbAlignedDimension
 13
-40.000039999999906
 23
53.661119999999983
 33
0.0
 14
320.0
 24
89.0
 34
0.0
100
AcDbRotatedDimension
1001
ACAD
1000
DSTYLE
1002
{
1070
             279
1070
               2
1070
             340
1005
3A
1070
             147
1040
0.03
1002
}
  0
DIMENSION
  5
382
100
AcDbEntity
  8
寸法
370
               5
390
0
  6
Continuous
 62
               7
100
AcDbDimension
  2
*D16
 10
340.19508000000008
 20
140.0
 30
0.0
 11
340.19508000000008
 21
-20.0
 31
0.0
 71
               5
 72
               1
 41
1.0
 42
0.0
  3
中谷
100
AcDbAlignedDimension
 13
212.19508000000005
 23
-180.0
 33
0.0
 14
212.19508000000005
 24
140.0
 34
0.0
 50
90.0
100
AcDbRotatedDimension
1001
ACAD
1000
DSTYLE
1002
{
1070
             279
1070
               2
1070
             340
1005
3A
1070
             147
1040
0.03
1002
}
  0
DIMENSION
  5
383
100
AcDbEntity
  8
寸法
370
               5
390
0
  6
Continuous
 62
               7
100
AcDbDimension
  2
*D17
 10
290.19511999999997
 20
125.0
 30
0.0
 11
290.19511999999997
 21
-20.0
 31
0.0
 71
               5
 72
               1
 41
1.0
 42
0.0
  3
中谷
100
AcDbAlignedDimension
 13
211.99999999999997
 23
-165.0
 33
0.0
 14
211.99999999999997
 24
125.0
 34
0.0
 50
90.0
100
AcDbRotatedDimension
1001
ACAD
1000
DSTYLE
1002
{
1070
             279
1070
               2
1070
             340
1005
3A
1070
             147
1040
0.03
1002
}
  0
DIMENSION
  5
384
100
AcDbEntity
  8
寸法
370
               5
390
0
  6
Continuous
 62
               7
100
AcDbDimension
  2
*D18
 10
-59.804959999999937
 20
-109.58528000000001
 30
0.0
 11
-59.834959999999938
 21
-109.33888000000002
 31
0.0
 70
             128
 71
               5
 72
               1
 41
1.0
 42
0.0
  3
中谷
100
AcDbAlignedDimension
 13
-40.079639999999934
 23
-137.58528000000001
 33
0.0
 14
-40.079639999999934
 24
-109.58528000000001
 34
0.0
 50
90.0
100
AcDbRotatedDimension
1001
ACAD
1000
DSTYLE
1002
{
1070
             279
1070
               2
1070
             340
1005
3A
1070
               3
1000
φ<>
1070
             174
1070
               0
1070
             147
1040
0.03
1002
}
  0
DIMENSION
  5
385
100
AcDbEntity
  8
寸法
370
               5
390
0
  6
Continuous
 62
               7
100
AcDbDimension
  2
*D19
 10
-28.079600000000035
 20
-101.33888000000006
 30
0.0
 11
-19.804880000000033
 21
-101.30888000000006
 31
0.0
 70
             128
 71
               5
 72
               1
 41
1.0
 42
0.0
  3
中谷
100
AcDbAlignedDimension
 13
-24.079600000000035
 23
-123.58528000000001
 33
0.0
 14
-28.079600000000035
 24
-119.53528000000006
 34
0.0
100
AcDbRotatedDimension
1001
ACAD
1000
DSTYLE
1002
{
1070
             279
1070
               2
1070
             340
1005
3A
1070
              73
1070
               1
1070
              74
1070
               1
1070
             174
1070
               0
1070
             147
1040
0.03
1002
}
  0
DIMENSION
  5
386
100
AcDbEntity
  8
寸法
370
               5
390
0
  6
Continuous
 62
               7
100
AcDbDimension
  2
*D20
 10
0.1951200000000632
 20
-119.53528000000006
 30
0.0
 11
0.2251200000000632
 21
-111.53527998249119
 31
0.0
 70
             128
 71
               5
 72
               1
 41
1.0
 42
0.0
  3
中谷
100
AcDbAlignedDimension
 13
-24.678199999999929
 23
-127.63528000000008
 33
0.0
 14
-24.678199999999929
 24
-119.53528000000006
 34
0.0
 50
90.0
100
AcDbRotatedDimension
1001
ACAD
1000
DSTYLE
1002
{
1070
             271
1070
               0
1070
             279
1070
               2
1070
             340
1005
3A
1070
             174
1070
               0
1070
             147
1040
0.03
1002
}
  0
LINE
  5
387
100
AcDbEntity
  8
一般
370
               5
390
0
  6
Continuous
 62
               7
100
AcDbLine
 10
213.19508000000005
 20
-199.33888000000002
 30
0.0
 11
202.09627999999995
 21
-170.33888000000002
 31
0.0
  0
SOLID
  5
388
100
AcDbEntity
  8
一般
370
               5
390
0
 62
               7
100
AcDbTrace
 10
202.09627999999995
 20
-170.33888000000002
 30
0.0
 11
206.84647023128994
 21
-177.12285471046269
 31
0.0
 12
202.81807805787443
 22
-178.58906955353689
 32
0.0
 13
202.81807805787443
 23
-178.58906955353689
 33
0.0
  0
LINE
  5
389
100
AcDbEntity
  8
001
370
               5
390
0
 62
               7
100
AcDbLine
 10
-115.38192000000001
 20
2.8907199999999875
 30
0.0
 11
-98.804919999999953
 21
-18.688200000000165
 31
0.0
  0
SOLID
  5
38A
100
AcDbEntity
  8
001
370
               5
390
0
 62
               7
100
AcDbTrace
 10
-115.38192000000001
 20
2.8907199999999875
 30
0.0
 11
-108.85584823919432
 21
-2.208006064268881
 31
0.0
 12
-112.27953910035647
 22
-4.7879421789975476
 32
0.0
 13
-112.27953910035647
 23
-4.7879421789975476
 33
0.0
  0
LINE
  5
38B
100
AcDbEntity
  8
一般
370
               5
390
0
  6
Continuous
 62
               7
100
AcDbLine
 10
149.50308000000004
 20
-180.33888000000002
 30
0.0
 11
161.19508000000005
 21
-138.89400000000001
 31
0.0
  0
SOLID
  5
38C
100
AcDbEntity
  8
一般
370
               5
390
0
 62
               7
100
AcDbTrace
 10
161.19508000000005
 20
-138.89400000000001
 30
0.0
 11
161.05054433689244
 21
-147.17444259371021
 31
0.0
 12
156.92968714714095
 22
-145.99280580917795
 32
0.0
 13
156.92968714714095
 23
-145.99280580917795
 33
0.0
  0
DIMENSION
  5
38D
100
AcDbEntity
  8
寸法
370
               5
390
0
  6
Continuous
 62
               7
100
AcDbDimension
  2
*D21
 10
-355.99331999999993
 20
198.66111999999998
 30
0.0
 11
-235.99331999999993
 21
198.66111999999998
 31
0.0
 71
               5
 72
               1
 41
1.0
 42
0.0
  3
中谷
100
AcDbAlignedDimension
 13
-115.99331999999995
 23
109.96451999999988
 33
0.0
 14
-355.99331999999993
 24
140.0
 34
0.0
100
AcDbRotatedDimension
1001
ACAD
1000
DSTYLE
1002
{
1070
             279
1070
               2
1070
             340
1005
3A
1070
             147
1040
0.03
1002
}
  0
MTEXT
  5
38E
100
AcDbEntity
  8
一般
390
0
 62
               7
100
AcDbMText
 10
136.5
 20
-116.83587999999997
 30
0.0
 40
7.6012586805555564
 41
20.695080000000008
 71
               4
 72
               1
  1
MAN.
  7
HG創英角ｺﾞｼｯｸUB
 73
               1
 44
0.7828267384257843
  0
LINE
  5
38F
100
AcDbEntity
  8
一般
370
               5
390
0
  6
Continuous
 62
               7
100
AcDbLine
 10
153.19508000000005
 20
-116.33888000000002
 30
0.0
 11
161.19508000000005
 21
-116.33888000000002
 31
0.0
  0
SOLID
  5
390
100
AcDbEntity
  8
一般
370
               5
390
0
 62
               7
100
AcDbTrace
 10
153.19508000000005
 20
-116.33888000000002
 30
0.0
 11
155.99800968750006
 21
-115.31869702500894
 31
0.0
 12
155.99800968750006
 22
-117.35906297499109
 32
0.0
 13
155.99800968750006
 23
-117.35906297499109
 33
0.0
  0
SOLID
  5
391
100
AcDbEntity
  8
一般
370
               5
390
0
 62
               7
100
AcDbTrace
 10
161.19508000000005
 20
-116.33888000000002
 30
0.0
 11
158.39215031250004
 21
-117.35906297499109
 31
0.0
 12
158.39215031250004
 22
-115.31869702500894
 32
0.0
 13
158.39215031250004
 23
-115.31869702500894
 33
0.0
  0
MTEXT
  5
392
100
AcDbEntity
  8
一般
390
0
 62
               7
100
AcDbMText
 10
162.5
 20
-116.83587999999997
 30
0.0
 40
7.6012586805555564
 41
20.695080000000008
 71
               4
 72
               1
  1
AUTO
  7
HG創英角ｺﾞｼｯｸUB
 73
               1
 44
0.7828267384257843
  0
ENDSEC
  0
SECTION
  2
OBJECTS
  0
DICTIONARY
  5
19
100
AcDbDictionary
280
               0
281
               1
  3
ACAD_GROUP
350
1A
  3
ACAD_MLINESTYLE
350
1B
  3
ACAD_LAYOUT
350
1E
  3
ACAD_PLOTSETTINGS
350
22
  3
ACAD_PLOTSTYLENAME
350
1F
  3
ACAD_WIPEOUT_VARS
350
23
  0
DICTIONARY
  5
1A
102
{ACAD_REACTORS
330
19
102
}
100
AcDbDictionary
280
               0
281
               1
  0
DICTIONARY
  5
1B
102
{ACAD_REACTORS
330
19
102
}
100
AcDbDictionary
280
               0
281
               1
  3
Standard
350
1C
  0
MLINESTYLE
  5
1C
102
{ACAD_REACTORS
330
1B
102
}
100
AcDbMlineStyle
  2
Standard
 70
               0
  3

 62
               0
 51
90.0
 52
90.0
 71
               2
 49
0.5
 62
             256
  6
ByLayer
 49
-0.5
 62
             256
  6
ByLayer
  0
ACDBDICTIONARYWDFLT
  5
1F
102
{ACAD_REACTORS
330
19
102
}
100
AcDbDictionary
281
               1
  3
Normal
350
1D
100
AcDbDictionaryWithDefault
340
1D
  0
ACDBPLACEHOLDER
  5
1D
102
{ACAD_REACTORS
330
1F
102
}
  0
LAYOUT
  5
20
102
{ACAD_REACTORS
330
1E
102
}
100
AcDbPlotSettings
  1

  2

  4

  6

 40
0.0
 41
0.0
 42
0.0
 43
0.0
 44
0.0
 45
0.0
 46
0.0
 47
0.0
 48
0.0
 49
0.0
140
0.0
141
0.0
142
1.0
143
1.0
 70
            1024
 72
               0
 73
               0
 74
               0
  7

 75
               0
147
1.0
148
0.0
149
0.0
100
AcDbLayout
  1
Model
 70
               0
 71
               0
 10
0.0
 20
0.0
 11
0.0
 21
0.0
 12
0.0
 22
0.0
 32
0.0
 14
0.0
 24
0.0
 34
0.0
 15
0.0
 25
0.0
 35
0.0
146
0.0
 13
0.0
 23
0.0
 33
0.0
 16
0.0
 26
0.0
 36
0.0
 17
0.0
 27
0.0
 37
0.0
 76
               0
330
A
331
0
345
0
346
0
  0
LAYOUT
  5
21
102
{ACAD_REACTORS
330
1E
102
}
100
AcDbPlotSettings
  1

  2

  4

  6

 40
0.0
 41
0.0
 42
0.0
 43
0.0
 44
0.0
 45
0.0
 46
0.0
 47
0.0
 48
0.0
 49
0.0
140
0.0
141
0.0
142
1.0
143
1.0
 70
               0
 72
               0
 73
               0
 74
               0
  7

 75
               0
147
1.0
148
0.0
149
0.0
100
AcDbLayout
  1
Layout1
 70
               0
 71
               0
 10
0.0
 20
0.0
 11
0.0
 21
0.0
 12
0.0
 22
0.0
 32
0.0
 14
0.0
 24
0.0
 34
0.0
 15
0.0
 25
0.0
 35
0.0
146
0.0
 13
0.0
 23
0.0
 33
0.0
 16
0.0
 26
0.0
 36
0.0
 17
0.0
 27
0.0
 37
0.0
 76
               0
330
B
331
0
345
0
346
0
  0
DICTIONARY
  5
1E
102
{ACAD_REACTORS
330
19
102
}
100
AcDbDictionary
280
               0
281
               1
  3
Layout1
350
21
  3
Model
350
20
  0
DICTIONARY
  5
22
102
{ACAD_REACTORS
330
19
102
}
100
AcDbDictionary
280
               0
281
               1
  0
WIPEOUTVARIABLES
  5
23
100
AcDbWipeoutVariables
 70
               0
  0
ENDSEC
  0
EOF
