  0
SECTION
  2
HEADER
  9
$ACADVER
  1
AC1015
  9
$ACADMAINTVER
 70
               6
  9
$DWGCODEPAGE
  3
ANSI_932
  9
$INSBASE
 10
0.0
 20
0.0
 30
0.0
  9
$EXTMIN
 10
-281.48159999999996
 20
-154.86392000000012
 30
0.0
  9
$EXTMAX
 10
320.122132598902
 20
161.05807999999988
 30
0.0
  9
$LIMMIN
 10
0.0
 20
0.0
  9
$LIMMAX
 10
0.0
 20
0.0
  9
$ORTHOMODE
 70
               0
  9
$REGENMODE
 70
               1
  9
$FILLMODE
 70
               1
  9
$QTEXTMODE
 70
               0
  9
$MIRRTEXT
 70
               1
  9
$LTSCALE
 40
50.799999999999997
  9
$ATTMODE
 70
               1
  9
$TEXTSIZE
 40
0.2
  9
$TRACEWID
 40
1.0
  9
$TEXTSTYLE
  7
Standard
  9
$CLAYER
  8
一般
  9
$CELTYPE
  6
Continuous
  9
$CECOLOR
 62
             256
  9
$CELTSCALE
 40
1.0
  9
$DISPSILH
 70
               0
  9
$DIMSCALE
 40
1.0
  9
$DIMASZ
 40
6.0027343749999993
  9
$DIMEXO
 40
3.9999999999999996
  9
$DIMDLI
 40
7.0
  9
$DIMRND
 40
0.0
  9
$DIMDLE
 40
0.0
  9
$DIMEXE
 40
3.9999999999999996
  9
$DIMTP
 40
0.0
  9
$DIMTM
 40
0.0
  9
$DIMTXT
 40
8.7312499999999993
  9
$DIMCEN
 40
0.0
  9
$DIMTSZ
 40
0.0
  9
$DIMTOL
 70
               0
  9
$DIMLIM
 70
               0
  9
$DIMTIH
 70
               0
  9
$DIMTOH
 70
               0
  9
$DIMSE1
 70
               0
  9
$DIMSE2
 70
               0
  9
$DIMTAD
 70
               1
  9
$DIMZIN
 70
              11
  9
$DIMBLK
  1
VW_FILLEDARROW
  9
$DIMASO
 70
               1
  9
$DIMSHO
 70
               1
  9
$DIMPOST
  1
<>
  9
$DIMAPOST
  1
[]
  9
$DIMALT
 70
               0
  9
$DIMALTD
 70
               2
  9
$DIMALTF
 40
1.0
  9
$DIMLFAC
 40
1.0
  9
$DIMTOFL
 70
               1
  9
$DIMTVP
 40
0.0
  9
$DIMTIX
 70
               1
  9
$DIMSOXD
 70
               0
  9
$DIMSAH
 70
               0
  9
$DIMBLK1
  1

  9
$DIMBLK2
  1

  9
$DIMSTYLE
  2
中谷
  9
$DIMCLRD
 70
               0
  9
$DIMCLRE
 70
               0
  9
$DIMCLRT
 70
               0
  9
$DIMTFAC
 40
1.0
  9
$DIMGAP
 40
0.0099999999627471
  9
$DIMJUST
 70
               0
  9
$DIMSD1
 70
               0
  9
$DIMSD2
 70
               0
  9
$DIMTOLJ
 70
               1
  9
$DIMTZIN
 70
              11
  9
$DIMALTZ
 70
              11
  9
$DIMALTTZ
 70
              11
  9
$DIMUPT
 70
               0
  9
$DIMDEC
 70
               2
  9
$DIMTDEC
 70
               2
  9
$DIMALTU
 70
               2
  9
$DIMALTTD
 70
               2
  9
$DIMTXSTY
  7
ＭＳ Ｐゴシック
  9
$DIMAUNIT
 70
               0
  9
$DIMADEC
 70
               0
  9
$DIMALTRND
 40
0.0
  9
$DIMAZIN
 70
               0
  9
$DIMDSEP
 70
              46
  9
$DIMATFIT
 70
               0
  9
$DIMFRAC
 70
               2
  9
$DIMLDRBLK
  1

  9
$DIMLUNIT
 70
               2
  9
$DIMLWD
 70
              -2
  9
$DIMLWE
 70
              -2
  9
$DIMTMOVE
 70
               0
  9
$LUNITS
 70
               2
  9
$LUPREC
 70
               4
  9
$SKETCHINC
 40
0.1
  9
$FILLETRAD
 40
0.0
  9
$AUNITS
 70
               0
  9
$AUPREC
 70
               0
  9
$MENU
  1
acad
  9
$ELEVATION
 40
0.0
  9
$PELEVATION
 40
0.0
  9
$THICKNESS
 40
0.0
  9
$LIMCHECK
 70
               0
  9
$CHAMFERA
 40
0.0
  9
$CHAMFERB
 40
0.0
  9
$CHAMFERC
 40
0.0
  9
$CHAMFERD
 40
0.0
  9
$SKPOLY
 70
               0
  9
$TDCREATE
 40
2454365.759097222
  9
$TDUCREATE
 40
0.000000000
  9
$TDUPDATE
 40
2454365.759097222
  9
$TDUUPDATE
 40
0.000000000
  9
$TDINDWG
 40
0.0000000000
  9
$TDUSRTIMER
 40
0.0000000000
  9
$USRTIMER
 70
               1
  9
$ANGBASE
 50
0.0
  9
$ANGDIR
 70
               0
  9
$PDMODE
 70
               1
  9
$PDSIZE
 40
-2.0
  9
$PLINEWID
 40
0.0
  9
$SPLFRAME
 70
               0
  9
$SPLINETYPE
 70
               6
  9
$SPLINESEGS
 70
               8
  9
$HANDSEED
  5
346
  9
$SURFTAB1
 70
               6
  9
$SURFTAB2
 70
               6
  9
$SURFTYPE
 70
               6
  9
$SURFU
 70
               6
  9
$SURFV
 70
               6
  9
$UCSBASE
  2

  9
$UCSNAME
  2

  9
$UCSORG
 10
0.0
 20
0.0
 30
0.0
  9
$UCSXDIR
 10
1.0
 20
0.0
 30
0.0
  9
$UCSYDIR
 10
0.0
 20
1.0
 30
0.0
  9
$UCSORTHOREF
  2

  9
$UCSORTHOVIEW
 70
               0
  9
$UCSORGTOP
 10
0.0
 20
0.0
 30
0.0
  9
$UCSORGBOTTOM
 10
0.0
 20
0.0
 30
0.0
  9
$UCSORGLEFT
 10
0.0
 20
0.0
 30
0.0
  9
$UCSORGRIGHT
 10
0.0
 20
0.0
 30
0.0
  9
$UCSORGFRONT
 10
0.0
 20
0.0
 30
0.0
  9
$UCSORGBACK
 10
0.0
 20
0.0
 30
0.0
  9
$PUCSBASE
  2

  9
$PUCSNAME
  2

  9
$PUCSORG
 10
0.0
 20
0.0
 30
0.0
  9
$PUCSXDIR
 10
1.0
 20
0.0
 30
0.0
  9
$PUCSYDIR
 10
0.0
 20
1.0
 30
0.0
  9
$PUCSORTHOREF
  2

  9
$PUCSORTHOVIEW
 70
               0
  9
$PUCSORGTOP
 10
0.0
 20
0.0
 30
0.0
  9
$PUCSORGBOTTOM
 10
0.0
 20
0.0
 30
0.0
  9
$PUCSORGLEFT
 10
0.0
 20
0.0
 30
0.0
  9
$PUCSORGRIGHT
 10
0.0
 20
0.0
 30
0.0
  9
$PUCSORGFRONT
 10
0.0
 20
0.0
 30
0.0
  9
$PUCSORGBACK
 10
0.0
 20
0.0
 30
0.0
  9
$USERI1
 70
               0
  9
$USERI2
 70
               0
  9
$USERI3
 70
               0
  9
$USERI4
 70
               0
  9
$USERI5
 70
               0
  9
$USERR1
 40
0.0
  9
$USERR2
 40
0.0
  9
$USERR3
 40
0.0
  9
$USERR4
 40
0.0
  9
$USERR5
 40
0.0
  9
$WORLDVIEW
 70
               1
  9
$SHADEDGE
 70
               3
  9
$SHADEDIF
 70
              70
  9
$TILEMODE
 70
               1
  9
$MAXACTVP
 70
              64
  9
$PINSBASE
 10
0.0
 20
0.0
 30
0.0
  9
$PLIMCHECK
 70
               0
  9
$PEXTMIN
 10
1.0000000000000000E+20
 20
1.0000000000000000E+20
 30
1.0000000000000000E+20
  9
$PEXTMAX
 10
-1.0000000000000000E+20
 20
-1.0000000000000000E+20
 30
-1.0000000000000000E+20
  9
$PLIMMIN
 10
0.0
 20
0.0
  9
$PLIMMAX
 10
12.0
 20
9.0
  9
$UNITMODE
 70
               0
  9
$VISRETAIN
 70
               0
  9
$PLINEGEN
 70
               1
  9
$PSLTSCALE
 70
               0
  9
$TREEDEPTH
 70
            3020
  9
$CMLSTYLE
  2
Standard
  9
$CMLJUST
 70
               0
  9
$CMLSCALE
 40
1.0
  9
$PROXYGRAPHICS
 70
               0
  9
$MEASUREMENT
 70
               1
  9
$CELWEIGHT
370
               0
  9
$ENDCAPS
280
               0
  9
$JOINSTYLE
280
               0
  9
$LWDISPLAY
290
               1
  9
$INSUNITS
 70
               4
  9
$HYPERLINKBASE
  1

  9
$STYLESHEET
  1

  9
$XEDIT
290
               1
  9
$CEPSNTYPE
380
               0
  9
$PSTYLEMODE
290
               1
  9
$FINGERPRINTGUID
  2

  9
$VERSIONGUID
  2

  9
$EXTNAMES
290
               1
  9
$PSVPSCALE
 40
0.0
  0
ENDSEC
  0
SECTION
  2
CLASSES
  0
CLASS
  1
LWPOLYLINE
  2
AcDbPolyline
  3
AutoCAD 2000
 90
        0
280
               0
281
               1
  0
CLASS
  1
IMAGE
  2
AcDbRasterImage
  3
ISM
 90
      127
280
               0
281
               1
  0
CLASS
  1
OLE2FRAME
  2
AcDbOle2Frame
  3
AutoCAD 2000
 90
        0
280
               0
281
               1
  0
CLASS
  1
HATCH
  2
AcDbHatch
  3
AutoCAD 2000
 90
        0
280
               0
281
               1
  0
CLASS
  1
DICTIONARYVAR
  2
AcDbDictionaryVar
  3
AutoCAD 2000
 90
        0
280
               0
281
               0
  0
CLASS
  1
RASTERVARIABLES
  2
AcDbRasterVariables
  3
ISM
 90
        0
280
               0
281
               0
  0
CLASS
  1
IMAGEDEF
  2
AcDbRasterImageDef
  3
ISM
 90
        0
280
               0
281
               0
  0
CLASS
  1
IMAGEDEF_REACTOR
  2
AcDbRasterImageDefReactor
  3
ISM
 90
        1
280
               0
281
               0
  0
CLASS
  1
IDBUFFER
  2
AcDbIdBuffer
  3
AutoCAD 2000
 90
        0
280
               0
281
               0
  0
CLASS
  1
SPATIAL_FILTER
  2
AcDbSpatialFilter
  3
AutoCAD 2000
 90
        0
280
               0
281
               0
  0
CLASS
  1
XRECORD
  2
AcDbXrecord
  3
AutoCAD 2000
 90
        0
280
               0
281
               0
  0
CLASS
  1
SORTENTSTABLE
  2
AcDbSortentsTable
  3
AutoCAD 2000
 90
        0
280
               0
281
               0
  0
CLASS
  1
LAYER_INDEX
  2
AcDbLayerIndex
  3
AutoCAD 2000
 90
        0
280
               0
281
               0
  0
CLASS
  1
SPATIAL_INDEX
  2
AcDbSpatialIndex
  3
AutoCAD 2000
 90
        0
280
               0
281
               0
  0
CLASS
  1
OBJECT_PTR
  2
CAseDLPNTableRecord
  3
"ASE-LPNTableRecord"
 90
        1
280
               0
281
               0
  0
CLASS
  1
LAYOUT
  2
AcDbLayout
  3
AutoCAD 2000
 90
        0
280
               0
281
               0
  0
CLASS
  1
PLOTSETTINGS
  2
AcDbPlotSettings
  3
AutoCAD 2000
 90
        0
280
               0
281
               0
  0
CLASS
  1
ACDBDICTIONARYWDFLT
  2
AcDbDictionaryWithDefault
  3
AutoCAD 2000
 90
        0
280
               0
281
               0
  0
CLASS
  1
ACDBPLACEHOLDER
  2
AcDbPlaceHolder
  3
AutoCAD 2000
 90
        0
280
               0
281
               0
  0
CLASS
  1
VBA_PROJECT
  2
AcDbVbaProject
  3
acadvba
 90
        0
280
               0
281
               0
  0
CLASS
  1
WIPEOUT
  2
AcDbWipeout
  3
WipeOut|AutoCAD Express Tool|expresstools@autodesk.com
 90
      127
280
               0
281
               1
  0
CLASS
  1
WIPEOUTVARIABLES
  2
AcDbWipeoutVariables
  3
WipeOut|AutoCAD Express Tool|expresstools@autodesk.com
 90
        0
280
               0
281
               0
  0
CLASS
  1
RTEXT
  2
RText
  3
RText|AutoCAD Express Tool|expresstools@autodesk.com
 90
        0
280
               0
281
               1
  0
CLASS
  1
ARCALIGNEDTEXT
  2
AcDbArcAlignedText
  3
ATEXT|AutoCAD Express Tool|expresstools@autodesk.com
 90
        0
280
               0
281
               1
  0
ENDSEC
  0
SECTION
  2
TABLES
  0
TABLE
  2
VPORT
  5
7
100
AcDbSymbolTable
 70
               1
  0
VPORT
  5
15
100
AcDbSymbolTableRecord
100
AcDbViewportTableRecord
  2
*ACTIVE
 70
               0
 10
0.0
 20
0.0
 11
1.0
 21
1.0
 12
19.320266299451021
 22
3.0970799999998917
 13
0.0
 23
0.0
 14
1.0
 24
1.0
 15
0.0
 25
0.0
 16
0.0
 26
0.0
 36
1.0
 17
0.0
 27
0.0
 37
0.0
 40
315.92200000000003
 41
0.688564
 42
50.0
 43
0.0
 44
0.0
 50
0.0
 51
0.0
 71
               0
 72
            2000
 73
               1
 74
               1
 75
               0
 76
               0
 77
               0
 78
               0
281
               0
 65
               0
110
0.0
120
0.0
130
0.0
111
1.0
121
0.0
131
0.0
112
0.0
122
1.0
132
0.0
345
0
346
0
 79
               0
146
0.0
  0
ENDTAB
  0
TABLE
  2
LTYPE
  5
4
100
AcDbSymbolTable
 70
              27
  0
LTYPE
  5
11
100
AcDbSymbolTableRecord
100
AcDbLinetypeTableRecord
  2
ByBlock
 70
              64
  3

 72
              65
 73
               0
 40
0.0
  0
LTYPE
  5
12
100
AcDbSymbolTableRecord
100
AcDbLinetypeTableRecord
  2
ByLayer
 70
              64
  3

 72
              65
 73
               0
 40
0.0
  0
LTYPE
  5
13
100
AcDbSymbolTableRecord
100
AcDbLinetypeTableRecord
  2
Continuous
 70
              64
  3
Solid line
 72
              65
 73
               0
 40
0.0
  0
LTYPE
  5
3E
100
AcDbSymbolTableRecord
100
AcDbLinetypeTableRecord
  2
STYLE_01
 70
               0
  3

 72
              65
 73
               2
 40
0.166656494140625
 49
0.08331298828125
 74
               0
 49
-0.083343505859375
 74
               0
  0
LTYPE
  5
3F
100
AcDbSymbolTableRecord
100
AcDbLinetypeTableRecord
  2
STYLE_02
 70
               0
  3

 72
              65
 73
               2
 40
0.27777099609375
 49
0.194427490234375
 74
               0
 49
-0.083343505859375
 74
               0
  0
LTYPE
  5
40
100
AcDbSymbolTableRecord
100
AcDbLinetypeTableRecord
  2
STYLE_03
 70
               0
  3

 72
              65
 73
               2
 40
0.5
 49
0.416656494140625
 74
               0
 49
-0.083343505859375
 74
               0
  0
LTYPE
  5
41
100
AcDbSymbolTableRecord
100
AcDbLinetypeTableRecord
  2
STYLE_04
 70
               0
  3

 72
              65
 73
               2
 40
0.611083984375
 49
0.52777099609375
 74
               0
 49
-0.08331298828125
 74
               0
  0
LTYPE
  5
42
100
AcDbSymbolTableRecord
100
AcDbLinetypeTableRecord
  2
STYLE_05
 70
               0
  3

 72
              65
 73
               2
 40
0.08331298828125
 49
0.02777099609375
 74
               0
 49
-0.0555419921875
 74
               0
  0
LTYPE
  5
43
100
AcDbSymbolTableRecord
100
AcDbLinetypeTableRecord
  2
STYLE_06
 70
               0
  3

 72
              65
 73
               4
 40
0.3055419921875
 49
0.166656494140625
 74
               0
 49
-0.055572509765625
 74
               0
 49
0.02777099609375
 74
               0
 49
-0.0555419921875
 74
               0
  0
LTYPE
  5
44
100
AcDbSymbolTableRecord
100
AcDbLinetypeTableRecord
  2
STYLE_07
 70
               0
  3

 72
              65
 73
               6
 40
0.75
 49
0.25
 74
               0
 49
-0.08331298828125
 74
               0
 49
0.25
 74
               0
 49
-0.083343505859375
 74
               0
 49
0.02777099609375
 74
               0
 49
-0.055572509765625
 74
               0
  0
LTYPE
  5
45
100
AcDbSymbolTableRecord
100
AcDbLinetypeTableRecord
  2
STYLE_08
 70
               0
  3

 72
              65
 73
               6
 40
0.5
 49
0.25
 74
               0
 49
-0.08331298828125
 74
               0
 49
0.02777099609375
 74
               0
 49
-0.055572509765625
 74
               0
 49
0.02777099609375
 74
               0
 49
-0.055572509765625
 74
               0
  0
LTYPE
  5
46
100
AcDbSymbolTableRecord
100
AcDbLinetypeTableRecord
  2
STYLE_09
 70
               0
  3

 72
              65
 73
               4
 40
0.3055419921875
 49
0.138885498046875
 74
               0
 49
-0.055572509765625
 74
               0
 49
0.0555419921875
 74
               0
 49
-0.0555419921875
 74
               0
  0
LTYPE
  5
47
100
AcDbSymbolTableRecord
100
AcDbLinetypeTableRecord
  2
STYLE_10
 70
               0
  3

 72
              65
 73
               6
 40
2.375
 49
1.5
 74
               0
 49
-0.111114501953125
 74
               0
 49
0.27777099609375
 74
               0
 49
-0.111114501953125
 74
               0
 49
0.25
 74
               0
 49
-0.125
 74
               0
  0
LTYPE
  5
48
100
AcDbSymbolTableRecord
100
AcDbLinetypeTableRecord
  2
STYLE_11
 70
               0
  3

 72
              65
 73
               2
 40
0.403472900390625
 49
0.26898193359375
 74
               0
 49
-0.134490966796875
 74
               0
  0
LTYPE
  5
49
100
AcDbSymbolTableRecord
100
AcDbLinetypeTableRecord
  2
STYLE_12
 70
               0
  3

 72
              65
 73
               2
 40
0.20172119140625
 49
0.134490966796875
 74
               0
 49
-0.067230224609375
 74
               0
  0
LTYPE
  5
4A
100
AcDbSymbolTableRecord
100
AcDbLinetypeTableRecord
  2
STYLE_13
 70
               0
  3

 72
              65
 73
               4
 40
1.075927734375
 49
0.672454833984375
 74
               0
 49
-0.134490966796875
 74
               0
 49
0.134490966796875
 74
               0
 49
-0.134490966796875
 74
               0
  0
LTYPE
  5
4B
100
AcDbSymbolTableRecord
100
AcDbLinetypeTableRecord
  2
STYLE_14
 70
               0
  3

 72
              65
 73
               6
 40
1.34490966796875
 49
0.672454833984375
 74
               0
 49
-0.134490966796875
 74
               0
 49
0.134490966796875
 74
               0
 49
-0.134490966796875
 74
               0
 49
0.134490966796875
 74
               0
 49
-0.134490966796875
 74
               0
  0
LTYPE
  5
4C
100
AcDbSymbolTableRecord
100
AcDbLinetypeTableRecord
  2
STYLE_15
 70
               0
  3

 72
              65
 73
               4
 40
0.5
 49
0.25
 74
               0
 49
-0.083343505859375
 74
               0
 49
0.08331298828125
 74
               0
 49
-0.083343505859375
 74
               0
  0
LTYPE
  5
4D
100
AcDbSymbolTableRecord
100
AcDbLinetypeTableRecord
  2
STYLE_16
 70
               0
  3

 72
              65
 73
               6
 40
0.52777099609375
 49
0.22222900390625
 74
               0
 49
-0.08331298828125
 74
               0
 49
0.0555419921875
 74
               0
 49
-0.055572509765625
 74
               0
 49
0.055572509765625
 74
               0
 49
-0.0555419921875
 74
               0
  0
LTYPE
  5
4E
100
AcDbSymbolTableRecord
100
AcDbLinetypeTableRecord
  2
STYLE_17
 70
               0
  3

 72
              65
 73
               2
 40
0.40191650390625
 49
0.2679443359375
 74
               0
 49
-0.13397216796875
 74
               0
  0
LTYPE
  5
4F
100
AcDbSymbolTableRecord
100
AcDbLinetypeTableRecord
  2
STYLE_18
 70
               0
  3

 72
              65
 73
               4
 40
2.14361572265625
 49
1.33978271484375
 74
               0
 49
-0.2679443359375
 74
               0
 49
0.2679443359375
 74
               0
 49
-0.2679443359375
 74
               0
  0
LTYPE
  5
50
100
AcDbSymbolTableRecord
100
AcDbLinetypeTableRecord
  2
STYLE_19
 70
               0
  3

 72
              65
 73
               2
 40
0.803863525390625
 49
0.535919189453125
 74
               0
 49
-0.2679443359375
 74
               0
  0
LTYPE
  5
51
100
AcDbSymbolTableRecord
100
AcDbLinetypeTableRecord
  2
STYLE_20
 70
               0
  3

 72
              65
 73
               4
 40
2.0
 49
1.5
 74
               0
 49
-0.111114501953125
 74
               0
 49
0.27777099609375
 74
               0
 49
-0.111114501953125
 74
               0
  0
LTYPE
  5
52
100
AcDbSymbolTableRecord
100
AcDbLinetypeTableRecord
  2
STYLE_21
 70
               0
  3

 72
              65
 73
               4
 40
0.52777099609375
 49
0.27777099609375
 74
               0
 49
-0.083343505859375
 74
               0
 49
0.083343505859375
 74
               0
 49
-0.08331298828125
 74
               0
  0
LTYPE
  5
53
100
AcDbSymbolTableRecord
100
AcDbLinetypeTableRecord
  2
STYLE_22
 70
               0
  3

 72
              65
 73
               4
 40
1.27984619140625
 49
0.7999267578125
 74
               0
 49
-0.15997314453125
 74
               0
 49
0.15997314453125
 74
               0
 49
-0.15997314453125
 74
               0
  0
LTYPE
  5
54
100
AcDbSymbolTableRecord
100
AcDbLinetypeTableRecord
  2
STYLE_23
 70
               0
  3

 72
              65
 73
               6
 40
1.59979248046875
 49
0.7999267578125
 74
               0
 49
-0.15997314453125
 74
               0
 49
0.15997314453125
 74
               0
 49
-0.15997314453125
 74
               0
 49
0.15997314453125
 74
               0
 49
-0.15997314453125
 74
               0
  0
LTYPE
  5
55
100
AcDbSymbolTableRecord
100
AcDbLinetypeTableRecord
  2
STYLE_24
 70
               0
  3

 72
              65
 73
               2
 40
0.479949951171875
 49
0.319976806640625
 74
               0
 49
-0.15997314453125
 74
               0
  0
ENDTAB
  0
TABLE
  2
LAYER
  5
2
100
AcDbSymbolTable
 70
               7
  0
LAYER
  5
14
100
AcDbSymbolTableRecord
100
AcDbLayerTableRecord
  2
0
 70
               0
 62
               7
  6
Continuous
290
               1
370
              15
390
1D
  0
LAYER
  5
56
100
AcDbSymbolTableRecord
100
AcDbLayerTableRecord
  2
Defpoints
 70
               0
 62
               7
  6
Continuous
290
               0
370
              -3
390
1D
  0
LAYER
  5
57
100
AcDbSymbolTableRecord
100
AcDbLayerTableRecord
  2
一般
 70
               0
 62
               7
  6
Continuous
290
               1
370
               5
390
1D
  0
LAYER
  5
58
100
AcDbSymbolTableRecord
100
AcDbLayerTableRecord
  2
寸法
 70
               0
 62
               7
  6
Continuous
290
               1
370
               5
390
1D
  0
LAYER
  5
59
100
AcDbSymbolTableRecord
100
AcDbLayerTableRecord
  2
001
 70
               0
 62
               7
  6
Continuous
290
               1
370
              15
390
1D
  0
LAYER
  5
5A
100
AcDbSymbolTableRecord
100
AcDbLayerTableRecord
  2
255
 70
               0
 62
               7
  6
Continuous
290
               1
370
              15
390
1D
  0
LAYER
  5
5B
100
AcDbSymbolTableRecord
100
AcDbLayerTableRecord
  2
003
 70
               0
 62
               7
  6
Continuous
290
               1
370
              15
390
1D
  0
ENDTAB
  0
TABLE
  2
STYLE
  5
3
100
AcDbSymbolTable
 70
               3
  0
STYLE
  5
17
100
AcDbSymbolTableRecord
100
AcDbTextStyleTableRecord
  2
Standard
 70
               0
 40
0.0
 41
1.0
 50
0.0
 71
               0
 42
0.0
  3
txt
  4
BIGFONT.SHX
  0
STYLE
  5
3C
100
AcDbSymbolTableRecord
100
AcDbTextStyleTableRecord
  2
ＭＳ Ｐゴシック
 70
               0
 40
0.0
 41
1.0
 50
0.0
 71
               0
 42
0.0
  3

  4
ＭＳ Ｐゴシック
1001
ACAD
1000
ＭＳ Ｐゴシック
1071
        0
  0
STYLE
  5
3D
100
AcDbSymbolTableRecord
100
AcDbTextStyleTableRecord
  2
ＭＳ Ｐゴシック (bold)
 70
               0
 40
0.0
 41
1.0
 50
0.0
 71
               0
 42
0.0
  3

  4
ＭＳ Ｐゴシック
1001
ACAD
1000
ＭＳ Ｐゴシック
1071
 33554432
  0
ENDTAB
  0
TABLE
  2
VIEW
  5
5
100
AcDbSymbolTable
 70
               0
  0
ENDTAB
  0
TABLE
  2
UCS
  5
6
100
AcDbSymbolTable
 70
               0
  0
ENDTAB
  0
TABLE
  2
APPID
  5
8
100
AcDbSymbolTable
 70
               1
  0
APPID
  5
16
100
AcDbSymbolTableRecord
100
AcDbRegAppTableRecord
  2
ACAD
 70
               0
  0
ENDTAB
  0
TABLE
  2
DIMSTYLE
  5
9
100
AcDbSymbolTable
 70
               2
100
AcDbDimStyleTable
 71
               0
  0
DIMSTYLE
105
18
100
AcDbSymbolTableRecord
100
AcDbDimStyleTableRecord
  2
Standard
 70
               0
  3

  4

 40
1.0
 41
0.18
 42
0.0625
 43
0.38
 44
0.18
 45
0.0
 46
0.0
 47
0.0
 48
0.0
 71
               0
 72
               0
 73
               1
 74
               1
 75
               0
 76
               0
 77
               0
 78
               0
 79
               0
140
0.18
141
0.09
142
0.0
143
25.399999999999999
144
1.0
145
0.0
146
1.0
147
0.09
148
0.0
170
               0
171
               2
172
               0
173
               0
174
               0
175
               0
176
               0
177
               0
178
               0
179
               0
271
               4
272
               4
273
               2
274
               2
275
               0
276
               0
277
               2
278
              46
279
               0
280
               0
281
               0
282
               0
283
               1
284
               0
285
               0
286
               0
288
               0
289
               3
340
17
341
0
342
0
343
0
344
0
371
              -2
372
              -2
  0
DIMSTYLE
105
60
100
AcDbSymbolTableRecord
100
AcDbDimStyleTableRecord
  2
中谷
 70
               0
  3
<>
  4
[]
 40
1.0
 41
6.0027343749999993
 42
3.9999999999999996
 43
7.0
 44
3.9999999999999996
 45
0.0
 46
0.0
 47
0.0
 48
0.0
 71
               0
 72
               0
 73
               0
 74
               0
 75
               0
 76
               0
 77
               1
 78
              11
 79
               0
140
8.7312499999999993
141
0.0
142
0.0
143
1.0
144
1.0
145
0.0
146
1.0
147
0.0099999999627471
148
0.0
170
               0
171
               2
172
               1
173
               0
174
               1
175
               0
176
               0
177
               0
178
               0
179
               0
271
               2
272
               2
273
               2
274
               2
275
               0
276
               2
277
               2
278
              46
279
               0
280
               0
281
               0
282
               0
283
               1
284
              11
285
              11
286
              11
288
               0
289
               0
340
3C
341
5C
342
5C
343
0
344
0
371
              -2
372
              -2
  0
ENDTAB
  0
TABLE
  2
BLOCK_RECORD
  5
1
100
AcDbSymbolTable
 70
              25
  0
BLOCK_RECORD
  5
A
100
AcDbSymbolTableRecord
100
AcDbBlockTableRecord
  2
*MODEL_SPACE
340
20
  0
BLOCK_RECORD
  5
B
100
AcDbSymbolTableRecord
100
AcDbBlockTableRecord
  2
*PAPER_SPACE
340
21
  0
BLOCK_RECORD
  5
5C
100
AcDbSymbolTableRecord
100
AcDbBlockTableRecord
  2
VW_FILLEDARROW
340
0
  0
BLOCK_RECORD
  5
24
100
AcDbSymbolTableRecord
100
AcDbBlockTableRecord
  2
*D1
340
0
  0
BLOCK_RECORD
  5
25
100
AcDbSymbolTableRecord
100
AcDbBlockTableRecord
  2
*D2
340
0
  0
BLOCK_RECORD
  5
26
100
AcDbSymbolTableRecord
100
AcDbBlockTableRecord
  2
*D3
340
0
  0
BLOCK_RECORD
  5
27
100
AcDbSymbolTableRecord
100
AcDbBlockTableRecord
  2
*D4
340
0
  0
BLOCK_RECORD
  5
28
100
AcDbSymbolTableRecord
100
AcDbBlockTableRecord
  2
*D5
340
0
  0
BLOCK_RECORD
  5
29
100
AcDbSymbolTableRecord
100
AcDbBlockTableRecord
  2
*D6
340
0
  0
BLOCK_RECORD
  5
2A
100
AcDbSymbolTableRecord
100
AcDbBlockTableRecord
  2
*D7
340
0
  0
BLOCK_RECORD
  5
2B
100
AcDbSymbolTableRecord
100
AcDbBlockTableRecord
  2
*D8
340
0
  0
BLOCK_RECORD
  5
2C
100
AcDbSymbolTableRecord
100
AcDbBlockTableRecord
  2
*D9
340
0
  0
BLOCK_RECORD
  5
2D
100
AcDbSymbolTableRecord
100
AcDbBlockTableRecord
  2
*D10
340
0
  0
BLOCK_RECORD
  5
2E
100
AcDbSymbolTableRecord
100
AcDbBlockTableRecord
  2
*D11
340
0
  0
BLOCK_RECORD
  5
2F
100
AcDbSymbolTableRecord
100
AcDbBlockTableRecord
  2
*D12
340
0
  0
BLOCK_RECORD
  5
30
100
AcDbSymbolTableRecord
100
AcDbBlockTableRecord
  2
*D13
340
0
  0
BLOCK_RECORD
  5
31
100
AcDbSymbolTableRecord
100
AcDbBlockTableRecord
  2
*D14
340
0
  0
BLOCK_RECORD
  5
32
100
AcDbSymbolTableRecord
100
AcDbBlockTableRecord
  2
*D15
340
0
  0
BLOCK_RECORD
  5
33
100
AcDbSymbolTableRecord
100
AcDbBlockTableRecord
  2
*D16
340
0
  0
BLOCK_RECORD
  5
34
100
AcDbSymbolTableRecord
100
AcDbBlockTableRecord
  2
*D17
340
0
  0
BLOCK_RECORD
  5
35
100
AcDbSymbolTableRecord
100
AcDbBlockTableRecord
  2
*D18
340
0
  0
BLOCK_RECORD
  5
36
100
AcDbSymbolTableRecord
100
AcDbBlockTableRecord
  2
*D19
340
0
  0
BLOCK_RECORD
  5
37
100
AcDbSymbolTableRecord
100
AcDbBlockTableRecord
  2
*D20
340
0
  0
BLOCK_RECORD
  5
38
100
AcDbSymbolTableRecord
100
AcDbBlockTableRecord
  2
*D21
340
0
  0
BLOCK_RECORD
  5
39
100
AcDbSymbolTableRecord
100
AcDbBlockTableRecord
  2
*D22
340
0
  0
BLOCK_RECORD
  5
3A
100
AcDbSymbolTableRecord
100
AcDbBlockTableRecord
  2
*D23
340
0
  0
BLOCK_RECORD
  5
3B
100
AcDbSymbolTableRecord
100
AcDbBlockTableRecord
  2
*D24
340
0
  0
ENDTAB
  0
ENDSEC
  0
SECTION
  2
BLOCKS
  0
BLOCK
  5
D
100
AcDbEntity
  8
0
390
0
100
AcDbBlockBegin
  2
*MODEL_SPACE
 70
               0
 10
0.0
 20
0.0
 30
0.0
  3
*MODEL_SPACE
  1

  0
ENDBLK
  5
E
100
AcDbEntity
  8
0
390
0
100
AcDbBlockEnd
  0
BLOCK
  5
F
100
AcDbEntity
 67
               1
  8
0
390
0
100
AcDbBlockBegin
  2
*PAPER_SPACE
 70
               0
 10
0.0
 20
0.0
 30
0.0
  3
*PAPER_SPACE
  1

  0
ENDBLK
  5
10
100
AcDbEntity
 67
               1
  8
0
390
0
100
AcDbBlockEnd
  0
BLOCK
  5
5D
100
AcDbEntity
  8
0
370
              -2
390
0
  6
ByBlock
 62
               0
100
AcDbBlockBegin
  2
VW_FILLEDARROW
 70
               0
 10
0.0
 20
0.0
 30
0.0
  3
VW_FILLEDARROW
  1

  0
SOLID
  5
5E
100
AcDbEntity
  8
0
370
              -2
390
0
 62
               0
100
AcDbTrace
 10
0.0
 20
0.0
 30
0.0
 11
-0.998388671875
 21
-0.2122140633040501
 31
0.0
 12
-0.998388671875
 22
0.2122140633040499
 32
0.0
 13
-0.998388671875
 23
0.2122140633040499
 33
0.0
  0
ENDBLK
  5
5F
100
AcDbEntity
  8
0
390
0
100
AcDbBlockEnd
  0
BLOCK
  5
61
100
AcDbEntity
  8
寸法
390
0
100
AcDbBlockBegin
  2
*D1
 70
               1
 10
0.0
 20
0.0
 30
0.0
  3
*D1
  1

  0
LINE
  5
62
100
AcDbEntity
  8
寸法
370
              -2
390
0
  6
Continuous
 62
               0
100
AcDbLine
 10
-206.83040000000003
 20
62.130679999999813
 30
0.0
 11
-206.83040000000003
 21
89.0
 31
0.0
  0
LINE
  5
63
100
AcDbEntity
  8
寸法
370
              -2
390
0
  6
Continuous
 62
               0
100
AcDbLine
 10
-76.763799999999918
 20
62.130679999999813
 30
0.0
 11
-76.763799999999918
 21
89.0
 31
0.0
  0
LINE
  5
64
100
AcDbEntity
  8
寸法
370
              -2
390
0
  6
Continuous
 62
               0
100
AcDbLine
 10
-206.83040000000003
 20
85.0
 30
0.0
 11
-76.763799999999918
 21
85.0
 31
0.0
  0
SOLID
  5
65
100
AcDbEntity
  8
寸法
370
              -2
390
0
 62
               0
100
AcDbTrace
 10
-206.83040000000003
 20
85.0
 30
0.0
 11
-200.82766562500004
 21
86.275920579368446
 31
0.0
 12
-200.82766562500004
 22
83.724079420631554
 32
0.0
 13
-200.82766562500004
 23
83.724079420631554
 33
0.0
  0
SOLID
  5
66
100
AcDbEntity
  8
寸法
370
              -2
390
0
 62
               0
100
AcDbTrace
 10
-76.763799999999918
 20
85.0
 30
0.0
 11
-82.766534374999921
 21
83.724079420631554
 31
0.0
 12
-82.766534374999921
 22
86.275920579368446
 32
0.0
 13
-82.766534374999921
 23
86.275920579368446
 33
0.0
  0
MTEXT
  5
67
100
AcDbEntity
  8
寸法
390
0
 62
               0
100
AcDbMText
 10
-152.00680796351961
 20
95.561370000000011
 30
0.0
 40
8.7312499999999993
 41
0.0
 71
               1
 72
               1
  1
130
  7
ＭＳ Ｐゴシック
 73
               1
 44
0.8762322015334064
  0
POINT
  5
68
100
AcDbEntity
  8
Defpoints
370
               0
390
0
 62
               0
100
AcDbPoint
 10
-76.763799999999918
 20
58.130679999999813
 30
0.0
  0
POINT
  5
69
100
AcDbEntity
  8
Defpoints
370
               0
390
0
 62
               0
100
AcDbPoint
 10
-206.83040000000003
 20
58.130679999999813
 30
0.0
  0
POINT
  5
6A
100
AcDbEntity
  8
Defpoints
370
               0
390
0
 62
               0
100
AcDbPoint
 10
-206.83040000000003
 20
85.0
 30
0.0
  0
ENDBLK
  5
6B
100
AcDbEntity
  8
寸法
390
0
100
AcDbBlockEnd
  0
BLOCK
  5
6C
100
AcDbEntity
  8
寸法
390
0
100
AcDbBlockBegin
  2
*D2
 70
               1
 10
0.0
 20
0.0
 30
0.0
  3
*D2
  1

  0
LINE
  5
6D
100
AcDbEntity
  8
寸法
370
              -2
390
0
  6
Continuous
 62
               0
100
AcDbLine
 10
-137.79712000000004
 20
79.561199999999872
 30
0.0
 11
-104.48160000000004
 21
79.561199999999872
 31
0.0
  0
LINE
  5
6E
100
AcDbEntity
  8
寸法
370
              -2
390
0
  6
Continuous
 62
               0
100
AcDbLine
 10
-106.48159999999993
 20
-40.0
 30
0.0
 11
-104.48160000000004
 21
-40.0
 31
0.0
  0
LINE
  5
6F
100
AcDbEntity
  8
寸法
370
              -2
390
0
  6
Continuous
 62
               0
100
AcDbLine
 10
-108.48160000000004
 20
79.561199999999872
 30
0.0
 11
-108.48160000000004
 21
-40.0
 31
0.0
  0
SOLID
  5
70
100
AcDbEntity
  8
寸法
370
              -2
390
0
 62
               0
100
AcDbTrace
 10
-108.48160000000004
 20
79.561199999999872
 30
0.0
 11
-107.2056794206316
 21
73.558465624999869
 31
0.0
 12
-109.75752057936849
 22
73.558465624999869
 32
0.0
 13
-109.75752057936849
 23
73.558465624999869
 33
0.0
  0
SOLID
  5
71
100
AcDbEntity
  8
寸法
370
              -2
390
0
 62
               0
100
AcDbTrace
 10
-108.48160000000004
 20
-40.0
 30
0.0
 11
-109.75752057936849
 21
-33.997265624999997
 31
0.0
 12
-107.2056794206316
 22
-33.997265624999997
 32
0.0
 13
-107.2056794206316
 23
-33.997265624999997
 33
0.0
  0
MTEXT
  5
72
100
AcDbEntity
  8
寸法
390
0
 62
               0
100
AcDbMText
 10
-119.02085000000004
 20
1.6117857651180092
 30
0.0
 40
8.7312499999999993
 41
0.0
 71
               1
 72
               1
  1
120
  7
ＭＳ Ｐゴシック
 11
0.0
 21
1.0
 31
0.0
 73
               1
 44
0.8762322015334064
  0
POINT
  5
73
100
AcDbEntity
  8
Defpoints
370
               0
390
0
 62
               0
100
AcDbPoint
 10
-110.48159999999993
 20
-40.0
 30
0.0
  0
POINT
  5
74
100
AcDbEntity
  8
Defpoints
370
               0
390
0
 62
               0
100
AcDbPoint
 10
-141.79712000000004
 20
79.561199999999872
 30
0.0
  0
POINT
  5
75
100
AcDbEntity
  8
Defpoints
370
               0
390
0
 62
               0
100
AcDbPoint
 10
-108.48160000000004
 20
79.561199999999872
 30
0.0
  0
ENDBLK
  5
76
100
AcDbEntity
  8
寸法
390
0
100
AcDbBlockEnd
  0
BLOCK
  5
77
100
AcDbEntity
  8
寸法
390
0
100
AcDbBlockBegin
  2
*D3
 70
               1
 10
0.0
 20
0.0
 30
0.0
  3
*D3
  1

  0
LINE
  5
78
100
AcDbEntity
  8
寸法
370
              -2
390
0
  6
Continuous
 62
               0
100
AcDbLine
 10
-214.3342000000001
 20
-124.86392000000012
 30
0.0
 11
-214.3342000000001
 21
-134.86392000000012
 31
0.0
  0
LINE
  5
79
100
AcDbEntity
  8
寸法
370
              -2
390
0
  6
Continuous
 62
               0
100
AcDbLine
 10
-69.26000000000019
 20
-124.86392000000012
 30
0.0
 11
-69.26000000000019
 21
-134.86392000000012
 31
0.0
  0
LINE
  5
7A
100
AcDbEntity
  8
寸法
370
              -2
390
0
  6
Continuous
 62
               0
100
AcDbLine
 10
-214.3342000000001
 20
-130.86392000000012
 30
0.0
 11
-69.26000000000019
 21
-130.86392000000012
 31
0.0
  0
SOLID
  5
7B
100
AcDbEntity
  8
寸法
370
              -2
390
0
 62
               0
100
AcDbTrace
 10
-214.3342000000001
 20
-130.86392000000012
 30
0.0
 11
-208.33146562500011
 21
-129.58799942063166
 31
0.0
 12
-208.33146562500011
 22
-132.13984057936858
 32
0.0
 13
-208.33146562500011
 23
-132.13984057936858
 33
0.0
  0
SOLID
  5
7C
100
AcDbEntity
  8
寸法
370
              -2
390
0
 62
               0
100
AcDbTrace
 10
-69.26000000000019
 20
-130.86392000000012
 30
0.0
 11
-75.262734375000193
 21
-132.13984057936858
 31
0.0
 12
-75.262734375000193
 22
-129.58799942063166
 32
0.0
 13
-75.262734375000193
 23
-129.58799942063166
 33
0.0
  0
MTEXT
  5
7D
100
AcDbEntity
  8
寸法
390
0
 62
               0
100
AcDbMText
 10
-151.32210067287036
 20
-120.32467000000011
 30
0.0
 40
8.7312499999999993
 41
0.0
 71
               1
 72
               1
  1
145
  7
ＭＳ Ｐゴシック
 73
               1
 44
0.8762322015334064
  0
POINT
  5
7E
100
AcDbEntity
  8
Defpoints
370
               0
390
0
 62
               0
100
AcDbPoint
 10
-69.26000000000019
 20
-120.86392000000012
 30
0.0
  0
POINT
  5
7F
100
AcDbEntity
  8
Defpoints
370
               0
390
0
 62
               0
100
AcDbPoint
 10
-214.3342000000001
 20
-120.86392000000012
 30
0.0
  0
POINT
  5
80
100
AcDbEntity
  8
Defpoints
370
               0
390
0
 62
               0
100
AcDbPoint
 10
-214.3342000000001
 20
-130.86392000000012
 30
0.0
  0
ENDBLK
  5
81
100
AcDbEntity
  8
寸法
390
0
100
AcDbBlockEnd
  0
BLOCK
  5
82
100
AcDbEntity
  8
寸法
390
0
100
AcDbBlockBegin
  2
*D4
 70
               1
 10
0.0
 20
0.0
 30
0.0
  3
*D4
  1

  0
LINE
  5
83
100
AcDbEntity
  8
寸法
370
              -2
390
0
  6
Continuous
 62
               0
100
AcDbLine
 10
-224.33932000000024
 20
-118.0379200000001
 30
0.0
 11
-224.33932000000024
 21
-154.86392000000009
 31
0.0
  0
LINE
  5
84
100
AcDbEntity
  8
寸法
370
              -2
390
0
  6
Continuous
 62
               0
100
AcDbLine
 10
-59.254800000000245
 20
-118.0379200000001
 30
0.0
 11
-59.254800000000245
 21
-154.86392000000009
 31
0.0
  0
LINE
  5
85
100
AcDbEntity
  8
寸法
370
              -2
390
0
  6
Continuous
 62
               0
100
AcDbLine
 10
-224.33932000000024
 20
-150.86392000000009
 30
0.0
 11
-59.254800000000245
 21
-150.86392000000009
 31
0.0
  0
SOLID
  5
86
100
AcDbEntity
  8
寸法
370
              -2
390
0
 62
               0
100
AcDbTrace
 10
-224.33932000000024
 20
-150.86392000000009
 30
0.0
 11
-218.33658562500025
 21
-149.58799942063163
 31
0.0
 12
-218.33658562500025
 22
-152.13984057936855
 32
0.0
 13
-218.33658562500025
 23
-152.13984057936855
 33
0.0
  0
SOLID
  5
87
100
AcDbEntity
  8
寸法
370
              -2
390
0
 62
               0
100
AcDbTrace
 10
-59.254800000000245
 20
-150.86392000000009
 30
0.0
 11
-65.257534375000247
 21
-152.13984057936855
 31
0.0
 12
-65.257534375000247
 22
-149.58799942063163
 32
0.0
 13
-65.257534375000247
 23
-149.58799942063163
 33
0.0
  0
MTEXT
  5
88
100
AcDbEntity
  8
寸法
390
0
 62
               0
100
AcDbMText
 10
-151.32206067287046
 20
-140.32467000000011
 30
0.0
 40
8.7312499999999993
 41
0.0
 71
               1
 72
               1
  1
165
  7
ＭＳ Ｐゴシック
 73
               1
 44
0.8762322015334064
  0
POINT
  5
89
100
AcDbEntity
  8
Defpoints
370
               0
390
0
 62
               0
100
AcDbPoint
 10
-59.254800000000245
 20
-114.0379200000001
 30
0.0
  0
POINT
  5
8A
100
AcDbEntity
  8
Defpoints
370
               0
390
0
 62
               0
100
AcDbPoint
 10
-224.33932000000024
 20
-114.0379200000001
 30
0.0
  0
POINT
  5
8B
100
AcDbEntity
  8
Defpoints
370
               0
390
0
 62
               0
100
AcDbPoint
 10
-224.33932000000024
 20
-150.86392000000009
 30
0.0
  0
ENDBLK
  5
8C
100
AcDbEntity
  8
寸法
390
0
100
AcDbBlockEnd
  0
BLOCK
  5
8D
100
AcDbEntity
  8
寸法
390
0
100
AcDbBlockBegin
  2
*D5
 70
               1
 10
0.0
 20
0.0
 30
0.0
  3
*D5
  1

  0
LINE
  5
8E
100
AcDbEntity
  8
寸法
370
              -2
390
0
  6
Continuous
 62
               0
100
AcDbLine
 10
-68.608713112275296
 20
-112.75006721507964
 30
0.0
 11
-43.481599999999844
 21
-144.62500052960985
 31
0.0
  0
SOLID
  5
8F
100
AcDbEntity
  8
寸法
370
              -2
390
0
 62
               0
100
AcDbTrace
 10
-68.608713112275296
 20
-112.75006721507964
 30
0.0
 11
-63.907621673684297
 21
-116.69475130733201
 31
0.0
 12
-65.918499948265207
 22
-118.26582159991671
 32
0.0
 13
-65.918499948265207
 23
-118.26582159991671
 33
0.0
  0
LINE
  5
90
100
AcDbEntity
  8
寸法
370
              -2
390
0
  6
Continuous
 62
               0
100
AcDbLine
 10
-43.481599999999844
 20
-144.62500052960985
 30
0.0
 11
-39.481599999999844
 21
-144.62500052960985
 31
0.0
  0
MTEXT
  5
91
100
AcDbEntity
  8
寸法
390
0
 62
               0
100
AcDbMText
 10
-39.481599999999844
 20
-140.46575052960986
 30
0.0
 40
8.7312499999999993
 41
0.0
 71
               1
 72
               1
  1
4-φ7取付穴
  7
ＭＳ Ｐゴシック
 73
               1
 44
0.8762322015334064
  0
POINT
  5
92
100
AcDbEntity
  8
Defpoints
370
               0
390
0
 62
               0
100
AcDbPoint
 10
-72.944486887725333
 20
-107.24993278491934
 30
0.0
  0
POINT
  5
93
100
AcDbEntity
  8
Defpoints
370
               0
390
0
 62
               0
100
AcDbPoint
 10
-68.608713112275296
 20
-112.75006721507964
 30
0.0
  0
ENDBLK
  5
94
100
AcDbEntity
  8
寸法
390
0
100
AcDbBlockEnd
  0
BLOCK
  5
95
100
AcDbEntity
  8
寸法
390
0
100
AcDbBlockBegin
  2
*D6
 70
               1
 10
0.0
 20
0.0
 30
0.0
  3
*D6
  1

  0
LINE
  5
96
100
AcDbEntity
  8
寸法
370
              -2
390
0
  6
Continuous
 62
               0
100
AcDbLine
 10
-55.254800000000245
 20
-114.0379200000001
 30
0.0
 11
-48.481600000000242
 21
-114.0379200000001
 31
0.0
  0
LINE
  5
97
100
AcDbEntity
  8
寸法
370
              -2
390
0
  6
Continuous
 62
               0
100
AcDbLine
 10
-55.254800000000245
 20
-111.7366
 30
0.0
 11
-48.481600000000242
 21
-111.7366
 31
0.0
  0
LINE
  5
98
100
AcDbEntity
  8
寸法
370
              -2
390
0
  6
Continuous
 62
               0
100
AcDbLine
 10
-52.481600000000242
 20
-111.7366
 30
0.0
 11
-52.481600000000242
 21
-114.0379200000001
 31
0.0
  0
LINE
  5
99
100
AcDbEntity
  8
寸法
370
              -2
390
0
  6
Continuous
 62
               0
100
AcDbLine
 10
-52.481600000000242
 20
-114.0379200000001
 30
0.0
 11
-52.481600000000242
 21
-122.0379200000001
 31
0.0
  0
SOLID
  5
9A
100
AcDbEntity
  8
寸法
370
              -2
390
0
 62
               0
100
AcDbTrace
 10
-52.481600000000242
 20
-114.0379200000001
 30
0.0
 11
-51.205679420631789
 21
-120.0406543750001
 31
0.0
 12
-53.757520579368695
 22
-120.0406543750001
 32
0.0
 13
-53.757520579368695
 23
-120.0406543750001
 33
0.0
  0
LINE
  5
9B
100
AcDbEntity
  8
寸法
370
              -2
390
0
  6
Continuous
 62
               0
100
AcDbLine
 10
-52.481600000000242
 20
-111.7366
 30
0.0
 11
-52.481600000000242
 21
-89.043399730851917
 31
0.0
  0
SOLID
  5
9C
100
AcDbEntity
  8
寸法
370
              -2
390
0
 62
               0
100
AcDbTrace
 10
-52.481600000000242
 20
-111.7366
 30
0.0
 11
-53.757520579368688
 21
-105.73386562499999
 31
0.0
 12
-51.205679420631789
 22
-105.73386562499999
 32
0.0
 13
-51.205679420631789
 23
-105.73386562499999
 33
0.0
  0
MTEXT
  5
9D
100
AcDbEntity
  8
寸法
390
0
 62
               0
100
AcDbMText
 10
-63.020850000000237
 20
-104.2834
 30
0.0
 40
8.7312499999999993
 41
0.0
 71
               1
 72
               1
  1
2.3
  7
ＭＳ Ｐゴシック
 11
0.0
 21
1.0
 31
0.0
 73
               1
 44
0.8762322015334064
  0
POINT
  5
9E
100
AcDbEntity
  8
Defpoints
370
               0
390
0
 62
               0
100
AcDbPoint
 10
-59.254800000000245
 20
-111.7366
 30
0.0
  0
POINT
  5
9F
100
AcDbEntity
  8
Defpoints
370
               0
390
0
 62
               0
100
AcDbPoint
 10
-59.254800000000245
 20
-114.0379200000001
 30
0.0
  0
POINT
  5
A0
100
AcDbEntity
  8
Defpoints
370
               0
390
0
 62
               0
100
AcDbPoint
 10
-52.481600000000242
 20
-114.0379200000001
 30
0.0
  0
ENDBLK
  5
A1
100
AcDbEntity
  8
寸法
390
0
100
AcDbBlockEnd
  0
BLOCK
  5
A2
100
AcDbEntity
  8
寸法
390
0
100
AcDbBlockBegin
  2
*D7
 70
               1
 10
0.0
 20
0.0
 30
0.0
  3
*D7
  1

  0
LINE
  5
A3
100
AcDbEntity
  8
寸法
370
              -2
390
0
  6
Continuous
 62
               0
100
AcDbLine
 10
-55.254800000000245
 20
-114.0379200000001
 30
0.0
 11
-31.481599999999883
 21
-114.0379200000001
 31
0.0
  0
LINE
  5
A4
100
AcDbEntity
  8
寸法
370
              -2
390
0
  6
Continuous
 62
               0
100
AcDbLine
 10
-72.763799999999918
 20
-40.0
 30
0.0
 11
-31.481599999999887
 21
-40.0
 31
0.0
  0
LINE
  5
A5
100
AcDbEntity
  8
寸法
370
              -2
390
0
  6
Continuous
 62
               0
100
AcDbLine
 10
-35.481599999999887
 20
-114.0379200000001
 30
0.0
 11
-35.481599999999887
 21
-40.0
 31
0.0
  0
SOLID
  5
A6
100
AcDbEntity
  8
寸法
370
              -2
390
0
 62
               0
100
AcDbTrace
 10
-35.481599999999887
 20
-114.0379200000001
 30
0.0
 11
-36.757520579368332
 21
-108.0351856250001
 31
0.0
 12
-34.205679420631434
 22
-108.0351856250001
 32
0.0
 13
-34.205679420631434
 23
-108.0351856250001
 33
0.0
  0
SOLID
  5
A7
100
AcDbEntity
  8
寸法
370
              -2
390
0
 62
               0
100
AcDbTrace
 10
-35.481599999999887
 20
-40.0
 30
0.0
 11
-34.205679420631434
 21
-46.002734375000003
 31
0.0
 12
-36.757520579368339
 22
-46.002734374999996
 32
0.0
 13
-36.757520579368339
 23
-46.002734374999996
 33
0.0
  0
MTEXT
  5
A8
100
AcDbEntity
  8
寸法
390
0
 62
               0
100
AcDbMText
 10
-46.020849999999896
 20
-81.213437060546909
 30
0.0
 40
8.7312499999999993
 41
0.0
 71
               1
 72
               1
  1
74
  7
ＭＳ Ｐゴシック
 11
0.0
 21
1.0
 31
0.0
 73
               1
 44
0.8762322015334064
  0
POINT
  5
A9
100
AcDbEntity
  8
Defpoints
370
               0
390
0
 62
               0
100
AcDbPoint
 10
-76.763799999999918
 20
-40.0
 30
0.0
  0
POINT
  5
AA
100
AcDbEntity
  8
Defpoints
370
               0
390
0
 62
               0
100
AcDbPoint
 10
-59.254800000000245
 20
-114.0379200000001
 30
0.0
  0
POINT
  5
AB
100
AcDbEntity
  8
Defpoints
370
               0
390
0
 62
               0
100
AcDbPoint
 10
-35.481599999999887
 20
-114.0379200000001
 30
0.0
  0
ENDBLK
  5
AC
100
AcDbEntity
  8
寸法
390
0
100
AcDbBlockEnd
  0
BLOCK
  5
AD
100
AcDbEntity
  8
寸法
390
0
100
AcDbBlockBegin
  2
*D8
 70
               1
 10
0.0
 20
0.0
 30
0.0
  3
*D8
  1

  0
LINE
  5
AE
100
AcDbEntity
  8
寸法
370
              -2
390
0
  6
Continuous
 62
               0
100
AcDbLine
 10
-55.254800000000245
 20
-114.0379200000001
 30
0.0
 11
-11.481599999999879
 21
-114.0379200000001
 31
0.0
  0
LINE
  5
AF
100
AcDbEntity
  8
寸法
370
              -2
390
0
  6
Continuous
 62
               0
100
AcDbLine
 10
-75.465200000000181
 20
60.051199999999881
 30
0.0
 11
-11.481599999999879
 21
60.051199999999881
 31
0.0
  0
LINE
  5
B0
100
AcDbEntity
  8
寸法
370
              -2
390
0
  6
Continuous
 62
               0
100
AcDbLine
 10
-15.481599999999879
 20
-114.0379200000001
 30
0.0
 11
-15.481599999999879
 21
60.051199999999881
 31
0.0
  0
SOLID
  5
B1
100
AcDbEntity
  8
寸法
370
              -2
390
0
 62
               0
100
AcDbTrace
 10
-15.481599999999879
 20
-114.0379200000001
 30
0.0
 11
-16.757520579368329
 21
-108.0351856250001
 31
0.0
 12
-14.20567942063143
 22
-108.0351856250001
 32
0.0
 13
-14.20567942063143
 23
-108.0351856250001
 33
0.0
  0
SOLID
  5
B2
100
AcDbEntity
  8
寸法
370
              -2
390
0
 62
               0
100
AcDbTrace
 10
-15.481599999999879
 20
60.051199999999881
 30
0.0
 11
-14.20567942063143
 21
54.048465624999878
 31
0.0
 12
-16.757520579368332
 22
54.048465624999885
 32
0.0
 13
-16.757520579368332
 23
54.048465624999885
 33
0.0
  0
MTEXT
  5
B3
100
AcDbEntity
  8
寸法
390
0
 62
               0
100
AcDbMText
 10
-26.020849999999879
 20
-34.387936566425005
 30
0.0
 40
8.7312499999999993
 41
0.0
 71
               1
 72
               1
  1
174
  7
ＭＳ Ｐゴシック
 11
0.0
 21
1.0
 31
0.0
 73
               1
 44
0.8762322015334064
  0
POINT
  5
B4
100
AcDbEntity
  8
Defpoints
370
               0
390
0
 62
               0
100
AcDbPoint
 10
-79.465200000000181
 20
60.051199999999881
 30
0.0
  0
POINT
  5
B5
100
AcDbEntity
  8
Defpoints
370
               0
390
0
 62
               0
100
AcDbPoint
 10
-59.254800000000245
 20
-114.0379200000001
 30
0.0
  0
POINT
  5
B6
100
AcDbEntity
  8
Defpoints
370
               0
390
0
 62
               0
100
AcDbPoint
 10
-15.481599999999879
 20
-114.0379200000001
 30
0.0
  0
ENDBLK
  5
B7
100
AcDbEntity
  8
寸法
390
0
100
AcDbBlockEnd
  0
BLOCK
  5
B8
100
AcDbEntity
  8
寸法
390
0
100
AcDbBlockBegin
  2
*D9
 70
               1
 10
0.0
 20
0.0
 30
0.0
  3
*D9
  1

  0
LINE
  5
B9
100
AcDbEntity
  8
寸法
370
              -2
390
0
  6
Continuous
 62
               0
100
AcDbLine
 10
128.99353638568684
 20
-55.278725168833262
 30
0.0
 11
108.51840000000004
 21
-109.86392000000012
 31
0.0
  0
SOLID
  5
BA
100
AcDbEntity
  8
寸法
370
              -2
390
0
 62
               0
100
AcDbTrace
 10
128.99353638568684
 20
-55.278725168833262
 30
0.0
 11
128.03352325471636
 21
-61.340009528606096
 31
0.0
 12
125.65117429738964
 22
-60.425511444984252
 32
0.0
 13
125.65117429738964
 23
-60.425511444984252
 33
0.0
  0
LINE
  5
BB
100
AcDbEntity
  8
寸法
370
              -2
390
0
  6
Continuous
 62
               0
100
AcDbLine
 10
108.51840000000004
 20
-109.86392000000012
 30
0.0
 11
104.51840000000004
 21
-109.86392000000012
 31
0.0
  0
MTEXT
  5
BC
100
AcDbEntity
  8
寸法
390
0
 62
               0
100
AcDbMText
 10
53.718400000000038
 20
-105.70467000000011
 30
0.0
 40
8.7312499999999993
 41
0.0
 71
               1
 72
               1
  1
歯数30枚
  7
ＭＳ Ｐゴシック
 73
               1
 44
0.8762322015334064
  0
POINT
  5
BD
100
AcDbEntity
  8
Defpoints
370
               0
390
0
 62
               0
100
AcDbPoint
 10
131.45326361431327
 20
-48.721274831166738
 30
0.0
  0
POINT
  5
BE
100
AcDbEntity
  8
Defpoints
370
               0
390
0
 62
               0
100
AcDbPoint
 10
128.99353638568684
 20
-55.278725168833262
 30
0.0
  0
ENDBLK
  5
BF
100
AcDbEntity
  8
寸法
390
0
100
AcDbBlockEnd
  0
BLOCK
  5
C0
100
AcDbEntity
  8
寸法
390
0
100
AcDbBlockBegin
  2
*D10
 70
               1
 10
0.0
 20
0.0
 30
0.0
  3
*D10
  1

  0
LINE
  5
C1
100
AcDbEntity
  8
寸法
370
              -2
390
0
  6
Continuous
 62
               0
100
AcDbLine
 10
168.04419999999993
 20
-118.0379200000001
 30
0.0
 11
168.04419999999993
 21
-154.86392000000009
 31
0.0
  0
LINE
  5
C2
100
AcDbEntity
  8
寸法
370
              -2
390
0
  6
Continuous
 62
               0
100
AcDbLine
 10
248.08519999999993
 20
-118.0379200000001
 30
0.0
 11
248.08519999999993
 21
-154.86392000000009
 31
0.0
  0
LINE
  5
C3
100
AcDbEntity
  8
寸法
370
              -2
390
0
  6
Continuous
 62
               0
100
AcDbLine
 10
168.04419999999993
 20
-150.86392000000009
 30
0.0
 11
248.08519999999993
 21
-150.86392000000009
 31
0.0
  0
SOLID
  5
C4
100
AcDbEntity
  8
寸法
370
              -2
390
0
 62
               0
100
AcDbTrace
 10
168.04419999999993
 20
-150.86392000000009
 30
0.0
 11
174.04693437499992
 21
-149.58799942063163
 31
0.0
 12
174.04693437499992
 22
-152.13984057936855
 32
0.0
 13
174.04693437499992
 23
-152.13984057936855
 33
0.0
  0
SOLID
  5
C5
100
AcDbEntity
  8
寸法
370
              -2
390
0
 62
               0
100
AcDbTrace
 10
248.08519999999993
 20
-150.86392000000009
 30
0.0
 11
242.08246562499994
 21
-152.13984057936855
 31
0.0
 12
242.08246562499994
 22
-149.58799942063163
 32
0.0
 13
242.08246562499994
 23
-149.58799942063163
 33
0.0
  0
MTEXT
  5
C6
100
AcDbEntity
  8
寸法
390
0
 62
               0
100
AcDbMText
 10
201.71469999999994
 20
-140.32467000000011
 30
0.0
 40
8.7312499999999993
 41
0.0
 71
               1
 72
               1
  1
80
  7
ＭＳ Ｐゴシック
 73
               1
 44
0.8762322015334064
  0
POINT
  5
C7
100
AcDbEntity
  8
Defpoints
370
               0
390
0
 62
               0
100
AcDbPoint
 10
248.08519999999993
 20
-114.0379200000001
 30
0.0
  0
POINT
  5
C8
100
AcDbEntity
  8
Defpoints
370
               0
390
0
 62
               0
100
AcDbPoint
 10
168.04419999999993
 20
-114.0379200000001
 30
0.0
  0
POINT
  5
C9
100
AcDbEntity
  8
Defpoints
370
               0
390
0
 62
               0
100
AcDbPoint
 10
168.04419999999993
 20
-150.86392000000009
 30
0.0
  0
ENDBLK
  5
CA
100
AcDbEntity
  8
寸法
390
0
100
AcDbBlockEnd
  0
BLOCK
  5
CB
100
AcDbEntity
  8
寸法
390
0
100
AcDbBlockBegin
  2
*D11
 70
               1
 10
0.0
 20
0.0
 30
0.0
  3
*D11
  1

  0
LINE
  5
CC
100
AcDbEntity
  8
寸法
370
              -2
390
0
  6
Continuous
 62
               0
100
AcDbLine
 10
168.04419999999993
 20
-118.86392000000012
 30
0.0
 11
168.04419999999993
 21
-134.86392000000012
 31
0.0
  0
LINE
  5
CD
100
AcDbEntity
  8
寸法
370
              -2
390
0
  6
Continuous
 62
               0
100
AcDbLine
 10
178.04939999999988
 20
-124.64040000000011
 30
0.0
 11
178.04939999999988
 21
-134.86392000000012
 31
0.0
  0
LINE
  5
CE
100
AcDbEntity
  8
寸法
370
              -2
390
0
  6
Continuous
 62
               0
100
AcDbLine
 10
178.04939999999988
 20
-130.86392000000012
 30
0.0
 11
168.04419999999993
 21
-130.86392000000012
 31
0.0
  0
LINE
  5
CF
100
AcDbEntity
  8
寸法
370
              -2
390
0
  6
Continuous
 62
               0
100
AcDbLine
 10
168.04419999999993
 20
-130.86392000000012
 30
0.0
 11
154.81827999999993
 21
-130.86392000000012
 31
0.0
  0
SOLID
  5
D0
100
AcDbEntity
  8
寸法
370
              -2
390
0
 62
               0
100
AcDbTrace
 10
168.04419999999993
 20
-130.86392000000012
 30
0.0
 11
162.04146562499994
 21
-132.13984057936858
 31
0.0
 12
162.04146562499994
 22
-129.58799942063166
 32
0.0
 13
162.04146562499994
 23
-129.58799942063166
 33
0.0
  0
LINE
  5
D1
100
AcDbEntity
  8
寸法
370
              -2
390
0
  6
Continuous
 62
               0
100
AcDbLine
 10
178.04939999999988
 20
-130.86392000000012
 30
0.0
 11
186.04939999999988
 21
-130.86392000000012
 31
0.0
  0
SOLID
  5
D2
100
AcDbEntity
  8
寸法
370
              -2
390
0
 62
               0
100
AcDbTrace
 10
178.04939999999988
 20
-130.86392000000012
 30
0.0
 11
184.05213437499987
 21
-129.58799942063166
 31
0.0
 12
184.05213437499987
 22
-132.13984057936858
 32
0.0
 13
184.05213437499987
 23
-132.13984057936858
 33
0.0
  0
MTEXT
  5
D3
100
AcDbEntity
  8
寸法
390
0
 62
               0
100
AcDbMText
 10
154.81827999999993
 20
-120.32467000000011
 30
0.0
 40
8.7312499999999993
 41
0.0
 71
               1
 72
               1
  1
10
  7
ＭＳ Ｐゴシック
 73
               1
 44
0.8762322015334064
  0
POINT
  5
D4
100
AcDbEntity
  8
Defpoints
370
               0
390
0
 62
               0
100
AcDbPoint
 10
178.04939999999988
 20
-120.64040000000011
 30
0.0
  0
POINT
  5
D5
100
AcDbEntity
  8
Defpoints
370
               0
390
0
 62
               0
100
AcDbPoint
 10
168.04419999999993
 20
-114.86392000000012
 30
0.0
  0
POINT
  5
D6
100
AcDbEntity
  8
Defpoints
370
               0
390
0
 62
               0
100
AcDbPoint
 10
168.04419999999993
 20
-130.86392000000012
 30
0.0
  0
ENDBLK
  5
D7
100
AcDbEntity
  8
寸法
390
0
100
AcDbBlockEnd
  0
BLOCK
  5
D8
100
AcDbEntity
  8
寸法
390
0
100
AcDbBlockBegin
  2
*D12
 70
               1
 10
0.0
 20
0.0
 30
0.0
  3
*D12
  1

  0
LINE
  5
D9
100
AcDbEntity
  8
寸法
370
              -2
390
0
  6
Continuous
 62
               0
100
AcDbLine
 10
178.04939999999988
 20
-124.86392000000012
 30
0.0
 11
178.04939999999988
 21
-134.86392000000012
 31
0.0
  0
LINE
  5
DA
100
AcDbEntity
  8
寸法
370
              -2
390
0
  6
Continuous
 62
               0
100
AcDbLine
 10
238.08007999999975
 20
-124.86392000000012
 30
0.0
 11
238.08007999999975
 21
-134.86392000000012
 31
0.0
  0
LINE
  5
DB
100
AcDbEntity
  8
寸法
370
              -2
390
0
  6
Continuous
 62
               0
100
AcDbLine
 10
178.04939999999988
 20
-130.86392000000012
 30
0.0
 11
238.08007999999975
 21
-130.86392000000012
 31
0.0
  0
SOLID
  5
DC
100
AcDbEntity
  8
寸法
370
              -2
390
0
 62
               0
100
AcDbTrace
 10
178.04939999999988
 20
-130.86392000000012
 30
0.0
 11
184.05213437499987
 21
-129.58799942063166
 31
0.0
 12
184.05213437499987
 22
-132.13984057936858
 32
0.0
 13
184.05213437499987
 23
-132.13984057936858
 33
0.0
  0
SOLID
  5
DD
100
AcDbEntity
  8
寸法
370
              -2
390
0
 62
               0
100
AcDbTrace
 10
238.08007999999975
 20
-130.86392000000012
 30
0.0
 11
232.07734562499977
 21
-132.13984057936858
 31
0.0
 12
232.07734562499977
 22
-129.58799942063166
 32
0.0
 13
232.07734562499977
 23
-129.58799942063166
 33
0.0
  0
MTEXT
  5
DE
100
AcDbEntity
  8
寸法
390
0
 62
               0
100
AcDbMText
 10
201.71473999999981
 20
-120.32467000000011
 30
0.0
 40
8.7312499999999993
 41
0.0
 71
               1
 72
               1
  1
60
  7
ＭＳ Ｐゴシック
 73
               1
 44
0.8762322015334064
  0
POINT
  5
DF
100
AcDbEntity
  8
Defpoints
370
               0
390
0
 62
               0
100
AcDbPoint
 10
238.08007999999975
 20
-120.86392000000012
 30
0.0
  0
POINT
  5
E0
100
AcDbEntity
  8
Defpoints
370
               0
390
0
 62
               0
100
AcDbPoint
 10
178.04939999999988
 20
-120.86392000000012
 30
0.0
  0
POINT
  5
E1
100
AcDbEntity
  8
Defpoints
370
               0
390
0
 62
               0
100
AcDbPoint
 10
178.04939999999988
 20
-130.86392000000012
 30
0.0
  0
ENDBLK
  5
E2
100
AcDbEntity
  8
寸法
390
0
100
AcDbBlockEnd
  0
BLOCK
  5
E3
100
AcDbEntity
  8
寸法
390
0
100
AcDbBlockBegin
  2
*D13
 70
               1
 10
0.0
 20
0.0
 30
0.0
  3
*D13
  1

  0
LINE
  5
E4
100
AcDbEntity
  8
寸法
370
              -2
390
0
  6
Continuous
 62
               0
100
AcDbLine
 10
238.08007999999975
 20
-123.81440000000009
 30
0.0
 11
238.08007999999975
 21
-134.86392000000009
 31
0.0
  0
LINE
  5
E5
100
AcDbEntity
  8
寸法
370
              -2
390
0
  6
Continuous
 62
               0
100
AcDbLine
 10
248.08519999999993
 20
-118.0379200000001
 30
0.0
 11
248.08519999999993
 21
-134.86392000000009
 31
0.0
  0
LINE
  5
E6
100
AcDbEntity
  8
寸法
370
              -2
390
0
  6
Continuous
 62
               0
100
AcDbLine
 10
248.08519999999993
 20
-130.86392000000009
 30
0.0
 11
238.08007999999975
 21
-130.86392000000009
 31
0.0
  0
LINE
  5
E7
100
AcDbEntity
  8
寸法
370
              -2
390
0
  6
Continuous
 62
               0
100
AcDbLine
 10
238.08007999999975
 20
-130.86392000000009
 30
0.0
 11
230.08007999999975
 21
-130.86392000000009
 31
0.0
  0
SOLID
  5
E8
100
AcDbEntity
  8
寸法
370
              -2
390
0
 62
               0
100
AcDbTrace
 10
238.08007999999975
 20
-130.86392000000009
 30
0.0
 11
232.07734562499977
 21
-132.13984057936855
 31
0.0
 12
232.07734562499977
 22
-129.58799942063163
 32
0.0
 13
232.07734562499977
 23
-129.58799942063163
 33
0.0
  0
LINE
  5
E9
100
AcDbEntity
  8
寸法
370
              -2
390
0
  6
Continuous
 62
               0
100
AcDbLine
 10
248.08519999999993
 20
-130.86392000000009
 30
0.0
 11
270.21839999999992
 21
-130.86392000000009
 31
0.0
  0
SOLID
  5
EA
100
AcDbEntity
  8
寸法
370
              -2
390
0
 62
               0
100
AcDbTrace
 10
248.08519999999993
 20
-130.86392000000009
 30
0.0
 11
254.08793437499992
 21
-129.58799942063163
 31
0.0
 12
254.08793437499992
 22
-132.13984057936855
 32
0.0
 13
254.08793437499992
 23
-132.13984057936855
 33
0.0
  0
MTEXT
  5
EB
100
AcDbEntity
  8
寸法
390
0
 62
               0
100
AcDbMText
 10
257.51839999999993
 20
-120.32467000000008
 30
0.0
 40
8.7312499999999993
 41
0.0
 71
               1
 72
               1
  1
10
  7
ＭＳ Ｐゴシック
 73
               1
 44
0.8762322015334064
  0
POINT
  5
EC
100
AcDbEntity
  8
Defpoints
370
               0
390
0
 62
               0
100
AcDbPoint
 10
248.08519999999993
 20
-114.0379200000001
 30
0.0
  0
POINT
  5
ED
100
AcDbEntity
  8
Defpoints
370
               0
390
0
 62
               0
100
AcDbPoint
 10
238.08007999999975
 20
-119.81440000000009
 30
0.0
  0
POINT
  5
EE
100
AcDbEntity
  8
Defpoints
370
               0
390
0
 62
               0
100
AcDbPoint
 10
238.08007999999975
 20
-130.86392000000009
 30
0.0
  0
ENDBLK
  5
EF
100
AcDbEntity
  8
寸法
390
0
100
AcDbBlockEnd
  0
BLOCK
  5
F0
100
AcDbEntity
  8
寸法
390
0
100
AcDbBlockBegin
  2
*D14
 70
               1
 10
0.0
 20
0.0
 30
0.0
  3
*D14
  1

  0
LINE
  5
F1
100
AcDbEntity
  8
寸法
370
              -2
390
0
  6
Continuous
 62
               0
100
AcDbLine
 10
213.51839999999976
 20
32.036799999999857
 30
0.0
 11
219.51839999999976
 21
32.036799999999857
 31
0.0
  0
LINE
  5
F2
100
AcDbEntity
  8
寸法
370
              -2
390
0
  6
Continuous
 62
               0
100
AcDbLine
 10
213.51839999999976
 20
-114.0379200000001
 30
0.0
 11
219.51839999999976
 21
-114.0379200000001
 31
0.0
  0
LINE
  5
F3
100
AcDbEntity
  8
寸法
370
              -2
390
0
  6
Continuous
 62
               0
100
AcDbLine
 10
215.51839999999976
 20
32.036799999999857
 30
0.0
 11
215.51839999999976
 21
-114.0379200000001
 31
0.0
  0
SOLID
  5
F4
100
AcDbEntity
  8
寸法
370
              -2
390
0
 62
               0
100
AcDbTrace
 10
215.51839999999976
 20
32.036799999999857
 30
0.0
 11
216.79432057936822
 21
26.034065624999858
 31
0.0
 12
214.2424794206313
 22
26.034065624999858
 32
0.0
 13
214.2424794206313
 23
26.034065624999858
 33
0.0
  0
SOLID
  5
F5
100
AcDbEntity
  8
寸法
370
              -2
390
0
 62
               0
100
AcDbTrace
 10
215.51839999999976
 20
-114.0379200000001
 30
0.0
 11
214.2424794206313
 21
-108.0351856250001
 31
0.0
 12
216.79432057936822
 22
-108.0351856250001
 32
0.0
 13
216.79432057936822
 23
-108.0351856250001
 33
0.0
  0
MTEXT
  5
F6
100
AcDbEntity
  8
寸法
390
0
 62
               0
100
AcDbMText
 10
204.97914999999975
 20
-36.389728851581275
 30
0.0
 40
8.7312499999999993
 41
0.0
 71
               1
 72
               1
  1
146
  7
ＭＳ Ｐゴシック
 11
0.0
 21
1.0
 31
0.0
 73
               1
 44
0.8762322015334064
  0
POINT
  5
F7
100
AcDbEntity
  8
Defpoints
370
               0
390
0
 62
               0
100
AcDbPoint
 10
209.51839999999976
 20
-114.0379200000001
 30
0.0
  0
POINT
  5
F8
100
AcDbEntity
  8
Defpoints
370
               0
390
0
 62
               0
100
AcDbPoint
 10
209.51839999999976
 20
32.036799999999857
 30
0.0
  0
POINT
  5
F9
100
AcDbEntity
  8
Defpoints
370
               0
390
0
 62
               0
100
AcDbPoint
 10
215.51839999999976
 20
32.036799999999857
 30
0.0
  0
ENDBLK
  5
FA
100
AcDbEntity
  8
寸法
390
0
100
AcDbBlockEnd
  0
BLOCK
  5
FB
100
AcDbEntity
  8
寸法
390
0
100
AcDbBlockBegin
  2
*D15
 70
               1
 10
0.0
 20
0.0
 30
0.0
  3
*D15
  1

  0
LINE
  5
FC
100
AcDbEntity
  8
寸法
370
              -2
390
0
  6
Continuous
 62
               0
100
AcDbLine
 10
154.03708000000009
 20
62.850479999999834
 30
0.0
 11
154.03708000000009
 21
85.393680172593619
 31
0.0
  0
LINE
  5
FD
100
AcDbEntity
  8
寸法
370
              -2
390
0
  6
Continuous
 62
               0
100
AcDbLine
 10
192.05648000000002
 20
73.136079999999822
 30
0.0
 11
192.05648000000002
 21
85.393680172593619
 31
0.0
  0
LINE
  5
FE
100
AcDbEntity
  8
寸法
370
              -2
390
0
  6
Continuous
 62
               0
100
AcDbLine
 10
154.03708000000009
 20
81.393680172593619
 30
0.0
 11
192.05648000000002
 21
81.393680172593619
 31
0.0
  0
SOLID
  5
FF
100
AcDbEntity
  8
寸法
370
              -2
390
0
 62
               0
100
AcDbTrace
 10
154.03708000000009
 20
81.393680172593619
 30
0.0
 11
160.03981437500008
 21
82.669600751962065
 31
0.0
 12
160.03981437500008
 22
80.117759593225173
 32
0.0
 13
160.03981437500008
 23
80.117759593225173
 33
0.0
  0
SOLID
  5
100
100
AcDbEntity
  8
寸法
370
              -2
390
0
 62
               0
100
AcDbTrace
 10
192.05648000000002
 20
81.393680172593619
 30
0.0
 11
186.05374562500003
 21
80.117759593225173
 31
0.0
 12
186.05374562500003
 22
82.669600751962065
 32
0.0
 13
186.05374562500003
 23
82.669600751962065
 33
0.0
  0
MTEXT
  5
101
100
AcDbEntity
  8
寸法
390
0
 62
               0
100
AcDbMText
 10
170.23028017259387
 20
91.932930172593629
 30
0.0
 40
8.7312499999999993
 41
0.0
 71
               1
 72
               1
  1
38
  7
ＭＳ Ｐゴシック
 73
               1
 44
0.8762322015334064
  0
POINT
  5
102
100
AcDbEntity
  8
Defpoints
370
               0
390
0
 62
               0
100
AcDbPoint
 10
192.05648000000002
 20
69.136079999999822
 30
0.0
  0
POINT
  5
103
100
AcDbEntity
  8
Defpoints
370
               0
390
0
 62
               0
100
AcDbPoint
 10
154.03708000000009
 20
58.850479999999834
 30
0.0
  0
POINT
  5
104
100
AcDbEntity
  8
Defpoints
370
               0
390
0
 62
               0
100
AcDbPoint
 10
154.03708000000009
 20
81.393680172593619
 30
0.0
  0
ENDBLK
  5
105
100
AcDbEntity
  8
寸法
390
0
100
AcDbBlockEnd
  0
BLOCK
  5
106
100
AcDbEntity
  8
寸法
390
0
100
AcDbBlockBegin
  2
*D16
 70
               1
 10
0.0
 20
0.0
 30
0.0
  3
*D16
  1

  0
LINE
  5
107
100
AcDbEntity
  8
寸法
370
              -2
390
0
  6
Continuous
 62
               0
100
AcDbLine
 10
195.33299999999983
 20
41.999679999999898
 30
0.0
 11
208.75938346692587
 21
81.136057311742391
 31
0.0
  0
SOLID
  5
108
100
AcDbEntity
  8
寸法
370
              -2
390
0
 62
               0
100
AcDbTrace
 10
195.33299999999983
 20
41.999679999999898
 30
0.0
 11
196.08089254338279
 21
48.090775964209847
 31
0.0
 12
198.49370576094742
 22
47.259977747692062
 32
0.0
 13
198.49370576094742
 23
47.259977747692062
 33
0.0
  0
LINE
  5
109
100
AcDbEntity
  8
寸法
370
              -2
390
0
  6
Continuous
 62
               0
100
AcDbLine
 10
208.75938346692587
 20
81.136057311742391
 30
0.0
 11
212.75938346692587
 21
81.136057311742391
 31
0.0
  0
MTEXT
  5
10A
100
AcDbEntity
  8
寸法
390
0
 62
               0
100
AcDbMText
 10
212.7593834669259
 20
85.295307311742405
 30
0.0
 40
8.7312499999999993
 41
0.0
 71
               1
 72
               1
  1
2-φ21電線口×2ヶ
  7
ＭＳ Ｐゴシック
 73
               1
 44
0.8762322015334064
  0
POINT
  5
10B
100
AcDbEntity
  8
Defpoints
370
               0
390
0
 62
               0
100
AcDbPoint
 10
188.51839999999976
 20
22.136079999999879
 30
0.0
  0
POINT
  5
10C
100
AcDbEntity
  8
Defpoints
370
               0
390
0
 62
               0
100
AcDbPoint
 10
195.33299999999983
 20
41.999679999999898
 30
0.0
  0
ENDBLK
  5
10D
100
AcDbEntity
  8
寸法
390
0
100
AcDbBlockEnd
  0
BLOCK
  5
10E
100
AcDbEntity
  8
寸法
390
0
100
AcDbBlockBegin
  2
*D17
 70
               1
 10
0.0
 20
0.0
 30
0.0
  3
*D17
  1

  0
LINE
  5
10F
100
AcDbEntity
  8
寸法
370
              -2
390
0
  6
Continuous
 62
               0
100
AcDbLine
 10
154.03708000000009
 20
62.850479999999834
 30
0.0
 11
154.03708000000009
 21
101.13607999999984
 31
0.0
  0
LINE
  5
110
100
AcDbEntity
  8
寸法
370
              -2
390
0
  6
Continuous
 62
               0
100
AcDbLine
 10
320.12207999999993
 20
44.198879999999917
 30
0.0
 11
320.12207999999993
 21
101.13607999999984
 31
0.0
  0
LINE
  5
111
100
AcDbEntity
  8
寸法
370
              -2
390
0
  6
Continuous
 62
               0
100
AcDbLine
 10
154.03708000000009
 20
97.136079999999836
 30
0.0
 11
320.12207999999993
 21
97.136079999999836
 31
0.0
  0
SOLID
  5
112
100
AcDbEntity
  8
寸法
370
              -2
390
0
 62
               0
100
AcDbTrace
 10
154.03708000000009
 20
97.136079999999836
 30
0.0
 11
160.03981437500008
 21
98.412000579368282
 31
0.0
 12
160.03981437500008
 22
95.860159420631391
 32
0.0
 13
160.03981437500008
 23
95.860159420631391
 33
0.0
  0
SOLID
  5
113
100
AcDbEntity
  8
寸法
370
              -2
390
0
 62
               0
100
AcDbTrace
 10
320.12207999999993
 20
97.136079999999836
 30
0.0
 11
314.11934562499994
 21
95.860159420631391
 31
0.0
 12
314.11934562499994
 22
98.412000579368282
 32
0.0
 13
314.11934562499994
 23
98.412000579368282
 33
0.0
  0
MTEXT
  5
114
100
AcDbEntity
  8
寸法
390
0
 62
               0
100
AcDbMText
 10
227.5545793271298
 20
107.67532999999985
 30
0.0
 40
8.7312499999999993
 41
0.0
 71
               1
 72
               1
  1
166
  7
ＭＳ Ｐゴシック
 73
               1
 44
0.8762322015334064
  0
POINT
  5
115
100
AcDbEntity
  8
Defpoints
370
               0
390
0
 62
               0
100
AcDbPoint
 10
320.12207999999993
 20
40.198879999999917
 30
0.0
  0
POINT
  5
116
100
AcDbEntity
  8
Defpoints
370
               0
390
0
 62
               0
100
AcDbPoint
 10
154.03708000000009
 20
58.850479999999834
 30
0.0
  0
POINT
  5
117
100
AcDbEntity
  8
Defpoints
370
               0
390
0
 62
               0
100
AcDbPoint
 10
154.03708000000009
 20
97.136079999999836
 30
0.0
  0
ENDBLK
  5
118
100
AcDbEntity
  8
寸法
390
0
100
AcDbBlockEnd
  0
BLOCK
  5
119
100
AcDbEntity
  8
寸法
390
0
100
AcDbBlockBegin
  2
*D18
 70
               1
 10
0.0
 20
0.0
 30
0.0
  3
*D18
  1

  0
LINE
  5
11A
100
AcDbEntity
  8
寸法
370
              -2
390
0
  6
Continuous
 62
               0
100
AcDbLine
 10
118.57887999999986
 20
83.322279999999921
 30
0.0
 11
118.57887999999986
 21
101.13607999999992
 31
0.0
  0
LINE
  5
11B
100
AcDbEntity
  8
寸法
370
              -2
390
0
  6
Continuous
 62
               0
100
AcDbLine
 10
154.03708000000009
 20
62.850479999999834
 30
0.0
 11
154.03708000000009
 21
101.13607999999992
 31
0.0
  0
LINE
  5
11C
100
AcDbEntity
  8
寸法
370
              -2
390
0
  6
Continuous
 62
               0
100
AcDbLine
 10
118.57887999999986
 20
97.136079999999922
 30
0.0
 11
154.03708000000009
 21
97.136079999999922
 31
0.0
  0
SOLID
  5
11D
100
AcDbEntity
  8
寸法
370
              -2
390
0
 62
               0
100
AcDbTrace
 10
118.57887999999986
 20
97.136079999999922
 30
0.0
 11
124.58161437499986
 21
98.412000579368367
 31
0.0
 12
124.58161437499986
 22
95.860159420631476
 32
0.0
 13
124.58161437499986
 23
95.860159420631476
 33
0.0
  0
SOLID
  5
11E
100
AcDbEntity
  8
寸法
370
              -2
390
0
 62
               0
100
AcDbTrace
 10
154.03708000000009
 20
97.136079999999922
 30
0.0
 11
148.0343456250001
 21
95.860159420631476
 31
0.0
 12
148.0343456250001
 22
98.412000579368367
 32
0.0
 13
148.0343456250001
 23
98.412000579368367
 33
0.0
  0
MTEXT
  5
11F
100
AcDbEntity
  8
寸法
390
0
 62
               0
100
AcDbMText
 10
129.95797999999999
 20
107.67532999999993
 30
0.0
 40
8.7312499999999993
 41
0.0
 71
               1
 72
               1
  1
35
  7
ＭＳ Ｐゴシック
 73
               1
 44
0.8762322015334064
  0
POINT
  5
120
100
AcDbEntity
  8
Defpoints
370
               0
390
0
 62
               0
100
AcDbPoint
 10
154.03708000000009
 20
58.850479999999834
 30
0.0
  0
POINT
  5
121
100
AcDbEntity
  8
Defpoints
370
               0
390
0
 62
               0
100
AcDbPoint
 10
118.57887999999986
 20
79.322279999999921
 30
0.0
  0
POINT
  5
122
100
AcDbEntity
  8
Defpoints
370
               0
390
0
 62
               0
100
AcDbPoint
 10
118.57887999999986
 20
97.136079999999922
 30
0.0
  0
ENDBLK
  5
123
100
AcDbEntity
  8
寸法
390
0
100
AcDbBlockEnd
  0
BLOCK
  5
124
100
AcDbEntity
  8
寸法
390
0
100
AcDbBlockBegin
  2
*D19
 70
               1
 10
0.0
 20
0.0
 30
0.0
  3
*D19
  1

  0
LINE
  5
125
100
AcDbEntity
  8
寸法
370
              -2
390
0
  6
Continuous
 62
               0
100
AcDbLine
 10
110.07407999999998
 20
49.515599999999836
 30
0.0
 11
110.07407999999998
 21
101.13611999999986
 31
0.0
  0
LINE
  5
126
100
AcDbEntity
  8
寸法
370
              -2
390
0
  6
Continuous
 62
               0
100
AcDbLine
 10
118.57887999999986
 20
83.561079999999833
 30
0.0
 11
118.57887999999986
 21
101.13611999999986
 31
0.0
  0
LINE
  5
127
100
AcDbEntity
  8
寸法
370
              -2
390
0
  6
Continuous
 62
               0
100
AcDbLine
 10
118.57887999999986
 20
97.136119999999863
 30
0.0
 11
110.07407999999998
 21
97.136119999999863
 31
0.0
  0
LINE
  5
128
100
AcDbEntity
  8
寸法
370
              -2
390
0
  6
Continuous
 62
               0
100
AcDbLine
 10
110.07407999999998
 20
97.136119999999863
 30
0.0
 11
99.168400000000133
 21
97.136119999999863
 31
0.0
  0
SOLID
  5
129
100
AcDbEntity
  8
寸法
370
              -2
390
0
 62
               0
100
AcDbTrace
 10
110.07407999999998
 20
97.136119999999863
 30
0.0
 11
104.07134562499998
 21
95.860199420631417
 31
0.0
 12
104.07134562499998
 22
98.412040579368309
 32
0.0
 13
104.07134562499998
 23
98.412040579368309
 33
0.0
  0
LINE
  5
12A
100
AcDbEntity
  8
寸法
370
              -2
390
0
  6
Continuous
 62
               0
100
AcDbLine
 10
118.57887999999986
 20
97.136119999999863
 30
0.0
 11
126.57887999999986
 21
97.136119999999863
 31
0.0
  0
SOLID
  5
12B
100
AcDbEntity
  8
寸法
370
              -2
390
0
 62
               0
100
AcDbTrace
 10
118.57887999999986
 20
97.136119999999863
 30
0.0
 11
124.58161437499986
 21
98.412040579368309
 31
0.0
 12
124.58161437499986
 22
95.860199420631417
 32
0.0
 13
124.58161437499986
 23
95.860199420631417
 33
0.0
  0
MTEXT
  5
12C
100
AcDbEntity
  8
寸法
390
0
 62
               0
100
AcDbMText
 10
99.168400000000133
 20
107.67536999999987
 30
0.0
 40
8.7312499999999993
 41
0.0
 71
               1
 72
               1
  1
9
  7
ＭＳ Ｐゴシック
 73
               1
 44
0.8762322015334064
  0
POINT
  5
12D
100
AcDbEntity
  8
Defpoints
370
               0
390
0
 62
               0
100
AcDbPoint
 10
118.57887999999986
 20
79.561079999999833
 30
0.0
  0
POINT
  5
12E
100
AcDbEntity
  8
Defpoints
370
               0
390
0
 62
               0
100
AcDbPoint
 10
110.07407999999998
 20
45.515599999999836
 30
0.0
  0
POINT
  5
12F
100
AcDbEntity
  8
Defpoints
370
               0
390
0
 62
               0
100
AcDbPoint
 10
110.07407999999998
 20
97.136119999999863
 30
0.0
  0
ENDBLK
  5
130
100
AcDbEntity
  8
寸法
390
0
100
AcDbBlockEnd
  0
BLOCK
  5
131
100
AcDbEntity
  8
寸法
390
0
100
AcDbBlockBegin
  2
*D20
 70
               1
 10
0.0
 20
0.0
 30
0.0
  3
*D20
  1

  0
LINE
  5
132
100
AcDbEntity
  8
寸法
370
              -2
390
0
  6
Continuous
 62
               0
100
AcDbLine
 10
85.56147999999996
 20
70.304079999999857
 30
0.0
 11
85.56147999999996
 21
121.13611999999995
 31
0.0
  0
LINE
  5
133
100
AcDbEntity
  8
寸法
370
              -2
390
0
  6
Continuous
 62
               0
100
AcDbLine
 10
320.12207999999993
 20
44.198879999999917
 30
0.0
 11
320.12207999999993
 21
121.13611999999995
 31
0.0
  0
LINE
  5
134
100
AcDbEntity
  8
寸法
370
              -2
390
0
  6
Continuous
 62
               0
100
AcDbLine
 10
85.56147999999996
 20
117.13611999999995
 30
0.0
 11
320.12207999999993
 21
117.13611999999995
 31
0.0
  0
SOLID
  5
135
100
AcDbEntity
  8
寸法
370
              -2
390
0
 62
               0
100
AcDbTrace
 10
85.56147999999996
 20
117.13611999999995
 30
0.0
 11
91.564214374999963
 21
118.41204057936839
 31
0.0
 12
91.564214374999963
 22
115.8601994206315
 32
0.0
 13
91.564214374999963
 23
115.8601994206315
 33
0.0
  0
SOLID
  5
136
100
AcDbEntity
  8
寸法
370
              -2
390
0
 62
               0
100
AcDbTrace
 10
320.12207999999993
 20
117.13611999999995
 30
0.0
 11
314.11934562499994
 21
115.8601994206315
 31
0.0
 12
314.11934562499994
 22
118.41204057936839
 32
0.0
 13
314.11934562499994
 23
118.41204057936839
 33
0.0
  0
MTEXT
  5
137
100
AcDbEntity
  8
寸法
390
0
 62
               0
100
AcDbMText
 10
193.31677932712972
 20
127.67536999999994
 30
0.0
 40
8.7312499999999993
 41
0.0
 71
               1
 72
               1
  1
235
  7
ＭＳ Ｐゴシック
 73
               1
 44
0.8762322015334064
  0
POINT
  5
138
100
AcDbEntity
  8
Defpoints
370
               0
390
0
 62
               0
100
AcDbPoint
 10
320.12207999999993
 20
40.198879999999917
 30
0.0
  0
POINT
  5
139
100
AcDbEntity
  8
Defpoints
370
               0
390
0
 62
               0
100
AcDbPoint
 10
85.56147999999996
 20
66.304079999999857
 30
0.0
  0
POINT
  5
13A
100
AcDbEntity
  8
Defpoints
370
               0
390
0
 62
               0
100
AcDbPoint
 10
85.56147999999996
 20
117.13611999999995
 30
0.0
  0
ENDBLK
  5
13B
100
AcDbEntity
  8
寸法
390
0
100
AcDbBlockEnd
  0
BLOCK
  5
13C
100
AcDbEntity
  8
寸法
390
0
100
AcDbBlockBegin
  2
*D21
 70
               1
 10
0.0
 20
0.0
 30
0.0
  3
*D21
  1

  0
LINE
  5
13D
100
AcDbEntity
  8
寸法
370
              -2
390
0
  6
Continuous
 62
               0
100
AcDbLine
 10
105.51839999999976
 20
-40.0
 30
0.0
 11
50.518400000000121
 21
-40.0
 31
0.0
  0
LINE
  5
13E
100
AcDbEntity
  8
寸法
370
              -2
390
0
  6
Continuous
 62
               0
100
AcDbLine
 10
83.659479999999917
 20
60.0
 30
0.0
 11
50.518400000000121
 21
60.0
 31
0.0
  0
LINE
  5
13F
100
AcDbEntity
  8
寸法
370
              -2
390
0
  6
Continuous
 62
               0
100
AcDbLine
 10
54.518400000000121
 20
-40.0
 30
0.0
 11
54.518400000000121
 21
60.0
 31
0.0
  0
SOLID
  5
140
100
AcDbEntity
  8
寸法
370
              -2
390
0
 62
               0
100
AcDbTrace
 10
54.518400000000121
 20
-40.0
 30
0.0
 11
53.242479420631675
 21
-33.997265624999997
 31
0.0
 12
55.794320579368573
 22
-33.997265624999997
 32
0.0
 13
55.794320579368573
 23
-33.997265624999997
 33
0.0
  0
SOLID
  5
141
100
AcDbEntity
  8
寸法
370
              -2
390
0
 62
               0
100
AcDbTrace
 10
54.518400000000121
 20
60.0
 30
0.0
 11
55.794320579368573
 21
53.997265624999997
 31
0.0
 12
53.242479420631668
 22
53.997265625000004
 32
0.0
 13
53.242479420631668
 23
53.997265625000004
 33
0.0
  0
MTEXT
  5
142
100
AcDbEntity
  8
寸法
390
0
 62
               0
100
AcDbMText
 10
43.979150000000118
 20
-13.304501830206972
 30
0.0
 40
8.7312499999999993
 41
0.0
 71
               1
 72
               1
  1
MAX.100
  7
ＭＳ Ｐゴシック
 11
0.0
 21
1.0
 31
0.0
 73
               1
 44
0.8762322015334064
  0
POINT
  5
143
100
AcDbEntity
  8
Defpoints
370
               0
390
0
 62
               0
100
AcDbPoint
 10
87.659479999999917
 20
60.0
 30
0.0
  0
POINT
  5
144
100
AcDbEntity
  8
Defpoints
370
               0
390
0
 62
               0
100
AcDbPoint
 10
109.51839999999976
 20
-40.0
 30
0.0
  0
POINT
  5
145
100
AcDbEntity
  8
Defpoints
370
               0
390
0
 62
               0
100
AcDbPoint
 10
54.518400000000121
 20
-40.0
 30
0.0
  0
ENDBLK
  5
146
100
AcDbEntity
  8
寸法
390
0
100
AcDbBlockEnd
  0
BLOCK
  5
147
100
AcDbEntity
  8
寸法
390
0
100
AcDbBlockBegin
  2
*D22
 70
               1
 10
0.0
 20
0.0
 30
0.0
  3
*D22
  1

  0
LINE
  5
148
100
AcDbEntity
  8
寸法
370
              -2
390
0
  6
Continuous
 62
               0
100
AcDbLine
 10
109.46777710763311
 20
55.498887780672327
 30
0.0
 11
106.51840000000003
 21
18.096104942111921
 31
0.0
  0
SOLID
  5
149
100
AcDbEntity
  8
寸法
370
              -2
390
0
 62
               0
100
AcDbTrace
 10
109.46777710763311
 20
55.498887780672327
 30
0.0
 11
110.21566965101609
 21
49.407791816462378
 31
0.0
 12
107.67353901831008
 22
49.630199428026138
 32
0.0
 13
107.67353901831008
 23
49.630199428026138
 33
0.0
  0
LINE
  5
14A
100
AcDbEntity
  8
寸法
370
              -2
390
0
  6
Continuous
 62
               0
100
AcDbLine
 10
106.51840000000003
 20
18.096104942111921
 30
0.0
 11
102.51840000000003
 21
18.096104942111921
 31
0.0
  0
MTEXT
  5
14B
100
AcDbEntity
  8
寸法
390
0
 62
               0
100
AcDbMText
 10
74.578398385111527
 20
22.255354942111925
 30
0.0
 40
8.7312499999999993
 41
0.0
 71
               1
 72
               1
  1
φ8.2
  7
ＭＳ Ｐゴシック
 73
               1
 44
0.8762322015334064
  0
POINT
  5
14C
100
AcDbEntity
  8
Defpoints
370
               0
390
0
 62
               0
100
AcDbPoint
 10
110.11238289236573
 20
63.67351221931434
 30
0.0
  0
POINT
  5
14D
100
AcDbEntity
  8
Defpoints
370
               0
390
0
 62
               0
100
AcDbPoint
 10
109.46777710763311
 20
55.498887780672327
 30
0.0
  0
ENDBLK
  5
14E
100
AcDbEntity
  8
寸法
390
0
100
AcDbBlockEnd
  0
BLOCK
  5
14F
100
AcDbEntity
  8
寸法
390
0
100
AcDbBlockBegin
  2
*D23
 70
               1
 10
0.0
 20
0.0
 30
0.0
  3
*D23
  1

  0
LINE
  5
150
100
AcDbEntity
  8
寸法
370
              -2
390
0
  6
Continuous
 62
               0
100
AcDbLine
 10
154.03708000000009
 20
-109.86391998509896
 30
0.0
 11
154.03708000000009
 21
-154.86392000000012
 31
0.0
  0
LINE
  5
151
100
AcDbEntity
  8
寸法
370
              -2
390
0
  6
Continuous
 62
               0
100
AcDbLine
 10
168.04419999999993
 20
-118.0379200000001
 30
0.0
 11
168.04419999999993
 21
-154.86392000000012
 31
0.0
  0
LINE
  5
152
100
AcDbEntity
  8
寸法
370
              -2
390
0
  6
Continuous
 62
               0
100
AcDbLine
 10
154.03708000000009
 20
-150.86392000000012
 30
0.0
 11
168.04419999999993
 21
-150.86392000000012
 31
0.0
  0
SOLID
  5
153
100
AcDbEntity
  8
寸法
370
              -2
390
0
 62
               0
100
AcDbTrace
 10
154.03708000000009
 20
-150.86392000000012
 30
0.0
 11
160.03981437500008
 21
-149.58799942063166
 31
0.0
 12
160.03981437500008
 22
-152.13984057936858
 32
0.0
 13
160.03981437500008
 23
-152.13984057936858
 33
0.0
  0
SOLID
  5
154
100
AcDbEntity
  8
寸法
370
              -2
390
0
 62
               0
100
AcDbTrace
 10
168.04419999999993
 20
-150.86392000000012
 30
0.0
 11
162.04146562499994
 21
-152.13984057936858
 31
0.0
 12
162.04146562499994
 22
-149.58799942063166
 32
0.0
 13
162.04146562499994
 23
-149.58799942063166
 33
0.0
  0
MTEXT
  5
155
100
AcDbEntity
  8
寸法
390
0
 62
               0
100
AcDbMText
 10
155.68708001750895
 20
-140.32467000000014
 30
0.0
 40
8.7312499999999993
 41
0.0
 71
               1
 72
               1
  1
14
  7
ＭＳ Ｐゴシック
 73
               1
 44
0.8762322015334064
  0
POINT
  5
156
100
AcDbEntity
  8
Defpoints
370
               0
390
0
 62
               0
100
AcDbPoint
 10
168.04419999999993
 20
-114.0379200000001
 30
0.0
  0
POINT
  5
157
100
AcDbEntity
  8
Defpoints
370
               0
390
0
 62
               0
100
AcDbPoint
 10
154.03708000000009
 20
-105.86391998509896
 30
0.0
  0
POINT
  5
158
100
AcDbEntity
  8
Defpoints
370
               0
390
0
 62
               0
100
AcDbPoint
 10
154.03708000000009
 20
-150.86392000000012
 30
0.0
  0
ENDBLK
  5
159
100
AcDbEntity
  8
寸法
390
0
100
AcDbBlockEnd
  0
BLOCK
  5
15A
100
AcDbEntity
  8
寸法
390
0
100
AcDbBlockBegin
  2
*D24
 70
               1
 10
0.0
 20
0.0
 30
0.0
  3
*D24
  1

  0
LINE
  5
15B
100
AcDbEntity
  8
寸法
370
              -2
390
0
  6
Continuous
 62
               0
100
AcDbLine
 10
-73.96440000000004
 20
60.051079999999956
 30
0.0
 11
-11.481599999999929
 21
60.051079999999956
 31
0.0
  0
LINE
  5
15C
100
AcDbEntity
  8
寸法
370
              -2
390
0
  6
Continuous
 62
               0
100
AcDbLine
 10
-70.797060000000073
 20
116.05119999999988
 30
0.0
 11
-11.481599999999929
 21
116.05119999999988
 31
0.0
  0
LINE
  5
15D
100
AcDbEntity
  8
寸法
370
              -2
390
0
  6
Continuous
 62
               0
100
AcDbLine
 10
-15.481599999999929
 20
60.051079999999956
 30
0.0
 11
-15.481599999999929
 21
116.05119999999988
 31
0.0
  0
SOLID
  5
15E
100
AcDbEntity
  8
寸法
370
              -2
390
0
 62
               0
100
AcDbTrace
 10
-15.481599999999929
 20
60.051079999999956
 30
0.0
 11
-16.757520579368379
 21
66.053814374999959
 31
0.0
 12
-14.20567942063148
 22
66.053814374999959
 32
0.0
 13
-14.20567942063148
 23
66.053814374999959
 33
0.0
  0
SOLID
  5
15F
100
AcDbEntity
  8
寸法
370
              -2
390
0
 62
               0
100
AcDbTrace
 10
-15.481599999999929
 20
116.05119999999988
 30
0.0
 11
-14.20567942063148
 21
110.04846562499988
 31
0.0
 12
-16.757520579368382
 22
110.04846562499988
 32
0.0
 13
-16.757520579368382
 23
110.04846562499988
 33
0.0
  0
MTEXT
  5
160
100
AcDbEntity
  8
寸法
390
0
 62
               0
100
AcDbMText
 10
-26.02084999999995
 20
82.386444202880796
 30
0.0
 40
8.7312499999999993
 41
0.0
 71
               1
 72
               1
  1
56
  7
ＭＳ Ｐゴシック
 11
0.0
 21
1.0
 31
0.0
 73
               1
 44
0.8762322015334064
  0
POINT
  5
161
100
AcDbEntity
  8
Defpoints
370
               0
390
0
 62
               0
100
AcDbPoint
 10
-74.797060000000073
 20
116.05119999999988
 30
0.0
  0
POINT
  5
162
100
AcDbEntity
  8
Defpoints
370
               0
390
0
 62
               0
100
AcDbPoint
 10
-77.96440000000004
 20
60.051079999999956
 30
0.0
  0
POINT
  5
163
100
AcDbEntity
  8
Defpoints
370
               0
390
0
 62
               0
100
AcDbPoint
 10
-15.481599999999929
 20
60.051079999999956
 30
0.0
  0
ENDBLK
  5
164
100
AcDbEntity
  8
寸法
390
0
100
AcDbBlockEnd
  0
ENDSEC
  0
SECTION
  2
ENTITIES
  0
LINE
  5
165
100
AcDbEntity
  8
001
370
               5
390
0
  6
STYLE_13
 62
               7
100
AcDbLine
 10
260.0
 20
-40.0
 30
0.0
 11
-220.00000000000003
 21
-40.0
 31
0.0
  0
LINE
  5
166
100
AcDbEntity
  8
001
370
               5
390
0
 62
               7
100
AcDbLine
 10
153.03659999999985
 20
-32.496200000000158
 30
0.0
 11
153.03659999999985
 21
-47.503920000000107
 31
0.0
  0
LINE
  5
167
100
AcDbEntity
  8
001
370
               5
390
0
 62
               7
100
AcDbLine
 10
240.08107999999996
 20
-105.03332000000012
 30
0.0
 11
240.08107999999996
 21
50.045999999999935
 31
0.0
  0
LINE
  5
168
100
AcDbEntity
  8
001
370
               5
390
0
 62
               7
100
AcDbLine
 10
155.53780000000009
 20
61.831079999999929
 30
0.0
 11
155.53780000000009
 21
60.051199999999881
 31
0.0
  0
ARC
  5
169
100
AcDbEntity
  8
001
370
               5
390
0
 62
               7
100
AcDbCircle
 10
156.83848
 20
61.831079999999929
 30
0.0
 40
1.3006150545030637
100
AcDbArc
 50
106.60135187301482
 51
179.99823786623779
  0
ARC
  5
16A
100
AcDbEntity
  8
001
370
               5
390
0
 62
               7
100
AcDbCircle
 10
159.03960000000009
 20
54.448279999999954
 30
0.0
 40
9.0045761965791051
100
AcDbArc
 50
73.398025830012216
 51
106.60116972403188
  0
ARC
  5
16B
100
AcDbEntity
  8
001
370
               5
390
0
 62
               7
100
AcDbCircle
 10
161.24079999999998
 20
61.831079999999929
 30
0.0
 40
1.3006000000001166
100
AcDbArc
 50
0.0
 51
73.398648126991688
  0
LINE
  5
16C
100
AcDbEntity
  8
001
370
               5
390
0
 62
               7
100
AcDbLine
 10
162.5414000000001
 20
61.831079999999929
 30
0.0
 11
162.5414000000001
 21
60.051199999999881
 31
0.0
  0
LINE
  5
16D
100
AcDbEntity
  8
001
370
               5
390
0
 62
               7
100
AcDbLine
 10
160.02507999999983
 20
62.853199999999902
 30
0.0
 11
159.03960000000009
 21
63.452879999999823
 31
0.0
  0
LINE
  5
16E
100
AcDbEntity
  8
001
370
               5
390
0
 62
               7
100
AcDbLine
 10
157.90407999999991
 20
62.853199999999902
 30
0.0
 11
159.03960000000009
 21
63.452879999999823
 31
0.0
  0
LINE
  5
16F
100
AcDbEntity
  8
001
370
               5
390
0
 62
               7
100
AcDbLine
 10
155.53780000000009
 20
60.851599999999962
 30
0.0
 11
162.5414000000001
 21
60.851599999999962
 31
0.0
  0
LINE
  5
170
100
AcDbEntity
  8
001
370
               5
390
0
 62
               7
100
AcDbLine
 10
158.56307999999993
 20
60.051199999999881
 30
0.0
 11
159.13259999999974
 21
60.851599999999962
 31
0.0
  0
LINE
  5
171
100
AcDbEntity
  8
001
370
               5
390
0
 62
               7
100
AcDbLine
 10
159.03960000000009
 20
60.051199999999881
 30
0.0
 11
159.63128
 21
60.851599999999962
 31
0.0
  0
LINE
  5
172
100
AcDbEntity
  8
001
370
               5
390
0
 62
               7
100
AcDbLine
 10
221.57160000000005
 20
61.831079999999929
 30
0.0
 11
221.57160000000005
 21
60.051199999999881
 31
0.0
  0
ARC
  5
173
100
AcDbEntity
  8
001
370
               5
390
0
 62
               7
100
AcDbCircle
 10
222.87227999999999
 20
61.831079999999929
 30
0.0
 40
1.3006150545030719
100
AcDbArc
 50
106.60135187301601
 51
179.99823786623779
  0
ARC
  5
174
100
AcDbEntity
  8
001
370
               5
390
0
 62
               7
100
AcDbCircle
 10
225.07340000000005
 20
54.448279999999954
 30
0.0
 40
9.0045761965791051
100
AcDbArc
 50
73.398025830012216
 51
106.60116972403172
  0
ARC
  5
175
100
AcDbEntity
  8
001
370
               5
390
0
 62
               7
100
AcDbCircle
 10
227.27459999999994
 20
61.831079999999929
 30
0.0
 40
1.3006000000001166
100
AcDbArc
 50
0.0
 51
73.398648126991688
  0
LINE
  5
176
100
AcDbEntity
  8
001
370
               5
390
0
 62
               7
100
AcDbLine
 10
228.57520000000005
 20
61.831079999999929
 30
0.0
 11
228.57520000000005
 21
60.051199999999881
 31
0.0
  0
LINE
  5
177
100
AcDbEntity
  8
001
370
               5
390
0
 62
               7
100
AcDbLine
 10
226.05887999999979
 20
62.853199999999902
 30
0.0
 11
225.07340000000005
 21
63.452879999999823
 31
0.0
  0
LINE
  5
178
100
AcDbEntity
  8
001
370
               5
390
0
 62
               7
100
AcDbLine
 10
223.9378000000001
 20
62.853199999999902
 30
0.0
 11
225.07340000000005
 21
63.452879999999823
 31
0.0
  0
LINE
  5
179
100
AcDbEntity
  8
001
370
               5
390
0
 62
               7
100
AcDbLine
 10
221.57160000000005
 20
60.851599999999962
 30
0.0
 11
228.57520000000005
 21
60.851599999999962
 31
0.0
  0
LINE
  5
17A
100
AcDbEntity
  8
001
370
               5
390
0
 62
               7
100
AcDbLine
 10
224.59687999999989
 20
60.051199999999881
 30
0.0
 11
225.1664000000001
 21
60.851599999999962
 31
0.0
  0
LINE
  5
17B
100
AcDbEntity
  8
001
370
               5
390
0
 62
               7
100
AcDbLine
 10
225.07340000000005
 20
60.051199999999881
 30
0.0
 11
225.66507999999996
 21
60.851599999999962
 31
0.0
  0
ARC
  5
17C
100
AcDbEntity
  8
001
370
               5
390
0
 62
               7
100
AcDbCircle
 10
246.86359999999988
 20
-96.829120000000216
 30
0.0
 40
1.3006150545030719
100
AcDbArc
 50
16.601351873016004
 51
89.999999999999986
  0
LINE
  5
17D
100
AcDbEntity
  8
001
370
               5
390
0
 62
               7
100
AcDbLine
 10
246.86359999999988
 20
-95.528520000000071
 30
0.0
 11
245.08367999999976
 21
-95.528520000000071
 31
0.0
  0
ARC
  5
17E
100
AcDbEntity
  8
001
370
               5
390
0
 62
               7
100
AcDbCircle
 10
239.48079999999976
 20
-99.03020000000015
 30
0.0
 40
9.0045761965792419
100
AcDbArc
 50
343.39802583001256
 51
16.601169724031081
  0
LINE
  5
17F
100
AcDbEntity
  8
001
370
               5
390
0
 62
               7
100
AcDbLine
 10
247.88567999999981
 20
-98.044720000000098
 30
0.0
 11
248.48539999999997
 21
-99.03020000000015
 31
0.0
  0
LINE
  5
180
100
AcDbEntity
  8
001
370
               5
390
0
 62
               7
100
AcDbLine
 10
247.88567999999981
 20
-100.1658000000001
 30
0.0
 11
248.48539999999997
 21
-99.03020000000015
 31
0.0
  0
LINE
  5
181
100
AcDbEntity
  8
001
370
               5
390
0
 62
               7
100
AcDbLine
 10
245.88407999999984
 20
-102.53200000000015
 30
0.0
 11
245.88407999999984
 21
-95.528520000000071
 31
0.0
  0
LINE
  5
182
100
AcDbEntity
  8
001
370
               5
390
0
 62
               7
100
AcDbLine
 10
245.88407999999984
 20
-99.03020000000015
 30
0.0
 11
245.08367999999976
 21
-98.651320000000169
 31
0.0
  0
LINE
  5
183
100
AcDbEntity
  8
001
370
               5
390
0
 62
               7
100
AcDbLine
 10
245.08367999999976
 20
-99.03020000000015
 30
0.0
 11
245.88407999999984
 21
-99.47932000000003
 31
0.0
  0
ARC
  5
184
100
AcDbEntity
  8
001
370
               5
390
0
 62
               7
100
AcDbCircle
 10
246.86359999999988
 20
-101.23140000000001
 30
0.0
 40
1.300600000000145
100
AcDbArc
 50
270.0
 51
343.39864812698056
  0
LINE
  5
185
100
AcDbEntity
  8
001
370
               5
390
0
 62
               7
100
AcDbLine
 10
246.86359999999988
 20
-102.53200000000015
 30
0.0
 11
245.08367999999976
 21
-102.53200000000015
 31
0.0
  0
ARC
  5
186
100
AcDbEntity
  8
001
370
               5
390
0
 62
               7
100
AcDbCircle
 10
246.86359999999988
 20
46.244079999999826
 30
0.0
 40
1.3006150545030719
100
AcDbArc
 50
16.601351873016004
 51
89.999999999999986
  0
LINE
  5
187
100
AcDbEntity
  8
001
370
               5
390
0
 62
               7
100
AcDbLine
 10
246.86359999999988
 20
47.544799999999782
 30
0.0
 11
245.08367999999976
 21
47.544799999999782
 31
0.0
  0
ARC
  5
188
100
AcDbEntity
  8
001
370
               5
390
0
 62
               7
100
AcDbCircle
 10
239.48079999999976
 20
44.042999999999779
 30
0.0
 40
9.0045761965792419
100
AcDbArc
 50
343.39802583001256
 51
16.601169724031763
  0
LINE
  5
189
100
AcDbEntity
  8
001
370
               5
390
0
 62
               7
100
AcDbLine
 10
247.88567999999981
 20
45.028479999999945
 30
0.0
 11
248.48539999999997
 21
44.042999999999779
 31
0.0
  0
LINE
  5
18A
100
AcDbEntity
  8
001
370
               5
390
0
 62
               7
100
AcDbLine
 10
247.88567999999981
 20
42.907399999999825
 30
0.0
 11
248.48539999999997
 21
44.042999999999779
 31
0.0
  0
LINE
  5
18B
100
AcDbEntity
  8
001
370
               5
390
0
 62
               7
100
AcDbLine
 10
245.88407999999984
 20
40.541199999999776
 30
0.0
 11
245.88407999999984
 21
47.544799999999782
 31
0.0
  0
LINE
  5
18C
100
AcDbEntity
  8
001
370
               5
390
0
 62
               7
100
AcDbLine
 10
245.88407999999984
 20
44.042999999999779
 30
0.0
 11
245.08367999999976
 21
44.421999999999912
 31
0.0
  0
LINE
  5
18D
100
AcDbEntity
  8
001
370
               5
390
0
 62
               7
100
AcDbLine
 10
245.08367999999976
 20
44.042999999999779
 30
0.0
 11
245.88407999999984
 21
43.593880000000013
 31
0.0
  0
ARC
  5
18E
100
AcDbEntity
  8
001
370
               5
390
0
 62
               7
100
AcDbCircle
 10
246.86359999999988
 20
41.841799999999921
 30
0.0
 40
1.300600000000145
100
AcDbArc
 50
270.0
 51
343.4020255086204
  0
LINE
  5
18F
100
AcDbEntity
  8
001
370
               5
390
0
 62
               7
100
AcDbLine
 10
246.86359999999988
 20
40.541199999999776
 30
0.0
 11
245.08367999999976
 21
40.541199999999776
 31
0.0
  0
ARC
  5
190
100
AcDbEntity
  8
001
370
               5
390
0
 62
               7
100
AcDbCircle
 10
223.07239999999985
 20
-103.00412000000017
 30
0.0
 40
1.000480000000266
100
AcDbArc
 50
0.0
 51
88.361918247823326
  0
LINE
  5
191
100
AcDbEntity
  8
001
370
               5
390
0
 62
               7
100
AcDbLine
 10
-188.82112000000015
 20
-100.63112000000001
 30
0.0
 11
-188.82112000000015
 21
-106.03380000000016
 31
0.0
  0
LINE
  5
192
100
AcDbEntity
  8
001
370
               5
390
0
 62
               7
100
AcDbLine
 10
-94.772999999999939
 20
-100.63112000000001
 30
0.0
 11
-94.772999999999939
 21
-106.03380000000016
 31
0.0
  0
LINE
  5
193
100
AcDbEntity
  8
001
370
               5
390
0
 62
               7
100
AcDbLine
 10
-200.82731999999996
 20
-100.63112000000001
 30
0.0
 11
-200.82731999999996
 21
-106.03380000000016
 31
0.0
  0
LINE
  5
194
100
AcDbEntity
  8
001
370
               5
390
0
 62
               7
100
AcDbLine
 10
-82.766919999999999
 20
-100.63112000000001
 30
0.0
 11
-82.766919999999999
 21
-106.03380000000016
 31
0.0
  0
LINE
  5
195
100
AcDbEntity
  8
001
370
               5
390
0
 62
               7
100
AcDbLine
 10
-84.267599999999931
 20
-100.03080000000011
 30
0.0
 11
-199.32652000000016
 21
-100.03080000000011
 31
0.0
  0
LINE
  5
196
100
AcDbEntity
  8
001
370
               5
390
0
 62
               7
100
AcDbLine
 10
-78.264600000000058
 20
58.850479999999834
 30
0.0
 11
-78.264600000000058
 21
-94.027720000000045
 31
0.0
  0
LINE
  5
197
100
AcDbEntity
  8
001
370
               5
390
0
 62
               7
100
AcDbLine
 10
-205.32960000000023
 20
58.850479999999834
 30
0.0
 11
-205.32960000000023
 21
-94.027720000000045
 31
0.0
  0
LINE
  5
198
100
AcDbEntity
  8
001
370
               5
390
0
 62
               7
100
AcDbLine
 10
-94.772999999999939
 20
-100.63112000000001
 30
0.0
 11
-82.766919999999999
 21
-100.63112000000001
 31
0.0
  0
LINE
  5
199
100
AcDbEntity
  8
001
370
               5
390
0
 62
               7
100
AcDbLine
 10
-188.82112000000015
 20
-100.63112000000001
 30
0.0
 11
-200.82731999999996
 21
-100.63112000000001
 31
0.0
  0
LINE
  5
19A
100
AcDbEntity
  8
001
370
               5
390
0
 62
               7
100
AcDbLine
 10
-95.773519999999934
 20
-106.03380000000016
 30
0.0
 11
-95.773519999999934
 21
-102.03180000000009
 31
0.0
  0
LINE
  5
19B
100
AcDbEntity
  8
001
370
               5
390
0
 62
               7
100
AcDbLine
 10
-187.82060000000021
 20
-106.03380000000016
 30
0.0
 11
-187.82060000000021
 21
-102.03180000000009
 31
0.0
  0
ARC
  5
19C
100
AcDbEntity
  8
001
370
               5
390
0
 62
               7
100
AcDbCircle
 10
-199.32652000000016
 20
-94.027720000000045
 30
0.0
 40
6.0030800000000681
100
AcDbArc
 50
180.0
 51
270.0
  0
ARC
  5
19D
100
AcDbEntity
  8
001
370
               5
390
0
 62
               7
100
AcDbCircle
 10
-84.267599999999931
 20
-94.027720000000045
 30
0.0
 40
6.0030800000000681
100
AcDbArc
 50
270.0
 51
0.0
  0
LINE
  5
19E
100
AcDbEntity
  8
001
370
               5
390
0
 62
               7
100
AcDbLine
 10
-200.82731999999996
 20
-100.63112000000001
 30
0.0
 11
-201.82780000000022
 21
-101.94772000000012
 31
0.0
  0
LINE
  5
19F
100
AcDbEntity
  8
001
370
               5
390
0
 62
               7
100
AcDbLine
 10
-188.82112000000015
 20
-100.63112000000001
 30
0.0
 11
-187.82060000000021
 21
-102.03180000000009
 31
0.0
  0
LINE
  5
1A0
100
AcDbEntity
  8
001
370
               5
390
0
 62
               7
100
AcDbLine
 10
-95.773519999999934
 20
-102.03180000000009
 30
0.0
 11
-94.772999999999939
 21
-100.63112000000001
 31
0.0
  0
LINE
  5
1A1
100
AcDbEntity
  8
001
370
               5
390
0
 62
               7
100
AcDbLine
 10
-82.766919999999999
 20
-100.63112000000001
 30
0.0
 11
-81.766400000000061
 21
-101.94772000000012
 31
0.0
  0
CIRCLE
  5
1A2
100
AcDbEntity
  8
001
370
               5
390
0
 62
               7
100
AcDbCircle
 10
-181.81759999999994
 20
-40.0
 30
0.0
 40
4.0020799999998076
  0
CIRCLE
  5
1A3
100
AcDbEntity
  8
001
370
               5
390
0
 62
               7
100
AcDbCircle
 10
-101.77659999999995
 20
-40.0
 30
0.0
 40
4.0020799999998076
  0
CIRCLE
  5
1A4
100
AcDbEntity
  8
001
370
               5
390
0
 62
               7
100
AcDbCircle
 10
-141.79712000000004
 20
-40.0
 30
0.0
 40
12.506399999999871
  0
LINE
  5
1A5
100
AcDbEntity
  8
001
370
               5
390
0
 62
               7
100
AcDbLine
 10
-141.79712000000004
 20
-24.992400000000089
 30
0.0
 11
-141.79712000000004
 21
-19.989800000000173
 31
0.0
  0
ARC
  5
1A6
100
AcDbEntity
  8
001
370
               5
390
0
 62
               7
100
AcDbCircle
 10
-79.465200000000181
 20
58.850479999999834
 30
0.0
 40
1.2006000000001222
100
AcDbArc
 50
0.0
 51
90.0
  0
ARC
  5
1A7
100
AcDbEntity
  8
001
370
               5
390
0
 62
               7
100
AcDbCircle
 10
-204.1290000000001
 20
58.850479999999834
 30
0.0
 40
1.2007200000000466
100
AcDbArc
 50
90.0
 51
179.99427385774715
  0
LINE
  5
1A8
100
AcDbEntity
  8
001
370
               5
390
0
 62
               7
100
AcDbLine
 10
-205.32960000000023
 20
61.831079999999929
 30
0.0
 11
-205.32960000000023
 21
60.051199999999881
 31
0.0
  0
ARC
  5
1A9
100
AcDbEntity
  8
001
370
               5
390
0
 62
               7
100
AcDbCircle
 10
-204.02891999999994
 20
61.831079999999929
 30
0.0
 40
1.3006150545030719
100
AcDbArc
 50
106.60135187301601
 51
179.99823786623779
  0
ARC
  5
1AA
100
AcDbEntity
  8
001
370
               5
390
0
 62
               7
100
AcDbCircle
 10
-201.82780000000022
 20
54.448279999999954
 30
0.0
 40
9.0045419107470259
100
AcDbArc
 50
73.398757557738762
 51
106.60124244225861
  0
ARC
  5
1AB
100
AcDbEntity
  8
001
370
               5
390
0
 62
               7
100
AcDbCircle
 10
-199.62672000000023
 20
61.831079999999929
 30
0.0
 40
1.3007200000000125
100
AcDbArc
 50
0.0
 51
73.40015835886993
  0
LINE
  5
1AC
100
AcDbEntity
  8
001
370
               5
390
0
 62
               7
100
AcDbLine
 10
-198.32600000000022
 20
61.831079999999929
 30
0.0
 11
-198.32600000000022
 21
60.051199999999881
 31
0.0
  0
LINE
  5
1AD
100
AcDbEntity
  8
001
370
               5
390
0
 62
               7
100
AcDbLine
 10
-200.84220000000025
 20
62.853199999999902
 30
0.0
 11
-201.82772000000008
 21
63.452879999999823
 31
0.0
  0
LINE
  5
1AE
100
AcDbEntity
  8
001
370
               5
390
0
 62
               7
100
AcDbLine
 10
-202.96340000000018
 20
62.853199999999902
 30
0.0
 11
-201.82780000000022
 21
63.452879999999823
 31
0.0
  0
LINE
  5
1AF
100
AcDbEntity
  8
001
370
               5
390
0
 62
               7
100
AcDbLine
 10
-205.32960000000023
 20
60.851599999999962
 30
0.0
 11
-198.32600000000022
 21
60.851599999999962
 31
0.0
  0
LINE
  5
1B0
100
AcDbEntity
  8
001
370
               5
390
0
 62
               7
100
AcDbLine
 10
-202.30420000000012
 20
60.051199999999881
 30
0.0
 11
-201.73472000000001
 21
60.851599999999962
 31
0.0
  0
LINE
  5
1B1
100
AcDbEntity
  8
001
370
               5
390
0
 62
               7
100
AcDbLine
 10
-201.82780000000022
 20
60.051199999999881
 30
0.0
 11
-201.23611999999994
 21
60.851599999999962
 31
0.0
  0
LINE
  5
1B2
100
AcDbEntity
  8
001
370
               5
390
0
 62
               7
100
AcDbLine
 10
-85.268119999999925
 20
61.831079999999929
 30
0.0
 11
-85.268119999999925
 21
60.051199999999881
 31
0.0
  0
ARC
  5
1B3
100
AcDbEntity
  8
001
370
               5
390
0
 62
               7
100
AcDbCircle
 10
-83.967520000000121
 20
61.831079999999929
 30
0.0
 40
1.3006150545030719
100
AcDbArc
 50
106.60135187301601
 51
179.99823786623779
  0
ARC
  5
1B4
100
AcDbEntity
  8
001
370
               5
390
0
 62
               7
100
AcDbCircle
 10
-81.766400000000061
 20
54.448279999999954
 30
0.0
 40
9.0045761965791051
100
AcDbArc
 50
73.398025830012216
 51
106.60116972403206
  0
ARC
  5
1B5
100
AcDbEntity
  8
001
370
               5
390
0
 62
               7
100
AcDbCircle
 10
-79.565200000000203
 20
61.831079999999929
 30
0.0
 40
1.300600000000145
100
AcDbArc
 50
0.0
 51
73.398648126990523
  0
LINE
  5
1B6
100
AcDbEntity
  8
001
370
               5
390
0
 62
               7
100
AcDbLine
 10
-78.264600000000058
 20
61.831079999999929
 30
0.0
 11
-78.264600000000058
 21
60.051199999999881
 31
0.0
  0
LINE
  5
1B7
100
AcDbEntity
  8
001
370
               5
390
0
 62
               7
100
AcDbLine
 10
-80.780719999999945
 20
62.853199999999902
 30
0.0
 11
-81.766199999999998
 21
63.452879999999823
 31
0.0
  0
LINE
  5
1B8
100
AcDbEntity
  8
001
370
               5
390
0
 62
               7
100
AcDbLine
 10
-82.901920000000217
 20
62.853199999999902
 30
0.0
 11
-81.766400000000061
 21
63.452879999999823
 31
0.0
  0
LINE
  5
1B9
100
AcDbEntity
  8
001
370
               5
390
0
 62
               7
100
AcDbLine
 10
-85.268119999999925
 20
60.851599999999962
 30
0.0
 11
-78.264600000000058
 21
60.851599999999962
 31
0.0
  0
LINE
  5
1BA
100
AcDbEntity
  8
001
370
               5
390
0
 62
               7
100
AcDbLine
 10
-82.24279999999996
 20
60.051199999999881
 30
0.0
 11
-81.673320000000245
 21
60.851599999999962
 31
0.0
  0
LINE
  5
1BB
100
AcDbEntity
  8
001
370
               5
390
0
 62
               7
100
AcDbLine
 10
-81.766400000000061
 20
60.051199999999881
 30
0.0
 11
-81.174720000000178
 21
60.851599999999962
 31
0.0
  0
LINE
  5
1BC
100
AcDbEntity
  8
001
370
               5
390
0
 62
               7
100
AcDbLine
 10
-84.267599999999931
 20
-109.62320000000007
 30
0.0
 11
-84.267599999999931
 21
-108.33520000000006
 31
0.0
  0
ARC
  5
1BD
100
AcDbEntity
  8
001
370
               5
390
0
 62
               7
100
AcDbCircle
 10
-85.868400000000094
 20
-109.62332000000011
 30
0.0
 40
1.6007819209375036
100
AcDbArc
 50
286.1923996259157
 51
0.0
  0
ARC
  5
1BE
100
AcDbEntity
  8
001
370
               5
390
0
 62
               7
100
AcDbCircle
 10
-88.769919999999928
 20
-99.630720000000181
 30
0.0
 40
12.006099837532641
100
AcDbArc
 50
253.80852294740299
 51
286.19166036975082
  0
ARC
  5
1BF
100
AcDbEntity
  8
001
370
               5
390
0
 62
               7
100
AcDbCircle
 10
-91.671399999999977
 20
-109.62332000000011
 30
0.0
 40
1.600800000000163
100
AcDbArc
 50
180.0
 51
253.80760037408177
  0
LINE
  5
1C0
100
AcDbEntity
  8
001
370
               5
390
0
 62
               7
100
AcDbLine
 10
-93.27220000000014
 20
-109.62320000000007
 30
0.0
 11
-93.27220000000014
 21
-108.33520000000006
 31
0.0
  0
LINE
  5
1C1
100
AcDbEntity
  8
001
370
               5
390
0
 62
               7
100
AcDbLine
 10
-90.167399999999901
 20
-111.07700000000007
 30
0.0
 11
-88.769800000000004
 21
-111.6369200000001
 31
0.0
  0
LINE
  5
1C2
100
AcDbEntity
  8
001
370
               5
390
0
 62
               7
100
AcDbLine
 10
-87.280199999999951
 20
-111.07700000000007
 30
0.0
 11
-88.769919999999928
 21
-111.6369200000001
 31
0.0
  0
LINE
  5
1C3
100
AcDbEntity
  8
001
370
               5
390
0
 62
               7
100
AcDbLine
 10
-190.32191999999995
 20
-109.62320000000007
 30
0.0
 11
-190.32191999999995
 21
-108.33520000000006
 31
0.0
  0
ARC
  5
1C4
100
AcDbEntity
  8
001
370
               5
390
0
 62
               7
100
AcDbCircle
 10
-191.92272000000011
 20
-109.62332000000011
 30
0.0
 40
1.6007819209375036
100
AcDbArc
 50
286.1923996259157
 51
0.0
  0
ARC
  5
1C5
100
AcDbEntity
  8
001
370
               5
390
0
 62
               7
100
AcDbCircle
 10
-194.82420000000022
 20
-99.630720000000181
 30
0.0
 40
12.00611099152427
100
AcDbArc
 50
253.8083396302498
 51
286.1916603697519
  0
ARC
  5
1C6
100
AcDbEntity
  8
001
370
               5
390
0
 62
               7
100
AcDbCircle
 10
-197.72572
 20
-109.62332000000011
 30
0.0
 40
1.600800000000163
100
AcDbArc
 50
180.0
 51
253.80799961224699
  0
LINE
  5
1C7
100
AcDbEntity
  8
001
370
               5
390
0
 62
               7
100
AcDbLine
 10
-199.32652000000016
 20
-109.62320000000007
 30
0.0
 11
-199.32652000000016
 21
-108.33520000000006
 31
0.0
  0
LINE
  5
1C8
100
AcDbEntity
  8
001
370
               5
390
0
 62
               7
100
AcDbLine
 10
-196.22160000000005
 20
-111.07700000000007
 30
0.0
 11
-194.82412000000008
 21
-111.6369200000001
 31
0.0
  0
LINE
  5
1C9
100
AcDbEntity
  8
001
370
               5
390
0
 62
               7
100
AcDbLine
 10
-193.33451999999997
 20
-111.07700000000007
 30
0.0
 11
-194.82420000000022
 21
-111.6369200000001
 31
0.0
  0
CIRCLE
  5
1CA
100
AcDbEntity
  8
001
370
               5
390
0
 62
               7
100
AcDbCircle
 10
-101.77659999999995
 20
-40.0
 30
0.0
 40
3.5018000000000029
  0
CIRCLE
  5
1CB
100
AcDbEntity
  8
001
370
               5
390
0
 62
               7
100
AcDbCircle
 10
-181.81759999999994
 20
-40.0
 30
0.0
 40
3.5018000000000029
  0
LINE
  5
1CC
100
AcDbEntity
  8
001
370
               5
390
0
  6
STYLE_13
 62
               7
100
AcDbLine
 10
-88.769919999999928
 20
-94.031920000000014
 30
0.0
 11
-88.769919999999928
 21
-114.94780000000014
 31
0.0
  0
LINE
  5
1CD
100
AcDbEntity
  8
001
370
               5
390
0
  6
STYLE_13
 62
               7
100
AcDbLine
 10
-194.82420000000022
 20
-93.283000000000015
 30
0.0
 11
-194.82420000000022
 21
-114.68220000000008
 31
0.0
  0
LINE
  5
1CE
100
AcDbEntity
  8
001
370
               5
390
0
  6
STYLE_13
 62
               7
100
AcDbLine
 10
-181.81759999999994
 20
-33.800120000000106
 30
0.0
 11
-181.81759999999994
 21
-46.370920000000183
 31
0.0
  0
LINE
  5
1CF
100
AcDbEntity
  8
001
370
               5
390
0
  6
STYLE_13
 62
               7
100
AcDbLine
 10
-101.77659999999995
 20
-33.123600000000124
 30
0.0
 11
-101.77659999999995
 21
-46.695200000000114
 31
0.0
  0
LINE
  5
1D0
100
AcDbEntity
  8
001
370
               5
390
0
  6
STYLE_13
 62
               7
100
AcDbLine
 10
-201.82780000000022
 20
66.56959999999998
 30
0.0
 11
-201.82780000000022
 21
48.112199999999916
 31
0.0
  0
LINE
  5
1D1
100
AcDbEntity
  8
001
370
               5
390
0
  6
STYLE_13
 62
               7
100
AcDbLine
 10
-81.766400000000061
 20
66.993679999999927
 30
0.0
 11
-81.766400000000061
 21
42.949599999999919
 31
0.0
  0
LINE
  5
1D2
100
AcDbEntity
  8
001
370
               5
390
0
  6
STYLE_13
 62
               7
100
AcDbLine
 10
159.03960000000009
 20
67.028199999999913
 30
0.0
 11
159.03960000000009
 21
45.183199999999829
 31
0.0
  0
LINE
  5
1D3
100
AcDbEntity
  8
001
370
               5
390
0
  6
STYLE_13
 62
               7
100
AcDbLine
 10
225.07340000000005
 20
66.375999999999806
 30
0.0
 11
225.07340000000005
 21
44.682279999999992
 31
0.0
  0
LINE
  5
1D4
100
AcDbEntity
  8
001
370
               5
390
0
  6
STYLE_13
 62
               7
100
AcDbLine
 10
227.58467999999996
 20
44.042999999999779
 30
0.0
 11
251.2529999999999
 21
44.042999999999779
 31
0.0
  0
LINE
  5
1D5
100
AcDbEntity
  8
001
370
               5
390
0
  6
STYLE_13
 62
               7
100
AcDbLine
 10
250.89460000000003
 20
-99.03020000000015
 30
0.0
 11
226.82788000000002
 21
-99.03020000000015
 31
0.0
  0
LINE
  5
1D6
100
AcDbEntity
  8
001
370
               5
390
0
 62
               7
100
AcDbLine
 10
245.08367999999976
 20
48.044999999999845
 30
0.0
 11
314.27907999999991
 21
46.199879999999894
 31
0.0
  0
ARC
  5
1D7
100
AcDbEntity
  8
001
370
               5
390
0
 62
               7
100
AcDbCircle
 10
244.08319999999986
 20
49.045479999999884
 30
0.0
 40
1.0004799999998966
100
AcDbArc
 50
0.0
 51
90.0
  0
LINE
  5
1D8
100
AcDbEntity
  8
001
370
               5
390
0
 62
               7
100
AcDbLine
 10
244.08319999999986
 20
50.045999999999935
 30
0.0
 11
230.07599999999985
 21
50.045999999999935
 31
0.0
  0
ARC
  5
1D9
100
AcDbEntity
  8
001
370
               5
390
0
 62
               7
100
AcDbCircle
 10
228.8754000000001
 20
58.850479999999834
 30
0.0
 40
1.2005999999997528
100
AcDbArc
 50
0.0
 51
90.0
  0
LINE
  5
1DA
100
AcDbEntity
  8
001
370
               5
390
0
 62
               7
100
AcDbLine
 10
228.8754000000001
 20
60.051199999999881
 30
0.0
 11
155.23767999999984
 21
60.051199999999881
 31
0.0
  0
ARC
  5
1DB
100
AcDbEntity
  8
001
370
               5
390
0
 62
               7
100
AcDbCircle
 10
155.23767999999984
 20
58.850479999999834
 30
0.0
 40
1.2007200000000466
100
AcDbArc
 50
90.0
 51
179.99427385774715
  0
LINE
  5
1DC
100
AcDbEntity
  8
001
370
               5
390
0
 62
               7
100
AcDbLine
 10
154.03708000000009
 20
58.850479999999834
 30
0.0
 11
154.03708000000009
 21
-94.196800000000053
 31
0.0
  0
LINE
  5
1DD
100
AcDbEntity
  8
001
370
               5
390
0
 62
               7
100
AcDbLine
 10
153.03659999999985
 20
-32.496200000000158
 30
0.0
 11
154.03708000000009
 21
-32.496200000000158
 31
0.0
  0
LINE
  5
1DE
100
AcDbEntity
  8
001
370
               5
390
0
 62
               7
100
AcDbLine
 10
153.03659999999985
 20
-32.496200000000158
 30
0.0
 11
152.03607999999988
 21
-33.496720000000096
 31
0.0
  0
LINE
  5
1DF
100
AcDbEntity
  8
001
370
               5
390
0
 62
               7
100
AcDbLine
 10
152.03607999999988
 20
-33.496720000000096
 30
0.0
 11
152.03607999999988
 21
-46.50340000000017
 31
0.0
  0
LINE
  5
1E0
100
AcDbEntity
  8
001
370
               5
390
0
 62
               7
100
AcDbLine
 10
153.03659999999985
 20
-47.503920000000107
 30
0.0
 11
152.03607999999988
 21
-46.50340000000017
 31
0.0
  0
LINE
  5
1E1
100
AcDbEntity
  8
001
370
               5
390
0
 62
               7
100
AcDbLine
 10
153.03659999999985
 20
-47.503920000000107
 30
0.0
 11
154.03708000000009
 21
-47.503920000000107
 31
0.0
  0
ARC
  5
1E2
100
AcDbEntity
  8
001
370
               5
390
0
 62
               7
100
AcDbCircle
 10
160.04019999999986
 20
-94.196800000000053
 30
0.0
 40
6.0031199999997682
100
AcDbArc
 50
180.0
 51
268.36273604792115
  0
ARC
  5
1E3
100
AcDbEntity
  8
001
370
               5
390
0
 62
               7
100
AcDbCircle
 10
168.04419999999993
 20
-102.43280000000016
 30
0.0
 40
2.0010800000000017
100
AcDbArc
 50
0.0
 51
88.362016465448164
  0
LINE
  5
1E4
100
AcDbEntity
  8
001
370
               5
390
0
 62
               7
100
AcDbLine
 10
170.04527999999993
 20
-102.43280000000016
 30
0.0
 11
170.04527999999993
 21
-106.03380000000016
 31
0.0
  0
LINE
  5
1E5
100
AcDbEntity
  8
001
370
               5
390
0
 62
               7
100
AcDbLine
 10
168.04419999999993
 20
-106.03380000000016
 30
0.0
 11
248.08519999999993
 21
-106.03380000000016
 31
0.0
  0
LINE
  5
1E6
100
AcDbEntity
  8
001
370
               5
390
0
 62
               7
100
AcDbLine
 10
168.04419999999993
 20
-106.03380000000016
 30
0.0
 11
168.04419999999993
 21
-114.0379200000001
 31
0.0
  0
LINE
  5
1E7
100
AcDbEntity
  8
001
370
               5
390
0
 62
               7
100
AcDbLine
 10
168.04419999999993
 20
-111.4366
 30
0.0
 11
248.08519999999993
 21
-111.4366
 31
0.0
  0
LINE
  5
1E8
100
AcDbEntity
  8
001
370
               5
390
0
 62
               7
100
AcDbLine
 10
168.04419999999993
 20
-114.0379200000001
 30
0.0
 11
248.08519999999993
 21
-114.0379200000001
 31
0.0
  0
ARC
  5
1E9
100
AcDbEntity
  8
001
370
               5
390
0
 62
               7
100
AcDbCircle
 10
244.08319999999986
 20
-104.03280000000018
 30
0.0
 40
1.0005199999999377
100
AcDbArc
 50
270.0
 51
0.0
  0
LINE
  5
1EA
100
AcDbEntity
  8
001
370
               5
390
0
 62
               7
100
AcDbLine
 10
248.08519999999993
 20
-106.03380000000016
 30
0.0
 11
248.08519999999993
 21
-114.0379200000001
 31
0.0
  0
LINE
  5
1EB
100
AcDbEntity
  8
001
370
               5
390
0
 62
               7
100
AcDbLine
 10
245.08367999999976
 20
-103.03232000000014
 30
0.0
 11
314.27907999999991
 21
-101.18720000000019
 31
0.0
  0
ARC
  5
1EC
100
AcDbEntity
  8
001
370
               5
390
0
 62
               7
100
AcDbCircle
 10
314.11899999999991
 20
-95.186200000000099
 30
0.0
 40
6.0031325989020958
100
AcDbArc
 50
271.52727101763082
 51
0.0
  0
LINE
  5
1ED
100
AcDbEntity
  8
001
370
               5
390
0
 62
               7
100
AcDbLine
 10
320.12207999999993
 20
-95.186200000000099
 30
0.0
 11
320.12207999999993
 21
40.198879999999917
 31
0.0
  0
ARC
  5
1EE
100
AcDbEntity
  8
001
370
               5
390
0
 62
               7
100
AcDbCircle
 10
314.11899999999991
 20
40.198879999999917
 30
0.0
 40
6.0030800000000113
100
AcDbArc
 50
0.0
 51
88.47271880701426
  0
LINE
  5
1EF
100
AcDbEntity
  8
001
370
               5
390
0
 62
               7
100
AcDbLine
 10
154.03708000000009
 20
52.047079999999937
 30
0.0
 11
230.07599999999985
 21
52.047079999999937
 31
0.0
  0
CIRCLE
  5
1F0
100
AcDbEntity
  8
001
370
               5
390
0
 62
               7
100
AcDbCircle
 10
192.05648000000002
 20
32.036799999999857
 30
0.0
 40
10.505400000000009
  0
LINE
  5
1F1
100
AcDbEntity
  8
001
370
               5
390
0
 62
               7
100
AcDbLine
 10
-76.763799999999918
 20
58.850479999999834
 30
0.0
 11
-76.763799999999918
 21
-96.028720000000135
 31
0.0
  0
ARC
  5
1F2
100
AcDbEntity
  8
001
370
               5
390
0
 62
               7
100
AcDbCircle
 10
-77.96440000000004
 20
58.850479999999834
 30
0.0
 40
1.2006000000001222
100
AcDbArc
 50
0.0
 51
90.0
  0
ARC
  5
1F3
100
AcDbEntity
  8
001
370
               5
390
0
 62
               7
100
AcDbCircle
 10
-82.766919999999999
 20
-96.028720000000135
 30
0.0
 40
6.0031632420250265
100
AcDbArc
 50
279.59399846558051
 51
0.0
  0
LINE
  5
1F4
100
AcDbEntity
  8
001
370
               5
390
0
 62
               7
100
AcDbLine
 10
-81.766400000000061
 20
-101.94792000000018
 30
0.0
 11
-81.766400000000061
 21
-105.97752000000003
 31
0.0
  0
ARC
  5
1F5
100
AcDbEntity
  8
001
370
               5
390
0
 62
               7
100
AcDbCircle
 10
-81.766400000000061
 20
-108.63520000000005
 30
0.0
 40
2.6013911183058016
100
AcDbArc
 50
33.769724358738436
 51
89.998238001704209
  0
LINE
  5
1F6
100
AcDbEntity
  8
001
370
               5
390
0
 62
               7
100
AcDbLine
 10
-76.763799999999918
 20
-111.73920000000014
 30
0.0
 11
-79.603919999999931
 21
-107.18920000000014
 31
0.0
  0
LINE
  5
1F7
100
AcDbEntity
  8
001
370
               5
390
0
 62
               7
100
AcDbLine
 10
-59.254800000000245
 20
-111.7366
 30
0.0
 11
-76.763799999999918
 21
-111.7366
 31
0.0
  0
LINE
  5
1F8
100
AcDbEntity
  8
001
370
               5
390
0
 62
               7
100
AcDbLine
 10
-76.763799999999918
 20
-114.0379200000001
 30
0.0
 11
-59.254800000000245
 21
-114.0379200000001
 31
0.0
  0
ARC
  5
1F9
100
AcDbEntity
  8
001
370
               5
390
0
 62
               7
100
AcDbCircle
 10
-76.763799999999918
 20
-111.4366
 30
0.0
 40
2.6012801476199687
100
AcDbArc
 50
213.76923904351946
 51
270.0
  0
LINE
  5
1FA
100
AcDbEntity
  8
001
370
               5
390
0
 62
               7
100
AcDbLine
 10
-81.766199999999998
 20
-108.33252000000012
 30
0.0
 11
-78.92620000000025
 21
-112.88252000000011
 31
0.0
  0
LINE
  5
1FB
100
AcDbEntity
  8
001
370
               5
390
0
 62
               7
100
AcDbLine
 10
-201.82780000000022
 20
-108.33520000000006
 30
0.0
 11
-81.766400000000061
 21
-108.33520000000006
 31
0.0
  0
LINE
  5
1FC
100
AcDbEntity
  8
001
370
               5
390
0
 62
               7
100
AcDbLine
 10
-201.82780000000022
 20
-106.03380000000016
 30
0.0
 11
-81.766400000000061
 21
-106.03380000000016
 31
0.0
  0
LINE
  5
1FD
100
AcDbEntity
  8
001
370
               5
390
0
 62
               7
100
AcDbLine
 10
-206.83020000000002
 20
-111.73920000000014
 30
0.0
 11
-203.99020000000021
 21
-107.18920000000014
 31
0.0
  0
LINE
  5
1FE
100
AcDbEntity
  8
001
370
               5
390
0
 62
               7
100
AcDbLine
 10
-201.82780000000022
 20
-108.33252000000012
 30
0.0
 11
-204.66792000000024
 21
-112.88252000000011
 31
0.0
  0
ARC
  5
1FF
100
AcDbEntity
  8
001
370
               5
390
0
 62
               7
100
AcDbCircle
 10
-206.83040000000003
 20
-111.4366
 30
0.0
 40
2.6013200000001007
100
AcDbArc
 50
270.0
 51
326.2312506756258
  0
LINE
  5
200
100
AcDbEntity
  8
001
370
               5
390
0
 62
               7
100
AcDbLine
 10
-206.83040000000003
 20
-114.0379200000001
 30
0.0
 11
-224.33932000000024
 21
-114.0379200000001
 31
0.0
  0
LINE
  5
201
100
AcDbEntity
  8
001
370
               5
390
0
 62
               7
100
AcDbLine
 10
-224.33932000000024
 20
-111.7366
 30
0.0
 11
-206.83040000000003
 21
-111.7366
 31
0.0
  0
ARC
  5
202
100
AcDbEntity
  8
001
370
               5
390
0
 62
               7
100
AcDbCircle
 10
-200.82731999999996
 20
-96.028720000000135
 30
0.0
 40
6.0030800000000681
100
AcDbArc
 50
180.0
 51
260.40625071297734
  0
LINE
  5
203
100
AcDbEntity
  8
001
370
               5
390
0
 62
               7
100
AcDbLine
 10
-201.82780000000022
 20
-106.03380000000016
 30
0.0
 11
-201.82780000000022
 21
-101.94772000000012
 31
0.0
  0
LINE
  5
204
100
AcDbEntity
  8
001
370
               5
390
0
 62
               7
100
AcDbLine
 10
-206.83040000000003
 20
58.850479999999834
 30
0.0
 11
-206.83040000000003
 21
-96.028720000000135
 31
0.0
  0
ARC
  5
205
100
AcDbEntity
  8
001
370
               5
390
0
 62
               7
100
AcDbCircle
 10
-205.62972000000011
 20
58.850479999999834
 30
0.0
 40
1.2007200000000466
100
AcDbArc
 50
90.0
 51
179.99427385774715
  0
CIRCLE
  5
206
100
AcDbEntity
  8
001
370
               5
390
0
 62
               7
100
AcDbCircle
 10
-141.79712000000004
 20
-40.0
 30
0.0
 40
7.5039199999999369
  0
ARC
  5
207
100
AcDbEntity
  8
001
370
               5
390
0
 62
               7
100
AcDbCircle
 10
-201.82780000000022
 20
-108.63520000000005
 30
0.0
 40
2.6013999999998987
100
AcDbArc
 50
90.0
 51
146.23027564125769
  0
LINE
  5
208
100
AcDbEntity
  8
001
370
               5
390
0
 62
               7
100
AcDbLine
 10
-187.82060000000021
 20
-102.03180000000009
 30
0.0
 11
-95.773519999999934
 21
-102.03180000000009
 31
0.0
  0
LINE
  5
209
100
AcDbEntity
  8
001
370
               5
390
0
 62
               7
100
AcDbLine
 10
168.10139999999996
 20
-100.43272000000013
 30
0.0
 11
159.86879999999985
 21
-100.19752000000005
 31
0.0
  0
LINE
  5
20A
100
AcDbEntity
  8
001
370
               5
390
0
 62
               7
100
AcDbLine
 10
230.07599999999985
 20
-105.03332000000012
 30
0.0
 11
244.08319999999986
 21
-105.03332000000012
 31
0.0
  0
LINE
  5
20B
100
AcDbEntity
  8
001
370
               5
390
0
 62
               7
100
AcDbLine
 10
230.07599999999985
 20
-105.03332000000012
 30
0.0
 11
230.07599999999985
 21
-106.03380000000016
 31
0.0
  0
LINE
  5
20C
100
AcDbEntity
  8
001
370
               5
390
0
 62
               7
100
AcDbLine
 10
245.08367999999976
 20
-103.03232000000014
 30
0.0
 11
245.08367999999976
 21
-104.03280000000018
 31
0.0
  0
LINE
  5
20D
100
AcDbEntity
  8
001
370
               5
390
0
 62
               7
100
AcDbLine
 10
245.08367999999976
 20
48.044999999999845
 30
0.0
 11
245.08367999999976
 21
49.045479999999884
 31
0.0
  0
LINE
  5
20E
100
AcDbEntity
  8
001
370
               5
390
0
 62
               7
100
AcDbLine
 10
230.07599999999985
 20
50.045999999999935
 30
0.0
 11
230.07599999999985
 21
58.850479999999834
 31
0.0
  0
LINE
  5
20F
100
AcDbEntity
  8
001
370
               5
390
0
 62
               7
100
AcDbLine
 10
230.07599999999985
 20
50.045999999999935
 30
0.0
 11
230.07599999999985
 21
-105.03332000000012
 31
0.0
  0
LINE
  5
210
100
AcDbEntity
  8
001
370
               5
390
0
 62
               7
100
AcDbLine
 10
245.08367999999976
 20
48.044999999999845
 30
0.0
 11
245.08367999999976
 21
-103.03232000000014
 31
0.0
  0
LINE
  5
211
100
AcDbEntity
  8
001
370
               5
390
0
 62
               7
100
AcDbLine
 10
224.07288000000011
 20
-103.03232000000014
 30
0.0
 11
224.07288000000011
 21
-98.029720000000111
 31
0.0
  0
ARC
  5
212
100
AcDbEntity
  8
001
370
               5
390
0
 62
               7
100
AcDbCircle
 10
226.07387999999995
 20
-103.03232000000014
 30
0.0
 40
2.0009999999998342
100
AcDbArc
 50
180.0
 51
270.00114534292084
  0
LINE
  5
213
100
AcDbEntity
  8
001
370
               5
390
0
 62
               7
100
AcDbLine
 10
230.07599999999985
 20
-105.03332000000012
 30
0.0
 11
226.07387999999995
 21
-105.03332000000012
 31
0.0
  0
LINE
  5
214
100
AcDbEntity
  8
001
370
               5
390
0
 62
               7
100
AcDbLine
 10
168.10139999999996
 20
-100.43260000000009
 30
0.0
 11
223.10087999999999
 21
-102.00400000000013
 31
0.0
  0
LINE
  5
215
100
AcDbEntity
  8
001
370
               5
390
0
  6
STYLE_12
 62
               7
100
AcDbLine
 10
150.03499999999988
 20
-33.997000000000185
 30
0.0
 11
150.03499999999988
 21
-36.498199999999997
 31
0.0
  0
LINE
  5
216
100
AcDbEntity
  8
001
370
               5
390
0
  6
STYLE_13
 62
               7
100
AcDbLine
 10
-215.8552
 20
32.036799999999857
 30
0.0
 11
-199.34531999999999
 21
32.036799999999857
 31
0.0
  0
LINE
  5
217
100
AcDbEntity
  8
001
370
               5
390
0
  6
STYLE_13
 62
               7
100
AcDbLine
 10
-68.426000000000187
 20
32.036799999999857
 30
0.0
 11
-87.820600000000212
 21
32.036799999999857
 31
0.0
  0
LINE
  5
218
100
AcDbEntity
  8
001
370
               5
390
0
  6
STYLE_06
 62
               7
100
AcDbLine
 10
192.05648000000002
 20
68.890079999999898
 30
0.0
 11
192.05648000000002
 21
17.019079999999803
 31
0.0
  0
LINE
  5
219
100
AcDbEntity
  8
001
370
               5
390
0
  6
STYLE_06
 62
               7
100
AcDbLine
 10
169.18639999999979
 20
32.036799999999857
 30
0.0
 11
208.73367999999977
 21
32.036799999999857
 31
0.0
  0
LINE
  5
21A
100
AcDbEntity
  8
001
370
               5
390
0
  6
STYLE_13
 62
               7
100
AcDbLine
 10
-141.79712000000004
 20
87.7503999999999
 30
0.0
 11
-141.79712000000004
 21
-120.02632000000017
 31
0.0
  0
LINE
  5
21B
100
AcDbEntity
  8
001
370
               5
390
0
  6
STYLE_13
 62
               7
100
AcDbLine
 10
238.08007999999975
 20
-120.09512000000018
 30
0.0
 11
238.08007999999975
 21
-101.90860000000009
 31
0.0
  0
LINE
  5
21C
100
AcDbEntity
  8
001
370
               5
390
0
  6
STYLE_13
 62
               7
100
AcDbLine
 10
178.04939999999988
 20
-103.73180000000013
 30
0.0
 11
178.04939999999988
 21
-121.0408000000001
 31
0.0
  0
LINE
  5
21D
100
AcDbEntity
  8
001
370
               5
390
0
  6
STYLE_06
 62
               7
100
AcDbLine
 10
-214.3342000000001
 20
-105.71832000000018
 30
0.0
 11
-214.3342000000001
 21
-120.57912000000022
 31
0.0
  0
LINE
  5
21E
100
AcDbEntity
  8
001
370
               5
390
0
  6
STYLE_06
 62
               7
100
AcDbLine
 10
-69.26000000000019
 20
-105.93912
 30
0.0
 11
-69.26000000000019
 21
-120.86392000000012
 31
0.0
  0
LINE
  5
21F
100
AcDbEntity
  8
001
370
               5
390
0
 62
               7
100
AcDbLine
 10
-141.79712000000004
 20
47.550399999999854
 30
0.0
 11
-148.30040000000011
 21
43.795599999999808
 31
0.0
  0
LINE
  5
220
100
AcDbEntity
  8
001
370
               5
390
0
 62
               7
100
AcDbLine
 10
-148.30040000000011
 20
36.286199999999894
 30
0.0
 11
-141.79712000000004
 21
32.53147999999976
 31
0.0
  0
CIRCLE
  5
221
100
AcDbEntity
  8
001
370
               5
390
0
 62
               7
100
AcDbCircle
 10
-141.79712000000004
 20
40.040879999999902
 30
0.0
 40
8.0041200000000003
  0
ARC
  5
222
100
AcDbEntity
  8
001
370
               5
390
0
 62
               7
100
AcDbCircle
 10
-141.79712000000004
 20
40.040879999999902
 30
0.0
 40
7.0035318117648329
100
AcDbArc
 50
218.21288000332339
 51
261.78701279303073
  0
ARC
  5
223
100
AcDbEntity
  8
001
370
               5
390
0
 62
               7
100
AcDbCircle
 10
-141.79712000000004
 20
40.040879999999902
 30
0.0
 40
7.0036284503391357
100
AcDbArc
 50
98.212893713829487
 51
141.78609154001708
  0
CIRCLE
  5
224
100
AcDbEntity
  8
001
370
               5
390
0
 62
               7
100
AcDbCircle
 10
-141.79712000000004
 20
40.040879999999902
 30
0.0
 40
6.2531999999999357
  0
LINE
  5
225
100
AcDbEntity
  8
001
370
               5
390
0
 62
               7
100
AcDbLine
 10
-135.29372000000004
 20
43.795599999999808
 30
0.0
 11
-141.79712000000004
 21
47.550399999999854
 31
0.0
  0
LINE
  5
226
100
AcDbEntity
  8
001
370
               5
390
0
 62
               7
100
AcDbLine
 10
-141.79712000000004
 20
32.53147999999976
 30
0.0
 11
-135.29372000000004
 21
36.286199999999894
 31
0.0
  0
ARC
  5
227
100
AcDbEntity
  8
001
370
               5
390
0
 62
               7
100
AcDbCircle
 10
-141.79712000000004
 20
40.040879999999902
 30
0.0
 40
7.0035565552367283
100
AcDbArc
 50
38.213137120216068
 51
81.786688910962994
  0
ARC
  5
228
100
AcDbEntity
  8
001
370
               5
390
0
 62
               7
100
AcDbCircle
 10
-141.79712000000004
 20
40.040879999999902
 30
0.0
 40
7.0035153953425695
100
AcDbArc
 50
278.21335783819103
 51
321.78711999667576
  0
LINE
  5
229
100
AcDbEntity
  8
001
370
               5
390
0
 62
               7
100
AcDbLine
 10
-135.29372000000004
 20
36.286199999999894
 30
0.0
 11
-135.29372000000004
 21
43.795599999999808
 31
0.0
  0
ARC
  5
22A
100
AcDbEntity
  8
001
370
               5
390
0
 62
               7
100
AcDbCircle
 10
-141.79712000000004
 20
40.040879999999902
 30
0.0
 40
7.0036484720465726
100
AcDbArc
 50
338.21347813704676
 51
21.787554896371265
  0
LINE
  5
22B
100
AcDbEntity
  8
001
370
               5
390
0
 62
               7
100
AcDbLine
 10
-148.30040000000011
 20
43.795599999999808
 30
0.0
 11
-148.30040000000011
 21
36.286199999999894
 31
0.0
  0
ARC
  5
22C
100
AcDbEntity
  8
001
370
               5
390
0
 62
               7
100
AcDbCircle
 10
-141.79712000000004
 20
40.040879999999902
 30
0.0
 40
7.0035370434089437
100
AcDbArc
 50
158.21311377324659
 51
201.78688622675347
  0
ARC
  5
22D
100
AcDbEntity
  8
001
370
               5
390
0
 62
               7
100
AcDbCircle
 10
-141.79712000000004
 20
-51.505920000000174
 30
0.0
 40
15.00761472341315
100
AcDbArc
 50
176.18734731362099
 51
1.9100071409414454
  0
LINE
  5
22E
100
AcDbEntity
  8
001
370
               5
390
0
 62
               7
100
AcDbLine
 10
-152.79660000000004
 20
68.92167999999981
 30
0.0
 11
-156.80460000000025
 21
-51.505920000000174
 31
0.0
  0
CIRCLE
  5
22F
100
AcDbEntity
  8
001
370
               5
390
0
 62
               7
100
AcDbCircle
 10
-141.79712000000004
 20
-40.0
 30
0.0
 40
12.506399999999871
  0
LINE
  5
230
100
AcDbEntity
  8
001
370
               5
390
0
 62
               7
100
AcDbLine
 10
-126.79772000000011
 20
-51.00572000000011
 30
0.0
 11
-130.79760000000024
 21
68.922279999999944
 31
0.0
  0
LINE
  5
231
100
AcDbEntity
  8
001
370
               5
390
0
 62
               7
100
AcDbLine
 10
-137.7950000000001
 20
-14.48700000000008
 30
0.0
 11
-137.7950000000001
 21
33.109199999999873
 31
0.0
  0
ARC
  5
232
100
AcDbEntity
  8
001
370
               5
390
0
 62
               7
100
AcDbCircle
 10
-141.79712000000004
 20
-14.48700000000008
 30
0.0
 40
4.0020000000000095
100
AcDbArc
 50
180.0
 51
0.0
  0
LINE
  5
233
100
AcDbEntity
  8
001
370
               5
390
0
 62
               7
100
AcDbLine
 10
-145.79912000000004
 20
-14.48700000000008
 30
0.0
 11
-145.79912000000004
 21
33.109199999999873
 31
0.0
  0
LINE
  5
234
100
AcDbEntity
  8
001
370
               5
390
0
 62
               7
100
AcDbLine
 10
-136.79452000000023
 20
-37.111920000000168
 30
0.0
 11
-141.79712000000004
 21
-34.223600000000147
 31
0.0
  0
LINE
  5
235
100
AcDbEntity
  8
001
370
               5
390
0
 62
               7
100
AcDbLine
 10
-141.79712000000004
 20
-34.223600000000147
 30
0.0
 11
-146.79959999999991
 21
-37.111920000000168
 31
0.0
  0
LINE
  5
236
100
AcDbEntity
  8
001
370
               5
390
0
 62
               7
100
AcDbLine
 10
-146.79959999999991
 20
-37.111800000000017
 30
0.0
 11
-146.79959999999991
 21
-42.888320000000022
 31
0.0
  0
LINE
  5
237
100
AcDbEntity
  8
001
370
               5
390
0
 62
               7
100
AcDbLine
 10
-146.79959999999991
 20
-42.888200000000211
 30
0.0
 11
-141.79712000000004
 21
-45.776520000000232
 31
0.0
  0
LINE
  5
238
100
AcDbEntity
  8
001
370
               5
390
0
 62
               7
100
AcDbLine
 10
-141.79712000000004
 20
-45.776520000000232
 30
0.0
 11
-136.79452000000023
 21
-42.888200000000211
 31
0.0
  0
ARC
  5
239
100
AcDbEntity
  8
001
370
               5
390
0
 62
               7
100
AcDbCircle
 10
-141.79712000000004
 20
68.555479999999989
 30
0.0
 40
11.005638124016039
100
AcDbArc
 50
1.9105538144602765
 51
178.09361563892097
  0
ARC
  5
23A
100
AcDbEntity
  8
001
370
               5
390
0
 62
               7
100
AcDbCircle
 10
-141.79712000000004
 20
64.553479999999922
 30
0.0
 40
4.002119999999934
100
AcDbArc
 50
0.0
 51
179.99942734571306
  0
LINE
  5
23B
100
AcDbEntity
  8
001
370
               5
390
0
 62
               7
100
AcDbLine
 10
-137.7950000000001
 20
64.553479999999922
 30
0.0
 11
-137.7950000000001
 21
46.972679999999855
 31
0.0
  0
LINE
  5
23C
100
AcDbEntity
  8
001
370
               5
390
0
 62
               7
100
AcDbLine
 10
-145.79912000000004
 20
64.553479999999922
 30
0.0
 11
-145.79912000000004
 21
46.972679999999855
 31
0.0
  0
CIRCLE
  5
23D
100
AcDbEntity
  8
001
370
               5
390
0
 62
               7
100
AcDbCircle
 10
-141.79712000000004
 20
-40.0
 30
0.0
 40
5.0025999999998021
  0
LINE
  5
23E
100
AcDbEntity
  8
001
370
               5
390
0
 62
               7
100
AcDbLine
 10
-136.79452000000023
 20
-42.888320000000022
 30
0.0
 11
-136.79452000000023
 21
-37.111800000000017
 31
0.0
  0
ARC
  5
23F
100
AcDbEntity
  8
001
370
               5
390
0
 62
               7
100
AcDbCircle
 10
-141.79712000000004
 20
-40.0
 30
0.0
 40
15.007716175781203
100
AcDbArc
 50
253.93885647831226
 51
286.06129027103083
  0
LINE
  5
240
100
AcDbEntity
  8
001
370
               5
390
0
 62
               7
100
AcDbLine
 10
-137.64491999999993
 20
-51.797120000000064
 30
0.0
 11
-137.64491999999993
 21
-54.421800000000076
 31
0.0
  0
LINE
  5
241
100
AcDbEntity
  8
001
370
               5
390
0
 62
               7
100
AcDbLine
 10
-145.94920000000022
 20
-51.797120000000064
 30
0.0
 11
-145.94920000000022
 21
-54.421800000000076
 31
0.0
  0
LINE
  5
242
100
AcDbEntity
  8
001
370
               5
390
0
 62
               7
100
AcDbLine
 10
-145.94920000000022
 20
-28.202920000000063
 30
0.0
 11
-145.94920000000022
 21
-25.578200000000152
 31
0.0
  0
ARC
  5
243
100
AcDbEntity
  8
001
370
               5
390
0
 62
               7
100
AcDbCircle
 10
-141.79712000000004
 20
-40.0
 30
0.0
 40
15.007634060037461
100
AcDbArc
 50
73.938289479067564
 51
106.0612280206431
  0
LINE
  5
244
100
AcDbEntity
  8
001
370
               5
390
0
 62
               7
100
AcDbLine
 10
-137.64491999999993
 20
-28.202920000000063
 30
0.0
 11
-137.64491999999993
 21
-25.578200000000152
 31
0.0
  0
LINE
  5
245
100
AcDbEntity
  8
001
370
               5
390
0
  6
STYLE_13
 62
               7
100
AcDbLine
 10
-125.15659999999988
 20
40.040879999999902
 30
0.0
 11
-158.56912000000014
 21
40.040879999999902
 31
0.0
  0
LINE
  5
246
100
AcDbEntity
  8
001
370
               5
390
0
 62
               7
100
AcDbLine
 10
-205.62972000000011
 20
60.051199999999881
 30
0.0
 11
-153.09180000000018
 21
60.051199999999881
 31
0.0
  0
LINE
  5
247
100
AcDbEntity
  8
001
370
               5
390
0
 62
               7
100
AcDbLine
 10
-145.79912000000004
 20
60.051199999999881
 30
0.0
 11
-137.7950000000001
 21
60.051199999999881
 31
0.0
  0
LINE
  5
248
100
AcDbEntity
  8
001
370
               5
390
0
 62
               7
100
AcDbLine
 10
-130.50172000000023
 20
60.051199999999881
 30
0.0
 11
-77.96440000000004
 21
60.051199999999881
 31
0.0
  0
LINE
  5
249
100
AcDbEntity
  8
001
370
               5
390
0
 62
               7
100
AcDbLine
 10
-130.23480000000021
 20
52.047079999999937
 30
0.0
 11
-76.763799999999918
 21
52.047079999999937
 31
0.0
  0
LINE
  5
24A
100
AcDbEntity
  8
001
370
               5
390
0
 62
               7
100
AcDbLine
 10
-206.83040000000003
 20
52.047079999999937
 30
0.0
 11
-153.35820000000021
 21
52.047079999999937
 31
0.0
  0
LINE
  5
24B
100
AcDbEntity
  8
001
370
               5
390
0
 62
               7
100
AcDbLine
 10
-145.79912000000004
 20
52.047079999999937
 30
0.0
 11
-137.7950000000001
 21
52.047079999999937
 31
0.0
  0
ARC
  5
24C
100
AcDbEntity
  8
001
370
               5
390
0
 62
               7
100
AcDbCircle
 10
-141.79712000000004
 20
-40.0
 30
0.0
 40
21.010683448912285
100
AcDbArc
 50
132.17486791827244
 51
226.13860190895107
  0
ARC
  5
24D
100
AcDbEntity
  8
001
370
               5
390
0
 62
               7
100
AcDbCircle
 10
-141.79712000000004
 20
-40.0
 30
0.0
 40
21.010818504151658
100
AcDbArc
 50
313.86163709935795
 51
47.800712507719538
  0
LINE
  5
24E
100
AcDbEntity
  8
001
370
               5
390
0
  6
STYLE_11
 62
               7
100
AcDbLine
 10
-131.18500000000026
 20
-29.388000000000147
 30
0.0
 11
-127.64760000000027
 21
-25.850600000000099
 31
0.0
  0
LINE
  5
24F
100
AcDbEntity
  8
001
370
               5
390
0
  6
STYLE_11
 62
               7
100
AcDbLine
 10
-132.97580000000019
 20
-27.858520000000112
 30
0.0
 11
-131.21152000000004
 21
-25.430320000000052
 31
0.0
  0
LINE
  5
250
100
AcDbEntity
  8
001
370
               5
390
0
  6
STYLE_11
 62
               7
100
AcDbLine
 10
-134.9837200000002
 20
-26.628120000000195
 30
0.0
 11
-133.62099999999995
 21
-23.953720000000089
 31
0.0
  0
LINE
  5
251
100
AcDbEntity
  8
001
370
               5
390
0
  6
STYLE_11
 62
               7
100
AcDbLine
 10
-137.15940000000009
 20
-25.726920000000064
 30
0.0
 11
-136.2319200000002
 21
-22.872320000000059
 31
0.0
  0
LINE
  5
252
100
AcDbEntity
  8
001
370
               5
390
0
  6
STYLE_11
 62
               7
100
AcDbLine
 10
-139.44940000000028
 20
-25.177120000000173
 30
0.0
 11
-138.97972000000013
 21
-22.212600000000066
 31
0.0
  0
LINE
  5
253
100
AcDbEntity
  8
001
370
               5
390
0
  6
STYLE_11
 62
               7
100
AcDbLine
 10
-144.14472000000026
 20
-25.177120000000173
 30
0.0
 11
-144.61432000000022
 21
-22.212600000000066
 31
0.0
  0
LINE
  5
254
100
AcDbEntity
  8
001
370
               5
390
0
  6
STYLE_11
 62
               7
100
AcDbLine
 10
-146.43460000000013
 20
-25.726920000000064
 30
0.0
 11
-147.36212000000015
 21
-22.872320000000059
 31
0.0
  0
LINE
  5
255
100
AcDbEntity
  8
001
370
               5
390
0
  6
STYLE_11
 62
               7
100
AcDbLine
 10
-148.61039999999994
 20
-26.628120000000195
 30
0.0
 11
-149.97312000000019
 21
-23.953720000000089
 31
0.0
  0
LINE
  5
256
100
AcDbEntity
  8
001
370
               5
390
0
  6
STYLE_11
 62
               7
100
AcDbLine
 10
-150.61831999999995
 20
-27.858520000000112
 30
0.0
 11
-152.38260000000011
 21
-25.430320000000052
 31
0.0
  0
LINE
  5
257
100
AcDbEntity
  8
001
370
               5
390
0
  6
STYLE_11
 62
               7
100
AcDbLine
 10
-152.40900000000002
 20
-29.388000000000147
 30
0.0
 11
-155.94640000000001
 21
-25.850600000000099
 31
0.0
  0
LINE
  5
258
100
AcDbEntity
  8
001
370
               5
390
0
 62
               7
100
AcDbLine
 10
118.57887999999986
 20
-66.51360000000011
 30
0.0
 11
118.57887999999986
 21
79.561079999999833
 31
0.0
  0
LINE
  5
259
100
AcDbEntity
  8
001
370
               5
390
0
 62
               7
100
AcDbLine
 10
121.78060000000006
 20
-66.51360000000011
 30
0.0
 11
121.78060000000006
 21
79.561079999999833
 31
0.0
  0
LINE
  5
25A
100
AcDbEntity
  8
001
370
               5
390
0
 62
               7
100
AcDbLine
 10
115.07707999999985
 20
51.996799999999858
 30
0.0
 11
115.07707999999985
 21
68.004999999999853
 31
0.0
  0
LINE
  5
25B
100
AcDbEntity
  8
001
370
               5
390
0
 62
               7
100
AcDbLine
 10
130.08479999999983
 20
63.002479999999842
 30
0.0
 11
130.08479999999983
 21
56.999399999999774
 31
0.0
  0
LINE
  5
25C
100
AcDbEntity
  8
001
370
               5
390
0
 62
               7
100
AcDbLine
 10
98.06839999999977
 20
52.997279999999897
 30
0.0
 11
98.06839999999977
 21
67.004479999999916
 31
0.0
  0
LINE
  5
25D
100
AcDbEntity
  8
001
370
               5
390
0
 62
               7
100
AcDbLine
 10
91.064279999999798
 20
67.50479999999979
 30
0.0
 11
86.254680000000036
 21
67.50479999999979
 31
0.0
  0
LINE
  5
25E
100
AcDbEntity
  8
001
370
               5
390
0
 62
               7
100
AcDbLine
 10
91.064279999999798
 20
67.50479999999979
 30
0.0
 11
91.064279999999798
 21
52.497079999999833
 31
0.0
  0
LINE
  5
25F
100
AcDbEntity
  8
001
370
               5
390
0
 62
               7
100
AcDbLine
 10
98.06839999999977
 20
67.004479999999916
 30
0.0
 11
96.067399999999935
 21
65.003479999999939
 31
0.0
  0
LINE
  5
260
100
AcDbEntity
  8
001
370
               5
390
0
 62
               7
100
AcDbLine
 10
98.06839999999977
 20
67.004479999999916
 30
0.0
 11
115.07707999999985
 21
67.004479999999916
 31
0.0
  0
LINE
  5
261
100
AcDbEntity
  8
001
370
               5
390
0
 62
               7
100
AcDbLine
 10
118.57887999999986
 20
68.004999999999853
 30
0.0
 11
115.07707999999985
 21
68.004999999999853
 31
0.0
  0
LINE
  5
262
100
AcDbEntity
  8
001
370
               5
390
0
 62
               7
100
AcDbLine
 10
126.88827999999995
 20
69.80587999999986
 30
0.0
 11
122.67587999999998
 21
69.80587999999986
 31
0.0
  0
LINE
  5
263
100
AcDbEntity
  8
001
370
               5
390
0
 62
               7
100
AcDbLine
 10
127.78359999999995
 20
51.746679999999934
 30
0.0
 11
126.88839999999983
 21
50.195879999999953
 31
0.0
  0
LINE
  5
264
100
AcDbEntity
  8
001
370
               5
390
0
 62
               7
100
AcDbLine
 10
126.88827999999995
 20
50.195879999999953
 30
0.0
 11
122.67587999999998
 21
50.195879999999953
 31
0.0
  0
LINE
  5
265
100
AcDbEntity
  8
001
370
               5
390
0
 62
               7
100
AcDbLine
 10
121.78060000000006
 20
51.746679999999934
 30
0.0
 11
122.67579999999981
 21
50.195879999999953
 31
0.0
  0
LINE
  5
266
100
AcDbEntity
  8
001
370
               5
390
0
 62
               7
100
AcDbLine
 10
118.57887999999986
 20
51.996799999999858
 30
0.0
 11
115.07707999999985
 21
51.996799999999858
 31
0.0
  0
LINE
  5
267
100
AcDbEntity
  8
001
370
               5
390
0
 62
               7
100
AcDbLine
 10
98.06839999999977
 20
52.997279999999897
 30
0.0
 11
115.07707999999985
 21
52.997279999999897
 31
0.0
  0
CIRCLE
  5
268
100
AcDbEntity
  8
001
370
               5
390
0
 62
               7
100
AcDbCircle
 10
110.07407999999998
 20
60.000879999999903
 30
0.0
 40
4.1021199999999283
  0
LINE
  5
269
100
AcDbEntity
  8
001
370
               5
390
0
 62
               7
100
AcDbLine
 10
96.067399999999935
 20
54.998400000000025
 30
0.0
 11
98.06839999999977
 21
52.997279999999897
 31
0.0
  0
LINE
  5
26A
100
AcDbEntity
  8
001
370
               5
390
0
 62
               7
100
AcDbLine
 10
96.067399999999935
 20
54.998400000000025
 30
0.0
 11
96.067399999999935
 21
65.003479999999939
 31
0.0
  0
LINE
  5
26B
100
AcDbEntity
  8
001
370
               5
390
0
 62
               7
100
AcDbLine
 10
130.08479999999983
 20
56.999399999999774
 30
0.0
 11
129.08427999999986
 21
56.999399999999774
 31
0.0
  0
LINE
  5
26C
100
AcDbEntity
  8
001
370
               5
390
0
 62
               7
100
AcDbLine
 10
130.08479999999983
 20
63.002479999999842
 30
0.0
 11
129.08427999999986
 21
63.002479999999842
 31
0.0
  0
LINE
  5
26D
100
AcDbEntity
  8
001
370
               5
390
0
 62
               7
100
AcDbLine
 10
127.78359999999995
 20
68.255079999999879
 30
0.0
 11
126.88839999999983
 21
69.80587999999986
 31
0.0
  0
LINE
  5
26E
100
AcDbEntity
  8
001
370
               5
390
0
 62
               7
100
AcDbLine
 10
121.78060000000006
 20
68.255079999999879
 30
0.0
 11
122.67579999999981
 21
69.80587999999986
 31
0.0
  0
LINE
  5
26F
100
AcDbEntity
  8
001
370
               5
390
0
 62
               7
100
AcDbLine
 10
128.0838
 20
66.003999999999877
 30
0.0
 11
127.78359999999995
 21
66.003999999999877
 31
0.0
  0
LINE
  5
270
100
AcDbEntity
  8
001
370
               5
390
0
 62
               7
100
AcDbLine
 10
128.0838
 20
64.50319999999985
 30
0.0
 11
128.68407999999982
 21
64.50319999999985
 31
0.0
  0
LINE
  5
271
100
AcDbEntity
  8
001
370
               5
390
0
 62
               7
100
AcDbLine
 10
128.68407999999982
 20
62.001879999999879
 30
0.0
 11
129.17419999999987
 21
62.001879999999879
 31
0.0
  0
LINE
  5
272
100
AcDbEntity
  8
001
370
               5
390
0
 62
               7
100
AcDbLine
 10
128.68407999999982
 20
57.999879999999926
 30
0.0
 11
129.08427999999986
 21
57.999879999999926
 31
0.0
  0
LINE
  5
273
100
AcDbEntity
  8
001
370
               5
390
0
 62
               7
100
AcDbLine
 10
128.0838
 20
53.997799999999835
 30
0.0
 11
127.78359999999995
 21
53.997799999999835
 31
0.0
  0
LINE
  5
274
100
AcDbEntity
  8
001
370
               5
390
0
 62
               7
100
AcDbLine
 10
128.0838
 20
55.498599999999861
 30
0.0
 11
128.68407999999982
 21
55.498599999999861
 31
0.0
  0
LINE
  5
275
100
AcDbEntity
  8
001
370
               5
390
0
 62
               7
100
AcDbLine
 10
91.064279999999798
 20
56.248999999999874
 30
0.0
 11
86.254680000000036
 21
56.248999999999874
 31
0.0
  0
LINE
  5
276
100
AcDbEntity
  8
001
370
               5
390
0
 62
               7
100
AcDbLine
 10
91.064279999999798
 20
63.752799999999944
 30
0.0
 11
86.254680000000036
 21
63.752799999999944
 31
0.0
  0
LINE
  5
277
100
AcDbEntity
  8
001
370
               5
390
0
 62
               7
100
AcDbLine
 10
93.367080000000016
 20
64.002999999999787
 30
0.0
 11
93.367080000000016
 21
55.998879999999836
 31
0.0
  0
ARC
  5
278
100
AcDbEntity
  8
001
370
               5
390
0
 62
               7
100
AcDbCircle
 10
123.26299999999975
 20
67.354680000000002
 30
0.0
 40
4.3762345363110979
100
AcDbArc
 50
325.93489928959355
 51
34.065100710403392
  0
LINE
  5
279
100
AcDbEntity
  8
001
370
               5
390
0
 62
               7
100
AcDbLine
 10
126.88827999999995
 20
64.903399999999891
 30
0.0
 11
122.67587999999998
 21
64.903399999999891
 31
0.0
  0
ARC
  5
27A
100
AcDbEntity
  8
001
370
               5
390
0
 62
               7
100
AcDbCircle
 10
126.30119999999989
 20
67.354680000000002
 30
0.0
 40
4.3762228625149682
100
AcDbArc
 50
145.93606030160345
 51
214.06466687477328
  0
ARC
  5
27B
100
AcDbEntity
  8
001
370
               5
390
0
 62
               7
100
AcDbCircle
 10
138.30339999999998
 20
60.000879999999903
 30
0.0
 40
16.378464021415439
100
AcDbArc
 50
162.58280149057234
 51
197.41706499547192
  0
ARC
  5
27C
100
AcDbEntity
  8
001
370
               5
390
0
 62
               7
100
AcDbCircle
 10
111.26080000000005
 20
60.000879999999903
 30
0.0
 40
16.378413882326846
100
AcDbArc
 50
342.58289311998686
 51
17.417240394249404
  0
LINE
  5
27D
100
AcDbEntity
  8
001
370
               5
390
0
 62
               7
100
AcDbLine
 10
126.88827999999995
 20
55.098399999999934
 30
0.0
 11
122.67587999999998
 21
55.098399999999934
 31
0.0
  0
ARC
  5
27E
100
AcDbEntity
  8
001
370
               5
390
0
 62
               7
100
AcDbCircle
 10
123.26299999999975
 20
52.647199999999962
 30
0.0
 40
4.3762569418170036
100
AcDbArc
 50
325.93446545839976
 51
34.064373536690034
  0
ARC
  5
27F
100
AcDbEntity
  8
001
370
               5
390
0
 62
               7
100
AcDbCircle
 10
126.30119999999989
 20
52.647199999999962
 30
0.0
 40
4.3762228625150312
100
AcDbArc
 50
145.93606030160223
 51
214.06582788768375
  0
LINE
  5
280
100
AcDbEntity
  8
001
370
               5
390
0
 62
               7
100
AcDbLine
 10
128.68407999999982
 20
62.001879999999879
 30
0.0
 11
128.68407999999982
 21
64.50319999999985
 31
0.0
  0
LINE
  5
281
100
AcDbEntity
  8
001
370
               5
390
0
 62
               7
100
AcDbLine
 10
128.68407999999982
 20
57.999879999999926
 30
0.0
 11
128.68407999999982
 21
55.498599999999861
 31
0.0
  0
LINE
  5
282
100
AcDbEntity
  8
001
370
               5
390
0
 62
               7
100
AcDbLine
 10
128.0838
 20
55.498599999999861
 30
0.0
 11
128.0838
 21
53.997799999999835
 31
0.0
  0
LINE
  5
283
100
AcDbEntity
  8
001
370
               5
390
0
 62
               7
100
AcDbLine
 10
128.0838
 20
64.50319999999985
 30
0.0
 11
128.0838
 21
66.003999999999877
 31
0.0
  0
LINE
  5
284
100
AcDbEntity
  8
001
370
               5
390
0
 62
               7
100
AcDbLine
 10
127.78359999999995
 20
66.003999999999877
 30
0.0
 11
127.78359999999995
 21
68.255079999999879
 31
0.0
  0
LINE
  5
285
100
AcDbEntity
  8
001
370
               5
390
0
 62
               7
100
AcDbLine
 10
127.78359999999995
 20
53.997799999999835
 30
0.0
 11
127.78359999999995
 21
51.746679999999934
 31
0.0
  0
LINE
  5
286
100
AcDbEntity
  8
001
370
               5
390
0
 62
               7
100
AcDbLine
 10
127.78359999999995
 20
53.997799999999835
 30
0.0
 11
127.78359999999995
 21
66.003999999999877
 31
0.0
  0
LINE
  5
287
100
AcDbEntity
  8
001
370
               5
390
0
 62
               7
100
AcDbLine
 10
128.0838
 20
64.50319999999985
 30
0.0
 11
128.0838
 21
55.498599999999861
 31
0.0
  0
LINE
  5
288
100
AcDbEntity
  8
001
370
               5
390
0
 62
               7
100
AcDbLine
 10
128.68407999999982
 20
57.999879999999926
 30
0.0
 11
128.68407999999982
 21
62.001879999999879
 31
0.0
  0
LINE
  5
289
100
AcDbEntity
  8
001
370
               5
390
0
 62
               7
100
AcDbLine
 10
129.08427999999986
 20
62.001879999999879
 30
0.0
 11
129.08427999999986
 21
63.002479999999842
 31
0.0
  0
LINE
  5
28A
100
AcDbEntity
  8
001
370
               5
390
0
 62
               7
100
AcDbLine
 10
129.08427999999986
 20
57.999879999999926
 30
0.0
 11
129.08427999999986
 21
56.999399999999774
 31
0.0
  0
LINE
  5
28B
100
AcDbEntity
  8
001
370
               5
390
0
 62
               7
100
AcDbLine
 10
129.08427999999986
 20
57.999879999999926
 30
0.0
 11
129.08427999999986
 21
62.001879999999879
 31
0.0
  0
LINE
  5
28C
100
AcDbEntity
  8
001
370
               5
390
0
 62
               7
100
AcDbLine
 10
96.067399999999935
 20
64.002999999999787
 30
0.0
 11
91.064279999999798
 21
64.002999999999787
 31
0.0
  0
LINE
  5
28D
100
AcDbEntity
  8
001
370
               5
390
0
  6
STYLE_12
 62
               7
100
AcDbLine
 10
96.067399999999935
 20
64.002999999999787
 30
0.0
 11
108.17360000000011
 21
64.002999999999787
 31
0.0
  0
LINE
  5
28E
100
AcDbEntity
  8
001
370
               5
390
0
  6
STYLE_12
 62
               7
100
AcDbLine
 10
96.067399999999935
 20
63.327599999999926
 30
0.0
 11
106.67399999999981
 21
63.327599999999926
 31
0.0
  0
LINE
  5
28F
100
AcDbEntity
  8
001
370
               5
390
0
  6
STYLE_12
 62
               7
100
AcDbLine
 10
105.07199999999978
 20
62.802399999999885
 30
0.0
 11
103.87140000000002
 21
64.002999999999787
 31
0.0
  0
LINE
  5
290
100
AcDbEntity
  8
001
370
               5
390
0
  6
STYLE_12
 62
               7
100
AcDbLine
 10
103.87140000000002
 20
55.998879999999836
 30
0.0
 11
103.87140000000002
 21
64.002999999999787
 31
0.0
  0
LINE
  5
291
100
AcDbEntity
  8
001
370
               5
390
0
  6
STYLE_12
 62
               7
100
AcDbLine
 10
105.07199999999978
 20
62.802399999999885
 30
0.0
 11
105.07199999999978
 21
57.199479999999959
 31
0.0
  0
LINE
  5
292
100
AcDbEntity
  8
001
370
               5
390
0
  6
STYLE_12
 62
               7
100
AcDbLine
 10
105.07199999999978
 20
57.199479999999959
 30
0.0
 11
103.87140000000002
 21
55.998879999999836
 31
0.0
  0
LINE
  5
293
100
AcDbEntity
  8
001
370
               5
390
0
  6
STYLE_12
 62
               7
100
AcDbLine
 10
96.067399999999935
 20
56.674200000000006
 30
0.0
 11
106.67399999999981
 21
56.674200000000006
 31
0.0
  0
LINE
  5
294
100
AcDbEntity
  8
001
370
               5
390
0
  6
STYLE_12
 62
               7
100
AcDbLine
 10
96.067399999999935
 20
55.998879999999836
 30
0.0
 11
108.17360000000011
 21
55.998879999999836
 31
0.0
  0
LINE
  5
295
100
AcDbEntity
  8
001
370
               5
390
0
 62
               7
100
AcDbLine
 10
96.067399999999935
 20
56.674200000000006
 30
0.0
 11
93.367080000000016
 21
56.674200000000006
 31
0.0
  0
LINE
  5
296
100
AcDbEntity
  8
001
370
               5
390
0
 62
               7
100
AcDbLine
 10
96.067399999999935
 20
63.327599999999926
 30
0.0
 11
93.367080000000016
 21
63.327599999999926
 31
0.0
  0
LINE
  5
297
100
AcDbEntity
  8
001
370
               5
390
0
 62
               7
100
AcDbLine
 10
93.367080000000016
 20
63.327599999999926
 30
0.0
 11
92.197279999999978
 21
64.002999999999787
 31
0.0
  0
LINE
  5
298
100
AcDbEntity
  8
001
370
               5
390
0
 62
               7
100
AcDbLine
 10
93.367080000000016
 20
56.674200000000006
 30
0.0
 11
92.197279999999978
 21
55.998879999999836
 31
0.0
  0
LINE
  5
299
100
AcDbEntity
  8
001
370
               5
390
0
  6
STYLE_13
 62
               7
100
AcDbLine
 10
110.07407999999998
 20
65.148479999999921
 30
0.0
 11
110.07407999999998
 21
53.858280000000001
 31
0.0
  0
LINE
  5
29A
100
AcDbEntity
  8
001
370
               5
390
0
 62
               7
100
AcDbLine
 10
91.064279999999798
 20
52.497079999999833
 30
0.0
 11
86.254680000000036
 21
52.497079999999833
 31
0.0
  0
LINE
  5
29B
100
AcDbEntity
  8
001
370
               5
390
0
 62
               7
100
AcDbLine
 10
96.067399999999935
 20
55.998879999999836
 30
0.0
 11
91.064279999999798
 21
55.998879999999836
 31
0.0
  0
LINE
  5
29C
100
AcDbEntity
  8
001
370
               5
390
0
 62
               7
100
AcDbLine
 10
121.78060000000006
 20
79.561079999999833
 30
0.0
 11
118.57887999999986
 21
79.561079999999833
 31
0.0
  0
ARC
  5
29D
100
AcDbEntity
  8
001
370
               5
390
0
 62
               7
100
AcDbCircle
 10
111.26080000000005
 20
60.000879999999903
 30
0.0
 40
16.378413882326846
100
AcDbArc
 50
342.58289311998686
 51
17.417240394249404
  0
LINE
  5
29E
100
AcDbEntity
  8
001
370
               5
390
0
 62
               7
100
AcDbLine
 10
86.254680000000036
 20
52.497079999999833
 30
0.0
 11
85.56147999999996
 21
53.697679999999956
 31
0.0
  0
LINE
  5
29F
100
AcDbEntity
  8
001
370
               5
390
0
 62
               7
100
AcDbLine
 10
86.254680000000036
 20
67.50479999999979
 30
0.0
 11
85.56147999999996
 21
66.304079999999857
 31
0.0
  0
ARC
  5
2A0
100
AcDbEntity
  8
001
370
               5
390
0
 62
               7
100
AcDbCircle
 10
96.061999999999927
 20
60.000879999999903
 30
0.0
 40
10.500496620103172
100
AcDbArc
 50
159.06498718906437
 51
200.93480895944901
  0
ARC
  5
2A1
100
AcDbEntity
  8
001
370
               5
390
0
 62
               7
100
AcDbCircle
 10
88.446600000000046
 20
54.372999999999898
 30
0.0
 40
2.884945929198742
100
AcDbArc
 50
139.44101282104896
 51
220.55786708774437
  0
ARC
  5
2A2
100
AcDbEntity
  8
001
370
               5
390
0
 62
               7
100
AcDbCircle
 10
88.446600000000046
 20
65.628799999999814
 30
0.0
 40
2.8849459291988904
100
AcDbArc
 50
139.44101282104552
 51
220.55898717895178
  0
LINE
  5
2A3
100
AcDbEntity
  8
001
370
               5
390
0
 62
               7
100
AcDbLine
 10
118.57887999999986
 20
-66.51360000000011
 30
0.0
 11
121.78060000000006
 21
-66.51360000000011
 31
0.0
  0
LINE
  5
2A4
100
AcDbEntity
  8
001
370
               5
390
0
 62
               7
100
AcDbLine
 10
152.03607999999988
 20
-25.992920000000026
 30
0.0
 11
152.03607999999988
 21
-51.00572000000011
 31
0.0
  0
LINE
  5
2A5
100
AcDbEntity
  8
001
370
               5
390
0
 62
               7
100
AcDbLine
 10
115.97759999999982
 20
-27.493600000000129
 30
0.0
 11
115.97759999999982
 21
-52.506400000000099
 31
0.0
  0
LINE
  5
2A6
100
AcDbEntity
  8
001
370
               5
390
0
 62
               7
100
AcDbLine
 10
145.03247999999988
 20
-21.990800000000149
 30
0.0
 11
145.03247999999988
 21
-25.992920000000026
 31
0.0
  0
LINE
  5
2A7
100
AcDbEntity
  8
001
370
               5
390
0
 62
               7
100
AcDbLine
 10
141.03040000000004
 20
-21.990800000000149
 30
0.0
 11
141.03040000000004
 21
-25.992920000000026
 31
0.0
  0
LINE
  5
2A8
100
AcDbEntity
  8
001
370
               5
390
0
 62
               7
100
AcDbLine
 10
146.53319999999988
 20
-18.489000000000146
 30
0.0
 11
146.53319999999988
 21
-21.990800000000149
 31
0.0
  0
LINE
  5
2A9
100
AcDbEntity
  8
001
370
               5
390
0
 62
               7
100
AcDbLine
 10
139.52968000000004
 20
-18.489000000000146
 30
0.0
 11
139.52968000000004
 21
-21.990800000000149
 31
0.0
  0
LINE
  5
2AA
100
AcDbEntity
  8
001
370
               5
390
0
 62
               7
100
AcDbLine
 10
146.73699999999991
 20
-21.990800000000149
 30
0.0
 11
139.72767999999999
 21
-21.990800000000149
 31
0.0
  0
LINE
  5
2AB
100
AcDbEntity
  8
001
370
               5
390
0
 62
               7
100
AcDbLine
 10
152.03607999999988
 20
-25.992920000000026
 30
0.0
 11
135.02739999999977
 21
-25.992920000000026
 31
0.0
  0
ARC
  5
2AC
100
AcDbEntity
  8
001
370
               5
390
0
 62
               7
100
AcDbCircle
 10
134.52707999999987
 20
-25.242520000000127
 30
0.0
 40
0.5003199999999026
100
AcDbArc
 50
0.0
 51
90.0
  0
LINE
  5
2AD
100
AcDbEntity
  8
001
370
               5
390
0
 62
               7
100
AcDbLine
 10
134.52707999999987
 20
-24.742200000000025
 30
0.0
 11
121.78060000000006
 21
-24.742200000000025
 31
0.0
  0
LINE
  5
2AE
100
AcDbEntity
  8
001
370
               5
390
0
 62
               7
100
AcDbLine
 10
135.51579999999996
 20
-53.395400000000222
 30
0.0
 11
150.03499999999988
 21
-53.053800000000024
 31
0.0
  0
LINE
  5
2AF
100
AcDbEntity
  8
001
370
               5
390
0
 62
               7
100
AcDbLine
 10
150.03499999999988
 20
-53.053720000000112
 30
0.0
 11
152.03607999999988
 21
-51.00572000000011
 31
0.0
  0
LINE
  5
2B0
100
AcDbEntity
  8
001
370
               5
390
0
 62
               7
100
AcDbLine
 10
135.02739999999977
 20
-25.242520000000127
 30
0.0
 11
135.02739999999977
 21
-54.757600000000139
 31
0.0
  0
ARC
  5
2B1
100
AcDbEntity
  8
001
370
               5
390
0
 62
               7
100
AcDbCircle
 10
135.52759999999984
 20
-53.895600000000059
 30
0.0
 40
0.5003391649669584
100
AcDbArc
 50
91.351389088494301
 51
179.99083853870195
  0
ARC
  5
2B2
100
AcDbEntity
  8
001
370
               5
390
0
 62
               7
100
AcDbCircle
 10
134.52707999999987
 20
-54.757600000000139
 30
0.0
 40
0.5002000000000635
100
AcDbArc
 50
270.0
 51
0.0
  0
LINE
  5
2B3
100
AcDbEntity
  8
001
370
               5
390
0
 62
               7
100
AcDbLine
 10
134.52707999999987
 20
-55.257800000000202
 30
0.0
 11
121.78060000000006
 21
-55.257800000000202
 31
0.0
  0
LINE
  5
2B4
100
AcDbEntity
  8
001
370
               5
390
0
 62
               7
100
AcDbLine
 10
115.97759999999982
 20
-52.506400000000099
 30
0.0
 11
118.57887999999986
 21
-52.506400000000099
 31
0.0
  0
LINE
  5
2B5
100
AcDbEntity
  8
001
370
               5
390
0
 62
               7
100
AcDbLine
 10
115.97759999999982
 20
-27.493600000000129
 30
0.0
 11
118.57887999999986
 21
-27.493600000000129
 31
0.0
  0
LINE
  5
2B6
100
AcDbEntity
  8
001
370
               5
390
0
 62
               7
100
AcDbLine
 10
152.03607999999988
 20
-28.994400000000155
 30
0.0
 11
150.03499999999988
 21
-26.94640000000004
 31
0.0
  0
LINE
  5
2B7
100
AcDbEntity
  8
001
370
               5
390
0
 62
               7
100
AcDbLine
 10
147.03348000000008
 20
-25.992920000000026
 30
0.0
 11
150.03499999999988
 21
-26.94640000000004
 31
0.0
  0
LINE
  5
2B8
100
AcDbEntity
  8
001
370
               5
390
0
 62
               7
100
AcDbLine
 10
145.03247999999988
 20
-23.291520000000105
 30
0.0
 11
141.03040000000004
 21
-23.291520000000105
 31
0.0
  0
LINE
  5
2B9
100
AcDbEntity
  8
001
370
               5
390
0
 62
               7
100
AcDbLine
 10
144.63227999999984
 20
-25.992920000000026
 30
0.0
 11
144.63227999999984
 21
-23.291520000000105
 31
0.0
  0
LINE
  5
2BA
100
AcDbEntity
  8
001
370
               5
390
0
 62
               7
100
AcDbLine
 10
144.63227999999984
 20
-23.291520000000105
 30
0.0
 11
145.03247999999988
 21
-22.598320000000058
 31
0.0
  0
LINE
  5
2BB
100
AcDbEntity
  8
001
370
               5
390
0
 62
               7
100
AcDbLine
 10
141.43060000000008
 20
-23.291520000000105
 30
0.0
 11
141.03040000000004
 21
-22.598320000000058
 31
0.0
  0
LINE
  5
2BC
100
AcDbEntity
  8
001
370
               5
390
0
 62
               7
100
AcDbLine
 10
141.43060000000008
 20
-25.992920000000026
 30
0.0
 11
141.43060000000008
 21
-23.291520000000105
 31
0.0
  0
LINE
  5
2BD
100
AcDbEntity
  8
001
370
               5
390
0
  6
STYLE_13
 62
               7
100
AcDbLine
 10
143.03139999999988
 20
-15.18080000000009
 30
0.0
 11
143.03139999999988
 21
-34.50572000000011
 31
0.0
  0
LINE
  5
2BE
100
AcDbEntity
  8
001
370
               5
390
0
 62
               7
100
AcDbLine
 10
150.03499999999988
 20
-53.053800000000024
 30
0.0
 11
150.03499999999988
 21
-26.946320000000014
 31
0.0
  0
LINE
  5
2BF
100
AcDbEntity
  8
001
370
               5
390
0
 62
               7
100
AcDbLine
 10
135.51579999999996
 20
-26.604720000000157
 30
0.0
 11
150.03499999999988
 21
-26.946320000000014
 31
0.0
  0
ARC
  5
2C0
100
AcDbEntity
  8
001
370
               5
390
0
 62
               7
100
AcDbCircle
 10
135.52759999999984
 20
-26.104520000000093
 30
0.0
 40
0.5002000000000635
100
AcDbArc
 50
180.0
 51
268.64828675030458
  0
LINE
  5
2C1
100
AcDbEntity
  8
001
370
               5
390
0
 62
               7
100
AcDbLine
 10
115.97759999999982
 20
-34.247119999999995
 30
0.0
 11
112.46659999999977
 21
-34.247119999999995
 31
0.0
  0
LINE
  5
2C2
100
AcDbEntity
  8
001
370
               5
390
0
 62
               7
100
AcDbLine
 10
111.97559999999979
 20
-35.097520000000145
 30
0.0
 11
112.46659999999977
 21
-34.247119999999995
 31
0.0
  0
LINE
  5
2C3
100
AcDbEntity
  8
001
370
               5
390
0
 62
               7
100
AcDbLine
 10
111.97559999999979
 20
-35.097520000000145
 30
0.0
 11
111.97559999999979
 21
-44.902519999999981
 31
0.0
  0
LINE
  5
2C4
100
AcDbEntity
  8
001
370
               5
390
0
 62
               7
100
AcDbLine
 10
111.97559999999979
 20
-44.902519999999981
 30
0.0
 11
112.46659999999977
 21
-45.753000000000043
 31
0.0
  0
LINE
  5
2C5
100
AcDbEntity
  8
001
370
               5
390
0
 62
               7
100
AcDbLine
 10
115.97759999999982
 20
-45.753000000000043
 30
0.0
 11
112.46659999999977
 21
-45.753000000000043
 31
0.0
  0
ARC
  5
2C6
100
AcDbEntity
  8
001
370
               5
390
0
 62
               7
100
AcDbCircle
 10
114.63719999999995
 20
-44.314720000000193
 30
0.0
 40
2.6038286425955381
100
AcDbArc
 50
146.47227069186349
 51
213.52894920331343
  0
ARC
  5
2C7
100
AcDbEntity
  8
001
370
               5
390
0
 62
               7
100
AcDbCircle
 10
121.79919999999986
 20
-40.0
 30
0.0
 40
9.7658128038582053
100
AcDbArc
 50
162.87018233909768
 51
197.1305595887552
  0
LINE
  5
2C8
100
AcDbEntity
  8
001
370
               5
390
0
 62
               7
100
AcDbLine
 10
115.97759999999982
 20
-42.876520000000141
 30
0.0
 11
112.46659999999977
 21
-42.876520000000141
 31
0.0
  0
LINE
  5
2C9
100
AcDbEntity
  8
001
370
               5
390
0
 62
               7
100
AcDbLine
 10
115.97759999999982
 20
-37.123600000000124
 30
0.0
 11
112.46659999999977
 21
-37.123600000000124
 31
0.0
  0
ARC
  5
2CA
100
AcDbEntity
  8
001
370
               5
390
0
 62
               7
100
AcDbCircle
 10
114.63719999999995
 20
-35.685320000000161
 30
0.0
 40
2.6038286425956008
100
AcDbArc
 50
146.47227069186138
 51
213.52772930813549
  0
LINE
  5
2CB
100
AcDbEntity
  8
001
370
               5
390
0
 62
               7
100
AcDbLine
 10
129.78467999999995
 20
-55.174200000000042
 30
0.0
 11
127.02327999999982
 21
-55.257800000000202
 31
0.0
  0
LINE
  5
2CC
100
AcDbEntity
  8
001
370
               5
390
0
 62
               7
100
AcDbLine
 10
129.78467999999995
 20
-24.82592000000011
 30
0.0
 11
127.02327999999982
 21
-24.742200000000025
 31
0.0
  0
ARC
  5
2CD
100
AcDbEntity
  8
001
370
               5
390
0
 62
               7
100
AcDbCircle
 10
146.03299999999984
 20
-18.489000000000146
 30
0.0
 40
0.5002000000000351
100
AcDbArc
 50
0.0
 51
90.0
  0
LINE
  5
2CE
100
AcDbEntity
  8
001
370
               5
390
0
 62
               7
100
AcDbLine
 10
140.02988000000008
 20
-17.988800000000083
 30
0.0
 11
146.03299999999984
 21
-17.988800000000083
 31
0.0
  0
ARC
  5
2CF
100
AcDbEntity
  8
001
370
               5
390
0
 62
               7
100
AcDbCircle
 10
140.02988000000008
 20
-18.489000000000146
 30
0.0
 40
0.5002000000000635
100
AcDbArc
 50
90.0
 51
180.0
  0
LINE
  5
2D0
100
AcDbEntity
  8
001
370
               5
390
0
  6
STYLE_11
 62
               7
100
AcDbLine
 10
85.56147999999996
 20
66.304079999999857
 30
0.0
 11
85.56147999999996
 21
53.697679999999956
 31
0.0
  0
LINE
  5
2D1
100
AcDbEntity
  8
001
370
               5
390
0
 62
               7
100
AcDbLine
 10
-181.38132000000004
 20
-38.249120000000062
 30
0.0
 11
-182.17371999999997
 21
-38.249120000000062
 31
0.0
  0
LINE
  5
2D2
100
AcDbEntity
  8
001
370
               5
390
0
 62
               7
100
AcDbLine
 10
-181.38120000000018
 20
-38.249000000000137
 30
0.0
 11
-181.38120000000018
 21
-39.236200000000167
 31
0.0
  0
LINE
  5
2D3
100
AcDbEntity
  8
001
370
               5
390
0
 62
               7
100
AcDbLine
 10
-181.38120000000018
 20
-39.236200000000167
 30
0.0
 11
-180.97360000000012
 21
-39.643800000000056
 31
0.0
  0
LINE
  5
2D4
100
AcDbEntity
  8
001
370
               5
390
0
 62
               7
100
AcDbLine
 10
-180.06672
 20
-39.643920000000094
 30
0.0
 11
-180.97351999999992
 21
-39.643920000000094
 31
0.0
  0
LINE
  5
2D5
100
AcDbEntity
  8
001
370
               5
390
0
 62
               7
100
AcDbLine
 10
-180.06672
 20
-39.643920000000094
 30
0.0
 11
-180.06672
 21
-40.436320000000137
 31
0.0
  0
LINE
  5
2D6
100
AcDbEntity
  8
001
370
               5
390
0
 62
               7
100
AcDbLine
 10
-180.06651999999994
 20
-40.436320000000137
 30
0.0
 11
-181.05371999999991
 21
-40.436320000000137
 31
0.0
  0
LINE
  5
2D7
100
AcDbEntity
  8
001
370
               5
390
0
 62
               7
100
AcDbLine
 10
-181.05371999999991
 20
-40.436320000000137
 30
0.0
 11
-181.46131999999997
 21
-40.843920000000139
 31
0.0
  0
LINE
  5
2D8
100
AcDbEntity
  8
001
370
               5
390
0
 62
               7
100
AcDbLine
 10
-181.46140000000017
 20
-41.75080000000014
 30
0.0
 11
-181.46140000000017
 21
-40.844000000000051
 31
0.0
  0
LINE
  5
2D9
100
AcDbEntity
  8
001
370
               5
390
0
 62
               7
100
AcDbLine
 10
-181.46140000000017
 20
-41.750920000000065
 30
0.0
 11
-182.25380000000004
 21
-41.750920000000065
 31
0.0
  0
LINE
  5
2DA
100
AcDbEntity
  8
001
370
               5
390
0
 62
               7
100
AcDbLine
 10
-182.25380000000004
 20
-41.750920000000065
 30
0.0
 11
-182.25380000000004
 21
-40.76380000000006
 31
0.0
  0
LINE
  5
2DB
100
AcDbEntity
  8
001
370
               5
390
0
 62
               7
100
AcDbLine
 10
-182.25380000000004
 20
-40.76380000000006
 30
0.0
 11
-182.66140000000016
 21
-40.356200000000058
 31
0.0
  0
LINE
  5
2DC
100
AcDbEntity
  8
001
370
               5
390
0
 62
               7
100
AcDbLine
 10
-183.56831999999994
 20
-40.356200000000058
 30
0.0
 11
-182.66152000000002
 21
-40.356200000000058
 31
0.0
  0
LINE
  5
2DD
100
AcDbEntity
  8
001
370
               5
390
0
 62
               7
100
AcDbLine
 10
-183.56840000000014
 20
-40.356200000000058
 30
0.0
 11
-183.56840000000014
 21
-39.563800000000128
 31
0.0
  0
LINE
  5
2DE
100
AcDbEntity
  8
001
370
               5
390
0
 62
               7
100
AcDbLine
 10
-183.56840000000014
 20
-39.563800000000128
 30
0.0
 11
-182.58132000000009
 21
-39.563800000000128
 31
0.0
  0
LINE
  5
2DF
100
AcDbEntity
  8
001
370
               5
390
0
 62
               7
100
AcDbLine
 10
-182.58132000000009
 20
-39.563720000000103
 30
0.0
 11
-182.17371999999997
 21
-39.156119999999987
 31
0.0
  0
LINE
  5
2E0
100
AcDbEntity
  8
001
370
               5
390
0
 62
               7
100
AcDbLine
 10
-182.17371999999997
 20
-38.249120000000062
 30
0.0
 11
-182.17371999999997
 21
-39.156000000000176
 31
0.0
  0
LINE
  5
2E1
100
AcDbEntity
  8
001
370
               5
390
0
 62
               7
100
AcDbLine
 10
-101.34040000000024
 20
-38.249120000000062
 30
0.0
 11
-102.13280000000012
 21
-38.249120000000062
 31
0.0
  0
LINE
  5
2E2
100
AcDbEntity
  8
001
370
               5
390
0
 62
               7
100
AcDbLine
 10
-101.34032000000005
 20
-38.249000000000137
 30
0.0
 11
-101.34032000000005
 21
-39.236200000000167
 31
0.0
  0
LINE
  5
2E3
100
AcDbEntity
  8
001
370
               5
390
0
 62
               7
100
AcDbLine
 10
-101.34032000000005
 20
-39.236200000000167
 30
0.0
 11
-100.93271999999999
 21
-39.643800000000056
 31
0.0
  0
LINE
  5
2E4
100
AcDbEntity
  8
001
370
               5
390
0
 62
               7
100
AcDbLine
 10
-100.02572000000001
 20
-39.643920000000094
 30
0.0
 11
-100.93251999999993
 21
-39.643920000000094
 31
0.0
  0
LINE
  5
2E5
100
AcDbEntity
  8
001
370
               5
390
0
 62
               7
100
AcDbLine
 10
-100.02572000000001
 20
-39.643920000000094
 30
0.0
 11
-100.02572000000001
 21
-40.436320000000137
 31
0.0
  0
LINE
  5
2E6
100
AcDbEntity
  8
001
370
               5
390
0
 62
               7
100
AcDbLine
 10
-100.02560000000014
 20
-40.436320000000137
 30
0.0
 11
-101.01271999999992
 21
-40.436320000000137
 31
0.0
  0
LINE
  5
2E7
100
AcDbEntity
  8
001
370
               5
390
0
 62
               7
100
AcDbLine
 10
-101.01271999999992
 20
-40.436320000000137
 30
0.0
 11
-101.42031999999998
 21
-40.843920000000139
 31
0.0
  0
LINE
  5
2E8
100
AcDbEntity
  8
001
370
               5
390
0
 62
               7
100
AcDbLine
 10
-101.42040000000017
 20
-41.75080000000014
 30
0.0
 11
-101.42040000000017
 21
-40.844000000000051
 31
0.0
  0
LINE
  5
2E9
100
AcDbEntity
  8
001
370
               5
390
0
 62
               7
100
AcDbLine
 10
-101.42040000000017
 20
-41.750920000000065
 30
0.0
 11
-102.21280000000004
 21
-41.750920000000065
 31
0.0
  0
LINE
  5
2EA
100
AcDbEntity
  8
001
370
               5
390
0
 62
               7
100
AcDbLine
 10
-102.21280000000004
 20
-41.750920000000065
 30
0.0
 11
-102.21280000000004
 21
-40.76380000000006
 31
0.0
  0
LINE
  5
2EB
100
AcDbEntity
  8
001
370
               5
390
0
 62
               7
100
AcDbLine
 10
-102.21280000000004
 20
-40.76380000000006
 30
0.0
 11
-102.62040000000016
 21
-40.356200000000058
 31
0.0
  0
LINE
  5
2EC
100
AcDbEntity
  8
001
370
               5
390
0
 62
               7
100
AcDbLine
 10
-103.52740000000014
 20
-40.356200000000058
 30
0.0
 11
-102.62052000000003
 21
-40.356200000000058
 31
0.0
  0
LINE
  5
2ED
100
AcDbEntity
  8
001
370
               5
390
0
 62
               7
100
AcDbLine
 10
-103.52752000000001
 20
-40.356200000000058
 30
0.0
 11
-103.52752000000001
 21
-39.563800000000128
 31
0.0
  0
LINE
  5
2EE
100
AcDbEntity
  8
001
370
               5
390
0
 62
               7
100
AcDbLine
 10
-103.52752000000001
 20
-39.563800000000128
 30
0.0
 11
-102.54040000000023
 21
-39.563800000000128
 31
0.0
  0
LINE
  5
2EF
100
AcDbEntity
  8
001
370
               5
390
0
 62
               7
100
AcDbLine
 10
-102.54040000000023
 20
-39.563720000000103
 30
0.0
 11
-102.13280000000012
 21
-39.156119999999987
 31
0.0
  0
LINE
  5
2F0
100
AcDbEntity
  8
001
370
               5
390
0
 62
               7
100
AcDbLine
 10
-102.13280000000012
 20
-38.249120000000062
 30
0.0
 11
-102.13280000000012
 21
-39.156000000000176
 31
0.0
  0
LINE
  5
2F1
100
AcDbEntity
  8
001
370
               5
390
0
 62
               7
100
AcDbLine
 10
174.54759999999987
 20
-111.4366
 30
0.0
 11
174.54759999999987
 21
-114.0379200000001
 31
0.0
  0
LINE
  5
2F2
100
AcDbEntity
  8
001
370
               5
390
0
 62
               7
100
AcDbLine
 10
181.55119999999991
 20
-114.0379200000001
 30
0.0
 11
181.55119999999991
 21
-111.4366
 31
0.0
  0
LINE
  5
2F3
100
AcDbEntity
  8
001
370
               5
390
0
 62
               7
100
AcDbLine
 10
234.57827999999975
 20
-114.0379200000001
 30
0.0
 11
234.57827999999975
 21
-111.4366
 31
0.0
  0
LINE
  5
2F4
100
AcDbEntity
  8
001
370
               5
390
0
 62
               7
100
AcDbLine
 10
241.58187999999976
 20
-111.4366
 30
0.0
 11
241.58187999999976
 21
-114.0379200000001
 31
0.0
  0
LINE
  5
2F5
100
AcDbEntity
  8
001
370
               5
390
0
 62
               7
100
AcDbLine
 10
129.78467999999995
 20
-40.0
 30
0.0
 11
127.02327999999982
 21
-41.594920000000116
 31
0.0
  0
LINE
  5
2F6
100
AcDbEntity
  8
001
370
               5
390
0
 62
               7
100
AcDbLine
 10
127.02327999999982
 20
-41.594920000000116
 30
0.0
 11
129.78467999999995
 21
-43.172320000000013
 31
0.0
  0
LINE
  5
2F7
100
AcDbEntity
  8
001
370
               5
390
0
 62
               7
100
AcDbLine
 10
129.78467999999995
 20
-43.172400000000039
 30
0.0
 11
127.02327999999982
 21
-44.715000000000146
 31
0.0
  0
LINE
  5
2F8
100
AcDbEntity
  8
001
370
               5
390
0
 62
               7
100
AcDbLine
 10
127.02327999999982
 20
-44.715000000000146
 30
0.0
 11
129.78467999999995
 21
-46.205920000000219
 31
0.0
  0
LINE
  5
2F9
100
AcDbEntity
  8
001
370
               5
390
0
 62
               7
100
AcDbLine
 10
129.78467999999995
 20
-46.206000000000131
 30
0.0
 11
127.02327999999982
 21
-47.628920000000107
 31
0.0
  0
LINE
  5
2FA
100
AcDbEntity
  8
001
370
               5
390
0
 62
               7
100
AcDbLine
 10
127.02327999999982
 20
-47.628920000000107
 30
0.0
 11
129.78467999999995
 21
-48.968400000000088
 31
0.0
  0
LINE
  5
2FB
100
AcDbEntity
  8
001
370
               5
390
0
 62
               7
100
AcDbLine
 10
129.78467999999995
 20
-48.968320000000176
 30
0.0
 11
127.02327999999982
 21
-50.209600000000137
 31
0.0
  0
LINE
  5
2FC
100
AcDbEntity
  8
001
370
               5
390
0
 62
               7
100
AcDbLine
 10
127.02327999999982
 20
-50.209520000000225
 30
0.0
 11
129.78467999999995
 21
-51.338800000000106
 31
0.0
  0
LINE
  5
2FD
100
AcDbEntity
  8
001
370
               5
390
0
 62
               7
100
AcDbLine
 10
129.78467999999995
 20
-51.33872000000008
 30
0.0
 11
127.02327999999982
 21
-52.343920000000139
 31
0.0
  0
LINE
  5
2FE
100
AcDbEntity
  8
001
370
               5
390
0
 62
               7
100
AcDbLine
 10
127.02327999999982
 20
-52.343920000000139
 30
0.0
 11
129.78467999999995
 21
-53.21372000000008
 31
0.0
  0
LINE
  5
2FF
100
AcDbEntity
  8
001
370
               5
390
0
 62
               7
100
AcDbLine
 10
129.78467999999995
 20
-53.21372000000008
 30
0.0
 11
127.02327999999982
 21
-53.938720000000103
 31
0.0
  0
LINE
  5
300
100
AcDbEntity
  8
001
370
               5
390
0
 62
               7
100
AcDbLine
 10
127.02327999999982
 20
-53.938800000000128
 30
0.0
 11
129.78467999999995
 21
-54.511120000000119
 31
0.0
  0
LINE
  5
301
100
AcDbEntity
  8
001
370
               5
390
0
 62
               7
100
AcDbLine
 10
129.78467999999995
 20
-54.511120000000119
 30
0.0
 11
127.02327999999982
 21
-55.062600000000089
 31
0.0
  0
LINE
  5
302
100
AcDbEntity
  8
001
370
               5
390
0
 62
               7
100
AcDbLine
 10
129.78467999999995
 20
-40.0
 30
0.0
 11
127.02327999999982
 21
-38.40520000000015
 31
0.0
  0
LINE
  5
303
100
AcDbEntity
  8
001
370
               5
390
0
 62
               7
100
AcDbLine
 10
127.02327999999982
 20
-38.405120000000238
 30
0.0
 11
129.78467999999995
 21
-36.827720000000113
 31
0.0
  0
LINE
  5
304
100
AcDbEntity
  8
001
370
               5
390
0
 62
               7
100
AcDbLine
 10
129.78467999999995
 20
-36.827720000000113
 30
0.0
 11
127.02327999999982
 21
-35.28512000000012
 31
0.0
  0
LINE
  5
305
100
AcDbEntity
  8
001
370
               5
390
0
 62
               7
100
AcDbLine
 10
127.02327999999982
 20
-35.28512000000012
 30
0.0
 11
129.78467999999995
 21
-33.79420000000016
 31
0.0
  0
LINE
  5
306
100
AcDbEntity
  8
001
370
               5
390
0
 62
               7
100
AcDbLine
 10
129.78467999999995
 20
-33.794120000000134
 30
0.0
 11
127.02327999999982
 21
-32.371120000000133
 31
0.0
  0
LINE
  5
307
100
AcDbEntity
  8
001
370
               5
390
0
 62
               7
100
AcDbLine
 10
127.02327999999982
 20
-32.371120000000133
 30
0.0
 11
129.78467999999995
 21
-31.03160000000014
 31
0.0
  0
LINE
  5
308
100
AcDbEntity
  8
001
370
               5
390
0
 62
               7
100
AcDbLine
 10
129.78467999999995
 20
-31.031800000000089
 30
0.0
 11
127.02327999999982
 21
-29.790520000000129
 31
0.0
  0
LINE
  5
309
100
AcDbEntity
  8
001
370
               5
390
0
 62
               7
100
AcDbLine
 10
127.02327999999982
 20
-29.790600000000154
 30
0.0
 11
129.78467999999995
 21
-28.66132000000016
 31
0.0
  0
LINE
  5
30A
100
AcDbEntity
  8
001
370
               5
390
0
 62
               7
100
AcDbLine
 10
129.78467999999995
 20
-28.661400000000185
 30
0.0
 11
127.02327999999982
 21
-27.65620000000024
 31
0.0
  0
LINE
  5
30B
100
AcDbEntity
  8
001
370
               5
390
0
 62
               7
100
AcDbLine
 10
127.02327999999982
 20
-27.65620000000024
 30
0.0
 11
129.78467999999995
 21
-26.786400000000185
 31
0.0
  0
LINE
  5
30C
100
AcDbEntity
  8
001
370
               5
390
0
 62
               7
100
AcDbLine
 10
129.78467999999995
 20
-26.786400000000185
 30
0.0
 11
127.02327999999982
 21
-26.061400000000162
 31
0.0
  0
LINE
  5
30D
100
AcDbEntity
  8
001
370
               5
390
0
 62
               7
100
AcDbLine
 10
127.02327999999982
 20
-26.061320000000137
 30
0.0
 11
129.78467999999995
 21
-25.489000000000146
 31
0.0
  0
LINE
  5
30E
100
AcDbEntity
  8
001
370
               5
390
0
 62
               7
100
AcDbLine
 10
129.78467999999995
 20
-25.489000000000146
 30
0.0
 11
127.02327999999982
 21
-24.937520000000063
 31
0.0
  0
LINE
  5
30F
100
AcDbEntity
  8
001
370
               5
390
0
 62
               7
100
AcDbLine
 10
127.02327999999982
 20
-24.937520000000063
 30
0.0
 11
129.78467999999995
 21
-24.82592000000011
 31
0.0
  0
LINE
  5
310
100
AcDbEntity
  8
001
370
               5
390
0
 62
               7
100
AcDbLine
 10
127.02327999999982
 20
-55.062600000000089
 30
0.0
 11
129.78467999999995
 21
-55.174200000000042
 31
0.0
  0
MTEXT
  5
311
100
AcDbEntity
  8
001
390
0
 62
               7
100
AcDbMText
 10
57.757150000000138
 20
-13.304502285577145
 30
0.0
 40
8.7312499999999993
 41
0.0
 71
               1
 72
               1
  1
MIN. 30
  7
ＭＳ Ｐゴシック
 11
-0.0000000521540643
 21
0.9999999999999987
 31
0.0
 73
               1
 44
0.8762322015334064
  0
LINE
  5
312
100
AcDbEntity
  8
001
370
               5
390
0
  6
STYLE_13
 62
               7
100
AcDbLine
 10
88.754799999999904
 20
60.000879999999903
 30
0.0
 11
148.19887999999995
 21
60.000879999999903
 31
0.0
  0
DIMENSION
  5
313
100
AcDbEntity
  8
寸法
370
               5
390
0
  6
Continuous
 62
               7
100
AcDbDimension
  2
*D1
 10
-206.83040000000003
 20
85.0
 30
0.0
 11
-142.48180729064939
 21
85.052120000000002
 31
0.0
 70
             128
 71
               5
 72
               1
 41
1.0
 42
0.0
  3
中谷
100
AcDbAlignedDimension
 13
-76.763799999999918
 23
58.130679999999813
 33
0.0
 14
-206.83040000000003
 24
58.130679999999813
 34
0.0
100
AcDbRotatedDimension
1001
ACAD
1000
DSTYLE
1002
{
1070
             271
1070
               0
1070
             279
1070
               2
1070
             340
1005
3C
1070
             147
1040
0.05212
1002
}
  0
DIMENSION
  5
314
100
AcDbEntity
  8
寸法
370
               5
390
0
  6
Continuous
 62
               7
100
AcDbDimension
  2
*D2
 10
-108.48160000000004
 20
79.561199999999872
 30
0.0
 11
-108.45160000000004
 21
11.136786437988221
 31
0.0
 70
             128
 71
               5
 72
               1
 41
1.0
 42
0.0
  3
中谷
100
AcDbAlignedDimension
 13
-110.48159999999993
 23
-40.0
 33
0.0
 14
-141.79712000000004
 24
79.561199999999872
 34
0.0
 50
90.0
100
AcDbRotatedDimension
1001
ACAD
1000
DSTYLE
1002
{
1070
             271
1070
               0
1070
             279
1070
               2
1070
             340
1005
3C
1070
             147
1040
0.03
1002
}
  0
MTEXT
  5
315
100
AcDbEntity
  8
001
390
0
 62
               7
100
AcDbMText
 10
-281.48159999999996
 20
158.86732999999987
 30
0.0
 40
8.7312499999999993
 41
0.0
 71
               1
 72
               1
  1
ＣＭＳ-０４０シリーズ　外形図
  7
ＭＳ Ｐゴシック (bold)
 73
               1
 44
0.8762322015334064
  0
DIMENSION
  5
316
100
AcDbEntity
  8
寸法
370
               5
390
0
  6
Continuous
 62
               7
100
AcDbDimension
  2
*D3
 10
-214.3342000000001
 20
-130.86392000000012
 30
0.0
 11
-141.79710000000014
 21
-130.86392000000012
 31
0.0
 71
               5
 72
               1
 41
1.0
 42
0.0
  3
中谷
100
AcDbAlignedDimension
 13
-69.26000000000019
 23
-120.86392000000012
 33
0.0
 14
-214.3342000000001
 24
-120.86392000000012
 34
0.0
100
AcDbRotatedDimension
1001
ACAD
1000
DSTYLE
1002
{
1070
             271
1070
               0
1070
             279
1070
               2
1070
             340
1005
3C
1070
             147
1040
0.03
1002
}
  0
DIMENSION
  5
317
100
AcDbEntity
  8
寸法
370
               5
390
0
  6
Continuous
 62
               7
100
AcDbDimension
  2
*D4
 10
-224.33932000000024
 20
-150.86392000000009
 30
0.0
 11
-141.79706000000024
 21
-150.86392000000009
 31
0.0
 71
               5
 72
               1
 41
1.0
 42
0.0
  3
中谷
100
AcDbAlignedDimension
 13
-59.254800000000245
 23
-114.0379200000001
 33
0.0
 14
-224.33932000000024
 24
-114.0379200000001
 34
0.0
100
AcDbRotatedDimension
1001
ACAD
1000
DSTYLE
1002
{
1070
             271
1070
               0
1070
             279
1070
               2
1070
             340
1005
3C
1070
             147
1040
0.03
1002
}
  0
DIMENSION
  5
318
100
AcDbEntity
  8
寸法
370
               5
390
0
  6
Continuous
 62
               7
100
AcDbDimension
  2
*D5
 10
-72.944486887725333
 20
-107.24993278491934
 30
0.0
 11
-39.481599999999816
 21
-144.62500052960985
 31
0.0
 70
               3
 71
               5
 72
               1
 41
1.0
 42
0.0
  1
4-φ7取付穴
  3
中谷
100
AcDbDiametricDimension
 15
-68.608713112275296
 25
-112.75006721507964
 35
0.0
 40
40.58796850253573
1001
ACAD
1000
DSTYLE
1002
{
1070
             172
1070
               0
1070
             289
1070
               0
1070
             342
1005
5C
1070
             340
1005
3C
1070
              73
1070
               1
1070
              74
1070
               1
1070
              75
1070
               1
1070
              76
1070
               1
1070
             174
1070
               0
1070
             147
1040
0.03
1002
}
  0
DIMENSION
  5
319
100
AcDbEntity
  8
寸法
370
               5
390
0
  6
Continuous
 62
               7
100
AcDbDimension
  2
*D6
 10
-52.481600000000242
 20
-114.0379200000001
 30
0.0
 11
-52.451600000000241
 21
-104.2834
 31
0.0
 70
             128
 71
               5
 72
               1
 41
1.0
 42
0.0
  3
中谷
100
AcDbAlignedDimension
 13
-59.254800000000245
 23
-111.7366
 33
0.0
 14
-59.254800000000245
 24
-114.0379200000001
 34
0.0
 50
90.0
100
AcDbRotatedDimension
1001
ACAD
1000
DSTYLE
1002
{
1070
             279
1070
               2
1070
             340
1005
3C
1070
             174
1070
               0
1070
             147
1040
0.03
1002
}
  0
DIMENSION
  5
31A
100
AcDbEntity
  8
寸法
370
               5
390
0
  6
Continuous
 62
               7
100
AcDbDimension
  2
*D7
 10
-35.481599999999887
 20
-114.0379200000001
 30
0.0
 11
-35.451599999999885
 21
-74.863437060546914
 31
0.0
 70
             128
 71
               5
 72
               1
 41
1.0
 42
0.0
  3
中谷
100
AcDbAlignedDimension
 13
-76.763799999999918
 23
-40.0
 33
0.0
 14
-59.254800000000245
 24
-114.0379200000001
 34
0.0
 50
90.0
100
AcDbRotatedDimension
1001
ACAD
1000
DSTYLE
1002
{
1070
             271
1070
               0
1070
             279
1070
               2
1070
             340
1005
3C
1070
             147
1040
0.03
1002
}
  0
DIMENSION
  5
31B
100
AcDbEntity
  8
寸法
370
               5
390
0
  6
Continuous
 62
               7
100
AcDbDimension
  2
*D8
 10
-15.481599999999879
 20
-114.0379200000001
 30
0.0
 11
-15.45159999999988
 21
-24.862935893554791
 31
0.0
 70
             128
 71
               5
 72
               1
 41
1.0
 42
0.0
  3
中谷
100
AcDbAlignedDimension
 13
-79.465200000000181
 23
60.051199999999881
 33
0.0
 14
-59.254800000000245
 24
-114.0379200000001
 34
0.0
 50
90.0
100
AcDbRotatedDimension
1001
ACAD
1000
DSTYLE
1002
{
1070
             271
1070
               0
1070
             279
1070
               2
1070
             340
1005
3C
1070
             147
1040
0.03
1002
}
  0
DIMENSION
  5
31C
100
AcDbEntity
  8
寸法
370
               5
390
0
  6
Continuous
 62
               7
100
AcDbDimension
  2
*D9
 10
131.45326361431327
 20
-48.721274831166738
 30
0.0
 11
104.51839999999871
 21
-109.86391999999962
 31
0.0
 70
               3
 71
               5
 72
               1
 41
1.0
 42
0.0
  1
歯数30枚
  3
中谷
100
AcDbDiametricDimension
 15
128.99353638568684
 25
-55.278725168833262
 35
0.0
 40
58.299011181742358
1001
ACAD
1000
DSTYLE
1002
{
1070
             172
1070
               0
1070
             289
1070
               0
1070
             342
1005
5C
1070
             340
1005
3C
1070
              73
1070
               1
1070
              74
1070
               1
1070
              75
1070
               1
1070
              76
1070
               1
1070
             174
1070
               0
1070
             147
1040
0.03
1002
}
  0
DIMENSION
  5
31D
100
AcDbEntity
  8
寸法
370
               5
390
0
  6
Continuous
 62
               7
100
AcDbDimension
  2
*D10
 10
168.04419999999993
 20
-150.86392000000009
 30
0.0
 11
208.06469999999993
 21
-150.86392000000009
 31
0.0
 71
               5
 72
               1
 41
1.0
 42
0.0
  3
中谷
100
AcDbAlignedDimension
 13
248.08519999999993
 23
-114.0379200000001
 33
0.0
 14
168.04419999999993
 24
-114.0379200000001
 34
0.0
100
AcDbRotatedDimension
1001
ACAD
1000
DSTYLE
1002
{
1070
             271
1070
               0
1070
             279
1070
               2
1070
             340
1005
3C
1070
             147
1040
0.03
1002
}
  0
DIMENSION
  5
31E
100
AcDbEntity
  8
寸法
370
               5
390
0
  6
Continuous
 62
               7
100
AcDbDimension
  2
*D11
 10
168.04419999999993
 20
-130.86392000000012
 30
0.0
 11
167.51827999999992
 21
-130.83392000000012
 31
0.0
 70
             128
 71
               5
 72
               1
 41
1.0
 42
0.0
  3
中谷
100
AcDbAlignedDimension
 13
178.04939999999988
 23
-120.64040000000011
 33
0.0
 14
168.04419999999993
 24
-114.86392000000012
 34
0.0
100
AcDbRotatedDimension
1001
ACAD
1000
DSTYLE
1002
{
1070
             271
1070
               0
1070
             279
1070
               2
1070
             340
1005
3C
1070
             174
1070
               0
1070
             147
1040
0.03
1002
}
  0
DIMENSION
  5
31F
100
AcDbEntity
  8
寸法
370
               5
390
0
  6
Continuous
 62
               7
100
AcDbDimension
  2
*D12
 10
178.04939999999988
 20
-130.86392000000012
 30
0.0
 11
208.0647399999998
 21
-130.86392000000012
 31
0.0
 71
               5
 72
               1
 41
1.0
 42
0.0
  3
中谷
100
AcDbAlignedDimension
 13
238.08007999999975
 23
-120.86392000000012
 33
0.0
 14
178.04939999999988
 24
-120.86392000000012
 34
0.0
100
AcDbRotatedDimension
1001
ACAD
1000
DSTYLE
1002
{
1070
             271
1070
               0
1070
             279
1070
               2
1070
             340
1005
3C
1070
             147
1040
0.03
1002
}
  0
DIMENSION
  5
320
100
AcDbEntity
  8
寸法
370
               5
390
0
  6
Continuous
 62
               7
100
AcDbDimension
  2
*D13
 10
238.08007999999975
 20
-130.86392000000009
 30
0.0
 11
257.51839999999993
 21
-130.83392000000009
 31
0.0
 70
             128
 71
               5
 72
               1
 41
1.0
 42
0.0
  3
中谷
100
AcDbAlignedDimension
 13
248.08519999999993
 23
-114.0379200000001
 33
0.0
 14
238.08007999999975
 24
-119.81440000000009
 34
0.0
100
AcDbRotatedDimension
1001
ACAD
1000
DSTYLE
1002
{
1070
             271
1070
               0
1070
             279
1070
               2
1070
             340
1005
3C
1070
             174
1070
               0
1070
             147
1040
0.03
1002
}
  0
DIMENSION
  5
321
100
AcDbEntity
  8
寸法
370
               5
390
0
  6
Continuous
 62
               7
100
AcDbDimension
  2
*D14
 10
215.51839999999976
 20
32.036799999999857
 30
0.0
 11
215.54839999999976
 21
-26.864728178711061
 31
0.0
 70
             128
 71
               5
 72
               1
 41
1.0
 42
0.0
  3
中谷
100
AcDbAlignedDimension
 13
209.51839999999976
 23
-114.0379200000001
 33
0.0
 14
209.51839999999976
 24
32.036799999999857
 34
0.0
 50
90.0
100
AcDbRotatedDimension
1001
ACAD
1000
DSTYLE
1002
{
1070
             271
1070
               0
1070
             279
1070
               2
1070
             340
1005
3C
1070
             147
1040
0.03
1002
}
  0
DIMENSION
  5
322
100
AcDbEntity
  8
寸法
370
               5
390
0
  6
Continuous
 62
               7
100
AcDbDimension
  2
*D15
 10
154.03708000000009
 20
81.393680172593619
 30
0.0
 11
176.58028017259386
 21
81.42368017259362
 31
0.0
 70
             128
 71
               5
 72
               1
 41
1.0
 42
0.0
  3
中谷
100
AcDbAlignedDimension
 13
192.05648000000002
 23
69.136079999999822
 33
0.0
 14
154.03708000000009
 24
58.850479999999834
 34
0.0
100
AcDbRotatedDimension
1001
ACAD
1000
DSTYLE
1002
{
1070
             271
1070
               0
1070
             279
1070
               2
1070
             340
1005
3C
1070
             147
1040
0.03
1002
}
  0
DIMENSION
  5
323
100
AcDbEntity
  8
寸法
370
               5
390
0
  6
Continuous
 62
               7
100
AcDbDimension
  2
*D16
 10
188.51839999999976
 20
22.136079999999879
 30
0.0
 11
212.75949334691092
 21
81.136018632597512
 31
0.0
 70
               3
 71
               5
 72
               1
 41
1.0
 42
0.0
  1
2-φ21電線口×2ヶ
  3
中谷
100
AcDbDiametricDimension
 15
195.33299999999983
 25
41.999679999999898
 35
0.0
 40
41.375399999999999
1001
ACAD
1000
DSTYLE
1002
{
1070
             172
1070
               0
1070
             289
1070
               0
1070
             342
1005
5C
1070
             340
1005
3C
1070
              73
1070
               1
1070
              74
1070
               1
1070
              75
1070
               1
1070
              76
1070
               1
1070
             174
1070
               0
1070
             147
1040
0.05
1002
}
  0
DIMENSION
  5
324
100
AcDbEntity
  8
寸法
370
               5
390
0
  6
Continuous
 62
               7
100
AcDbDimension
  2
*D17
 10
154.03708000000009
 20
97.136079999999836
 30
0.0
 11
237.07958000000002
 21
97.136079999999836
 31
0.0
 71
               5
 72
               1
 41
1.0
 42
0.0
  3
中谷
100
AcDbAlignedDimension
 13
320.12207999999993
 23
40.198879999999917
 33
0.0
 14
154.03708000000009
 24
58.850479999999834
 34
0.0
100
AcDbRotatedDimension
1001
ACAD
1000
DSTYLE
1002
{
1070
             271
1070
               0
1070
             279
1070
               2
1070
             340
1005
3C
1070
             147
1040
0.03
1002
}
  0
DIMENSION
  5
325
100
AcDbEntity
  8
寸法
370
               5
390
0
  6
Continuous
 62
               7
100
AcDbDimension
  2
*D18
 10
118.57887999999986
 20
97.136079999999922
 30
0.0
 11
136.30797999999999
 21
97.136079999999922
 31
0.0
 71
               5
 72
               1
 41
1.0
 42
0.0
  3
中谷
100
AcDbAlignedDimension
 13
154.03708000000009
 23
58.850479999999834
 33
0.0
 14
118.57887999999986
 24
79.322279999999921
 34
0.0
100
AcDbRotatedDimension
1001
ACAD
1000
DSTYLE
1002
{
1070
             271
1070
               0
1070
             279
1070
               2
1070
             340
1005
3C
1070
             147
1040
0.03
1002
}
  0
DIMENSION
  5
326
100
AcDbEntity
  8
寸法
370
               5
390
0
  6
Continuous
 62
               7
100
AcDbDimension
  2
*D19
 10
110.07407999999998
 20
97.136119999999863
 30
0.0
 11
105.51840000000013
 21
97.166119999999864
 31
0.0
 70
             128
 71
               5
 72
               1
 41
1.0
 42
0.0
  3
中谷
100
AcDbAlignedDimension
 13
118.57887999999986
 23
79.561079999999833
 33
0.0
 14
110.07407999999998
 24
45.515599999999836
 34
0.0
100
AcDbRotatedDimension
1001
ACAD
1000
DSTYLE
1002
{
1070
             271
1070
               0
1070
             279
1070
               2
1070
             340
1005
3C
1070
             174
1070
               0
1070
             147
1040
0.03
1002
}
  0
DIMENSION
  5
327
100
AcDbEntity
  8
寸法
370
               5
390
0
  6
Continuous
 62
               7
100
AcDbDimension
  2
*D20
 10
85.56147999999996
 20
117.13611999999995
 30
0.0
 11
202.84177999999994
 21
117.13611999999995
 31
0.0
 71
               5
 72
               1
 41
1.0
 42
0.0
  3
中谷
100
AcDbAlignedDimension
 13
320.12207999999993
 23
40.198879999999917
 33
0.0
 14
85.56147999999996
 24
66.304079999999857
 34
0.0
100
AcDbRotatedDimension
1001
ACAD
1000
DSTYLE
1002
{
1070
             271
1070
               0
1070
             279
1070
               2
1070
             340
1005
3C
1070
             147
1040
0.03
1002
}
  0
DIMENSION
  5
328
100
AcDbEntity
  8
寸法
370
               5
390
0
  6
Continuous
 62
               7
100
AcDbDimension
  2
*D21
 10
54.518400000000121
 20
-40.0
 30
0.0
 11
54.518400000000121
 21
10.0
 31
0.0
 71
               5
 72
               1
 41
1.0
 42
0.0
  3
中谷
100
AcDbAlignedDimension
 13
87.659479999999917
 23
60.0
 33
0.0
 14
109.51839999999976
 24
-40.0
 34
0.0
 50
90.0
100
AcDbRotatedDimension
1001
ACAD
1000
DSTYLE
1002
{
1070
             279
1070
               2
1070
             340
1005
3C
1070
               3
1000
MAX.<>
1070
             147
1040
0.03
1002
}
  0
DIMENSION
  5
329
100
AcDbEntity
  8
寸法
370
               5
390
0
  6
Continuous
 62
               7
100
AcDbDimension
  2
*D22
 10
110.11238289236573
 20
63.67351221931434
 30
0.0
 11
102.51839999999939
 21
18.096104942111971
 31
0.0
 70
               3
 71
               5
 72
               1
 41
1.0
 42
0.0
  1
8.2
  3
中谷
100
AcDbDiametricDimension
 15
109.46777710763311
 25
55.498887780672327
 35
0.0
 40
37.51888843491421
1001
ACAD
1000
DSTYLE
1002
{
1070
             172
1070
               0
1070
             289
1070
               0
1070
             342
1005
5C
1070
             340
1005
3C
1070
              73
1070
               1
1070
              74
1070
               1
1070
              75
1070
               1
1070
              76
1070
               1
1070
             174
1070
               0
1070
             147
1040
0.05
1002
}
  0
MTEXT
  5
32A
100
AcDbEntity
  8
001
390
0
 62
               7
100
AcDbMText
 10
-158.78480000000022
 20
-23.428670000000057
 30
0.0
 40
8.7312499999999993
 41
0.0
 71
               1
 72
               1
  1
O
  7
ＭＳ Ｐゴシック
 73
               1
 44
0.8762322015334064
  0
MTEXT
  5
32B
100
AcDbEntity
  8
001
390
0
 62
               7
100
AcDbMText
 10
-128.76939999999999
 20
-23.428670000000057
 30
0.0
 40
8.7312499999999993
 41
0.0
 71
               1
 72
               1
  1
S
  7
ＭＳ Ｐゴシック
 73
               1
 44
0.8762322015334064
  0
DIMENSION
  5
32C
100
AcDbEntity
  8
寸法
370
               5
390
0
  6
Continuous
 62
               7
100
AcDbDimension
  2
*D23
 10
154.03708000000009
 20
-150.86392000000012
 30
0.0
 11
162.03708001750894
 21
-150.83392000000012
 31
0.0
 70
             128
 71
               5
 72
               1
 41
1.0
 42
0.0
  3
中谷
100
AcDbAlignedDimension
 13
168.04419999999993
 23
-114.0379200000001
 33
0.0
 14
154.03708000000009
 24
-105.86391998509896
 34
0.0
100
AcDbRotatedDimension
1001
ACAD
1000
DSTYLE
1002
{
1070
             271
1070
               0
1070
             279
1070
               2
1070
             340
1005
3C
1070
             147
1040
0.03
1002
}
  0
LINE
  5
32D
100
AcDbEntity
  8
001
370
               5
390
0
 62
               7
100
AcDbLine
 10
-59.254800000000245
 20
-111.7379200000001
 30
0.0
 11
-59.254800000000245
 21
-114.0379200000001
 31
0.0
  0
LINE
  5
32E
100
AcDbEntity
  8
001
370
               5
390
0
 62
               7
100
AcDbLine
 10
-224.33932000000024
 20
-111.7379200000001
 30
0.0
 11
-224.33932000000024
 21
-114.0379200000001
 31
0.0
  0
LINE
  5
32F
100
AcDbEntity
  8
001
370
               5
390
0
 62
               7
100
AcDbLine
 10
-65.758200000000187
 20
-111.7379200000001
 30
0.0
 11
-65.758200000000187
 21
-114.0379200000001
 31
0.0
  0
LINE
  5
330
100
AcDbEntity
  8
001
370
               5
390
0
 62
               7
100
AcDbLine
 10
-72.761720000000054
 20
-111.7379200000001
 30
0.0
 11
-72.761720000000054
 21
-114.0379200000001
 31
0.0
  0
LINE
  5
331
100
AcDbEntity
  8
001
370
               5
390
0
 62
               7
100
AcDbLine
 10
-210.83240000000009
 20
-111.7379200000001
 30
0.0
 11
-210.83240000000009
 21
-114.0379200000001
 31
0.0
  0
LINE
  5
332
100
AcDbEntity
  8
001
370
               5
390
0
 62
               7
100
AcDbLine
 10
-217.8360000000001
 20
-111.7379200000001
 30
0.0
 11
-217.8360000000001
 21
-114.0379200000001
 31
0.0
  0
POLYLINE
  5
333
100
AcDbEntity
  8
一般
370
               5
390
0
  6
STYLE_01
 62
               7
100
AcDb2dPolyline
 66
               1
 10
0.0
 20
0.0
 30
0.0
 70
               1
 75
               5
  0
VERTEX
  5
334
100
AcDbEntity
  8
一般
370
               5
390
0
  6
STYLE_01
 62
               7
100
AcDbVertex
100
AcDb2dVertex
 10
-208.79706000000007
 20
116.05119999999988
 30
0.0
  0
VERTEX
  5
335
100
AcDbEntity
  8
一般
370
               5
390
0
  6
STYLE_01
 62
               7
100
AcDbVertex
100
AcDb2dVertex
 10
-74.797060000000073
 20
116.05119999999988
 30
0.0
  0
VERTEX
  5
336
100
AcDbEntity
  8
一般
370
               5
390
0
  6
STYLE_01
 62
               7
100
AcDbVertex
100
AcDb2dVertex
 10
-74.797060000000073
 20
106.05119999999988
 30
0.0
  0
VERTEX
  5
337
100
AcDbEntity
  8
一般
370
               5
390
0
  6
STYLE_01
 62
               7
100
AcDbVertex
100
AcDb2dVertex
 10
-208.79706000000007
 20
106.05119999999988
 30
0.0
  0
SEQEND
  5
338
100
AcDbEntity
  8
一般
370
               5
390
0
  6
STYLE_01
 62
               7
  0
LINE
  5
339
100
AcDbEntity
  8
一般
370
               5
390
0
  6
STYLE_01
 62
               7
100
AcDbLine
 10
-206.83040000000003
 20
106.05119999999988
 30
0.0
 11
-206.83040000000003
 21
60.051199999999881
 31
0.0
  0
LINE
  5
33A
100
AcDbEntity
  8
一般
370
               5
390
0
  6
STYLE_01
 62
               7
100
AcDbLine
 10
-76.763799999999918
 20
106.05119999999988
 30
0.0
 11
-76.763799999999918
 21
60.051199999999881
 31
0.0
  0
MTEXT
  5
33B
100
AcDbEntity
  8
一般
390
0
 62
               7
100
AcDbMText
 10
-141.79706000000007
 20
114.34728333333321
 30
0.0
 40
6.790972222222222
 41
0.0
 71
               2
 72
               1
  1
電々ポジショナ付
  7
ＭＳ Ｐゴシック
 73
               1
 44
0.8762322015334064
  0
POLYLINE
  5
33C
100
AcDbEntity
  8
一般
370
               5
390
0
  6
STYLE_01
 62
               7
100
AcDb2dPolyline
 66
               1
 10
0.0
 20
0.0
 30
0.0
 70
               1
 75
               5
  0
VERTEX
  5
33D
100
AcDbEntity
  8
一般
370
               5
390
0
  6
STYLE_01
 62
               7
100
AcDbVertex
100
AcDb2dVertex
 10
152.00381999999988
 20
116.05119999999988
 30
0.0
  0
VERTEX
  5
33E
100
AcDbEntity
  8
一般
370
               5
390
0
  6
STYLE_01
 62
               7
100
AcDbVertex
100
AcDb2dVertex
 10
316.00381999999991
 20
116.05119999999988
 30
0.0
  0
VERTEX
  5
33F
100
AcDbEntity
  8
一般
370
               5
390
0
  6
STYLE_01
 62
               7
100
AcDbVertex
100
AcDb2dVertex
 10
316.00381999999991
 20
106.05119999999988
 30
0.0
  0
VERTEX
  5
340
100
AcDbEntity
  8
一般
370
               5
390
0
  6
STYLE_01
 62
               7
100
AcDbVertex
100
AcDb2dVertex
 10
152.00381999999988
 20
106.05119999999988
 30
0.0
  0
SEQEND
  5
341
100
AcDbEntity
  8
一般
370
               5
390
0
  6
STYLE_01
 62
               7
  0
LINE
  5
342
100
AcDbEntity
  8
一般
370
               5
390
0
  6
STYLE_01
 62
               7
100
AcDbLine
 10
314.03708000000006
 20
106.05119999999988
 30
0.0
 11
314.03708000000006
 21
51.051199999999881
 31
0.0
  0
LINE
  5
343
100
AcDbEntity
  8
一般
370
               5
390
0
  6
STYLE_01
 62
               7
100
AcDbLine
 10
154.03708000000003
 20
106.05119999999988
 30
0.0
 11
154.03708000000003
 21
60.051199999999881
 31
0.0
  0
LINE
  5
344
100
AcDbEntity
  8
一般
370
               5
390
0
  6
STYLE_01
 62
               7
100
AcDbLine
 10
230.07599999999985
 20
51.047079999999937
 30
0.0
 11
314.03708000000006
 21
51.051199999999881
 31
0.0
  0
DIMENSION
  5
345
100
AcDbEntity
  8
寸法
370
               5
390
0
  6
Continuous
 62
               7
100
AcDbDimension
  2
*D24
 10
-15.481599999999929
 20
60.051079999999956
 30
0.0
 11
-15.45159999999993
 21
88.736444202880776
 31
0.0
 70
             128
 71
               5
 72
               1
 41
1.0
 42
0.0
  3
中谷
100
AcDbAlignedDimension
 13
-74.797060000000073
 23
116.05119999999988
 33
0.0
 14
-77.96440000000004
 24
60.051079999999956
 34
0.0
 50
90.0
100
AcDbRotatedDimension
1001
ACAD
1000
DSTYLE
1002
{
1070
             271
1070
               0
1070
             279
1070
               2
1070
             340
1005
3C
1070
             147
1040
0.03
1002
}
  0
ENDSEC
  0
SECTION
  2
OBJECTS
  0
DICTIONARY
  5
19
100
AcDbDictionary
280
               0
281
               1
  3
ACAD_GROUP
350
1A
  3
ACAD_MLINESTYLE
350
1B
  3
ACAD_LAYOUT
350
1E
  3
ACAD_PLOTSETTINGS
350
22
  3
ACAD_PLOTSTYLENAME
350
1F
  3
ACAD_WIPEOUT_VARS
350
23
  0
DICTIONARY
  5
1A
102
{ACAD_REACTORS
330
19
102
}
100
AcDbDictionary
280
               0
281
               1
  0
DICTIONARY
  5
1B
102
{ACAD_REACTORS
330
19
102
}
100
AcDbDictionary
280
               0
281
               1
  3
Standard
350
1C
  0
MLINESTYLE
  5
1C
102
{ACAD_REACTORS
330
1B
102
}
100
AcDbMlineStyle
  2
Standard
 70
               0
  3

 62
               0
 51
90.0
 52
90.0
 71
               2
 49
0.5
 62
             256
  6
ByLayer
 49
-0.5
 62
             256
  6
ByLayer
  0
ACDBDICTIONARYWDFLT
  5
1F
102
{ACAD_REACTORS
330
19
102
}
100
AcDbDictionary
281
               1
  3
Normal
350
1D
100
AcDbDictionaryWithDefault
340
1D
  0
ACDBPLACEHOLDER
  5
1D
102
{ACAD_REACTORS
330
1F
102
}
  0
LAYOUT
  5
20
102
{ACAD_REACTORS
330
1E
102
}
100
AcDbPlotSettings
  1

  2

  4

  6

 40
0.0
 41
0.0
 42
0.0
 43
0.0
 44
0.0
 45
0.0
 46
0.0
 47
0.0
 48
0.0
 49
0.0
140
0.0
141
0.0
142
1.0
143
1.0
 70
            1024
 72
               0
 73
               0
 74
               0
  7

 75
               0
147
1.0
148
0.0
149
0.0
100
AcDbLayout
  1
Model
 70
               0
 71
               0
 10
0.0
 20
0.0
 11
0.0
 21
0.0
 12
0.0
 22
0.0
 32
0.0
 14
0.0
 24
0.0
 34
0.0
 15
0.0
 25
0.0
 35
0.0
146
0.0
 13
0.0
 23
0.0
 33
0.0
 16
0.0
 26
0.0
 36
0.0
 17
0.0
 27
0.0
 37
0.0
 76
               0
330
A
331
0
345
0
346
0
  0
LAYOUT
  5
21
102
{ACAD_REACTORS
330
1E
102
}
100
AcDbPlotSettings
  1

  2

  4

  6

 40
0.0
 41
0.0
 42
0.0
 43
0.0
 44
0.0
 45
0.0
 46
0.0
 47
0.0
 48
0.0
 49
0.0
140
0.0
141
0.0
142
1.0
143
1.0
 70
               0
 72
               0
 73
               0
 74
               0
  7

 75
               0
147
1.0
148
0.0
149
0.0
100
AcDbLayout
  1
Layout1
 70
               0
 71
               0
 10
0.0
 20
0.0
 11
0.0
 21
0.0
 12
0.0
 22
0.0
 32
0.0
 14
0.0
 24
0.0
 34
0.0
 15
0.0
 25
0.0
 35
0.0
146
0.0
 13
0.0
 23
0.0
 33
0.0
 16
0.0
 26
0.0
 36
0.0
 17
0.0
 27
0.0
 37
0.0
 76
               0
330
B
331
0
345
0
346
0
  0
DICTIONARY
  5
1E
102
{ACAD_REACTORS
330
19
102
}
100
AcDbDictionary
280
               0
281
               1
  3
Layout1
350
21
  3
Model
350
20
  0
DICTIONARY
  5
22
102
{ACAD_REACTORS
330
19
102
}
100
AcDbDictionary
280
               0
281
               1
  0
WIPEOUTVARIABLES
  5
23
100
AcDbWipeoutVariables
 70
               0
  0
ENDSEC
  0
EOF
